  0
SECTION
  2
HEADER
  9
$ACADVER
  1
AC1009
  9
$DWGCODEPAGE
  3
ansi_1252
  9
$INSBASE
 10
0.0
 20
0.0
 30
0.0
  9
$EXTMIN
 10
0.0
 20
0.0
 30
0.0
  9
$EXTMAX
 10
297.0
 20
210.0
 30
0.0
  9
$LIMMIN
 10
0.0
 20
0.0
  9
$LIMMAX
 10
297.0
 20
210.0
  9
$ORTHOMODE
 70
     0
  9
$REGENMODE
 70
     1
  9
$FILLMODE
 70
     1
  9
$QTEXTMODE
 70
     0
  9
$MIRRTEXT
 70
     1
  9
$DRAGMODE
 70
     2
  9
$LTSCALE
 40
1.0
  9
$OSMODE
 70
    37
  9
$ATTMODE
 70
     1
  9
$TEXTSIZE
 40
3.5
  9
$TRACEWID
 40
1.0
  9
$TEXTSTYLE
  7
STANDARD
  9
$CLAYER
  8
0
  9
$CELTYPE
  6
BYLAYER
  9
$CECOLOR
 62
   256
  9
$DIMSCALE
 40
1.0
  9
$DIMASZ
 40
4.0
  9
$DIMEXO
 40
1.0
  9
$DIMDLI
 40
3.75
  9
$DIMRND
 40
0.0
  9
$DIMDLE
 40
0.0
  9
$DIMEXE
 40
1.0
  9
$DIMTP
 40
0.0
  9
$DIMTM
 40
0.0
  9
$DIMTXT
 40
3.8805555556
  9
$DIMCEN
 40
2.5
  9
$DIMTSZ
 40
0.0
  9
$DIMTOL
 70
     0
  9
$DIMLIM
 70
     0
  9
$DIMTIH
 70
     1
  9
$DIMTOH
 70
     1
  9
$DIMSE1
 70
     0
  9
$DIMSE2
 70
     0
  9
$DIMTAD
 70
     1
  9
$DIMZIN
 70
     0
  9
$DIMBLK
  1

  9
$DIMASO
 70
     1
  9
$DIMSHO
 70
     1
  9
$DIMPOST
  1

  9
$DIMAPOST
  1

  9
$DIMALT
 70
     0
  9
$DIMALTD
 70
     3
  9
$DIMALTF
 40
0.0393700787
  9
$DIMLFAC
 40
0.6666666667
  9
$DIMTOFL
 70
     1
  9
$DIMTVP
 40
0.0
  9
$DIMTIX
 70
     0
  9
$DIMSOXD
 70
     0
  9
$DIMSAH
 70
     0
  9
$DIMBLK1
  1

  9
$DIMBLK2
  1

  9
$DIMSTYLE
  2
ISO-25
  9
$DIMCLRD
 70
     0
  9
$DIMCLRE
 70
     0
  9
$DIMCLRT
 70
     0
  9
$DIMTFAC
 40
1.0
  9
$DIMGAP
 40
1.524
  9
$LUNITS
 70
     2
  9
$LUPREC
 70
     3
  9
$SKETCHINC
 40
1.0
  9
$FILLETRAD
 40
10.0
  9
$AUNITS
 70
     0
  9
$AUPREC
 70
     3
  9
$MENU
  1
.
  9
$ELEVATION
 40
0.0
  9
$PELEVATION
 40
0.0
  9
$THICKNESS
 40
0.0
  9
$LIMCHECK
 70
     0
  9
$CHAMFERA
 40
0.0
  9
$CHAMFERB
 40
0.0
  9
$SKPOLY
 70
     0
  9
$TDCREATE
 40
2457374.664622894
  9
$TDUPDATE
 40
2457374.664625718
  9
$TDINDWG
 40
0.0000000116
  9
$TDUSRTIMER
 40
0.0000000116
  9
$USRTIMER
 70
     1
  9
$ANGBASE
 50
0.0
  9
$ANGDIR
 70
     0
  9
$PDMODE
 70
     0
  9
$PDSIZE
 40
-1.0
  9
$PLINEWID
 40
0.0
  9
$COORDS
 70
     1
  9
$SPLFRAME
 70
     0
  9
$SPLINETYPE
 70
     6
  9
$SPLINESEGS
 70
     8
  9
$ATTDIA
 70
     0
  9
$ATTREQ
 70
     1
  9
$HANDLING
 70
     1
  9
$HANDSEED
  5
631
  9
$SURFTAB1
 70
     6
  9
$SURFTAB2
 70
     6
  9
$SURFTYPE
 70
     6
  9
$SURFU
 70
     6
  9
$SURFV
 70
     6
  9
$UCSNAME
  2

  9
$UCSORG
 10
0.0
 20
0.0
 30
0.0
  9
$UCSXDIR
 10
1.0
 20
0.0
 30
0.0
  9
$UCSYDIR
 10
0.0
 20
1.0
 30
0.0
  9
$PUCSNAME
  2

  9
$PUCSORG
 10
0.0
 20
0.0
 30
0.0
  9
$PUCSXDIR
 10
1.0
 20
0.0
 30
0.0
  9
$PUCSYDIR
 10
0.0
 20
1.0
 30
0.0
  9
$USERI1
 70
     0
  9
$USERI2
 70
     0
  9
$USERI3
 70
     0
  9
$USERI4
 70
     0
  9
$USERI5
 70
     0
  9
$USERR1
 40
0.0
  9
$USERR2
 40
0.0
  9
$USERR3
 40
0.0
  9
$USERR4
 40
0.0
  9
$USERR5
 40
0.0
  9
$WORLDVIEW
 70
     1
  9
$SHADEDGE
 70
     3
  9
$SHADEDIF
 70
    70
  9
$TILEMODE
 70
     1
  9
$MAXACTVP
 70
    64
  9
$PLIMCHECK
 70
     0
  9
$PEXTMIN
 10
1.0000000000E+20
 20
1.0000000000E+20
 30
1.0000000000E+20
  9
$PEXTMAX
 10
-1.0000000000E+20
 20
-1.0000000000E+20
 30
-1.0000000000E+20
  9
$PLIMMIN
 10
0.0
 20
0.0
  9
$PLIMMAX
 10
420.0
 20
297.0
  9
$UNITMODE
 70
     0
  9
$VISRETAIN
 70
     1
  9
$PLINEGEN
 70
     0
  9
$PSLTSCALE
 70
     1
  0
ENDSEC
  0
SECTION
  2
TABLES
  0
TABLE
  2
VPORT
 70
     1
  0
VPORT
  2
*ACTIVE
 70
     0
 10
0.0
 20
0.0
 11
1.0
 21
1.0
 12
148.5
 22
105.0
 13
0.0
 23
0.0
 14
10.0
 24
10.0
 15
10.0
 25
10.0
 16
0.0
 26
0.0
 36
1.0
 17
0.0
 27
0.0
 37
0.0
 40
210.0
 41
1.4142857143
 42
50.0
 43
0.0
 44
0.0
 50
0.0
 51
0.0
 71
     0
 72
  2000
 73
     1
 74
     3
 75
     0
 76
     0
 77
     0
 78
     0
  0
ENDTAB
  0
TABLE
  2
LTYPE
 70
     6
  0
LTYPE
  2
CONTINUOUS
 70
     0
  3
Solid line
 72
    65
 73
     0
 40
0.0
  0
LTYPE
  2
HIDDEN
 70
     0
  3
Hidden __ __ __ __ __ __ __ __ __ __ __ __ __ __
 72
    65
 73
     2
 40
1.905
 49
1.27
 49
-0.635
  0
LTYPE
  2
PHANTOM
 70
     0
  3
Phantom ______  __  __  ______  __  __  ______
 72
    65
 73
     6
 40
12.7
 49
6.35
 49
-1.27
 49
1.27
 49
-1.27
 49
1.27
 49
-1.27
  0
LTYPE
  2
CENTER
 70
     0
  3
Center ____ _ ____ _ ____ _ ____ _ ____ _ ____
 72
    65
 73
     4
 40
10.16
 49
6.35
 49
-1.27
 49
1.27
 49
-1.27
  0
LTYPE
  2
CENTERX2
 70
     0
  3
Center (2x) ________  __  ________  __  _____
 72
    65
 73
     4
 40
20.32
 49
12.7
 49
-2.54
 49
2.54
 49
-2.54
  0
LTYPE
  2
DOT2
 70
     0
  3
Dot (.5x) ........................................
 72
    65
 73
     2
 40
0.635
 49
0.0
 49
-0.635
  0
ENDTAB
  0
TABLE
  2
LAYER
 70
     1
  0
LAYER
  2
0
 70
     0
 62
     7
  6
CONTINUOUS
  0
ENDTAB
  0
TABLE
  2
STYLE
 70
     1
  0
STYLE
  2
STANDARD
 70
     0
 40
0.0
 41
1.0
 50
0.0
 71
     0
 42
3.5
  3
txt
  4

  0
ENDTAB
  0
TABLE
  2
VIEW
 70
     0
  0
ENDTAB
  0
TABLE
  2
UCS
 70
     0
  0
ENDTAB
  0
TABLE
  2
APPID
 70
     1
  0
APPID
  2
ACAD
 70
     0
  0
ENDTAB
  0
TABLE
  2
DIMSTYLE
 70
     4
  0
DIMSTYLE
  2
ISO-25
 70
     0
  3

  4

  5

  6

  7

 40
1.0
 41
2.5
 42
0.625
 43
3.75
 44
1.25
 45
0.0
 46
0.0
 47
0.0
 48
0.0
140
2.5
141
2.5
142
0.0
143
0.0393700787
144
1.0
145
0.0
146
1.0
147
0.625
 71
     0
 72
     0
 73
     0
 74
     0
 75
     0
 76
     0
 77
     1
 78
     8
170
     0
171
     3
172
     1
173
     0
174
     0
175
     0
176
     0
177
     0
178
     0
  0
DIMSTYLE
  2
SLDDIMSTYLE0
 70
     0
  3

  4

  5

  6

  7

 40
1.0
 41
4.0
 42
0.0625
 43
0.38
 44
0.0
 45
0.000000001
 46
0.0
 47
0.0
 48
0.0
140
2.9104166667
141
0.09
142
0.0
143
25.4
144
1.0
145
0.0
146
1.0
147
0.7276041667
 71
     0
 72
     0
 73
     0
 74
     0
 75
     0
 76
     0
 77
     1
 78
    12
170
     0
171
     2
172
     0
173
     1
174
     0
175
     0
176
     0
177
     0
178
     0
  0
DIMSTYLE
  2
SLDDIMSTYLE1
 70
     0
  3

  4

  5

  6

  7

 40
1.0
 41
4.0
 42
0.0625
 43
0.38
 44
0.0
 45
0.000000001
 46
0.0
 47
0.0
 48
0.0
140
2.9104166667
141
0.09
142
0.0
143
25.4
144
1.0
145
0.0
146
1.0
147
0.7276041667
 71
     0
 72
     0
 73
     0
 74
     0
 75
     0
 76
     0
 77
     1
 78
    12
170
     0
171
     2
172
     0
173
     1
174
     0
175
     0
176
     0
177
     0
178
     0
  0
DIMSTYLE
  2
SLDDIMSTYLE2
 70
     0
  3

  4

  5

  6

  7

 40
1.0
 41
4.0
 42
0.0625
 43
0.38
 44
0.0
 45
0.000000001
 46
0.0
 47
0.0
 48
0.0
140
2.9104166667
141
0.09
142
0.0
143
25.4
144
1.0
145
0.0
146
1.0
147
0.7276041667
 71
     0
 72
     0
 73
     0
 74
     0
 75
     0
 76
     0
 77
     1
 78
    12
170
     0
171
     2
172
     0
173
     1
174
     0
175
     0
176
     0
177
     0
178
     0
  0
ENDTAB
  0
ENDSEC
  0
SECTION
  2
BLOCKS
  0
BLOCK
  8
0
  2
$MODEL_SPACE
 70
     0
 10
0.0
 20
0.0
 30
0.0
  3
$MODEL_SPACE
  1

  0
ENDBLK
  5
21
  8
0
  0
BLOCK
 67
     1
  8
0
  2
$PAPER_SPACE
 70
     0
 10
0.0
 20
0.0
 30
0.0
  3
$PAPER_SPACE
  1

  0
ENDBLK
  5
1D
 67
     1
  8
0
  0
BLOCK
  8
0
  2
SW_NOTE_0
 70
     0
 10
0.0
 20
0.0
 30
0.0
  3
SW_NOTE_0
  1

  0
TEXT
  5
76
  8
0
  6
CONTINUOUS
 62
     0
 10
-0.9346672472
 20
0.0
 30
0.0
 40
2.6458333333
  1
Z=2
 50
90.0
 41
0.7
 11
0.0
 21
0.0
 31
0.0
 73
     1
  0
TEXT
  5
77
  8
0
  6
CONTINUOUS
 62
     0
 10
3.5931106519
 20
0.0
 30
0.0
 40
2.6458333333
  1
Zeff=1
 50
90.0
 41
0.7
 11
4.5277778991
 21
0.0
 31
0.0
 73
     1
  0
ENDBLK
  5
75
  8
0
  0
BLOCK
  8
0
  2
SW_NOTE_1
 70
     0
 10
0.0
 20
0.0
 30
0.0
  3
SW_NOTE_1
  1

  0
TEXT
  5
7C
  8
0
  6
CONTINUOUS
 62
     0
 10
0.0
 20
1.6824010449
 30
0.0
 40
4.7625
  1
Wendeplatte BP0502
 41
0.7
 11
0.0
 21
0.0
 31
0.0
 73
     1
  0
TEXT
  5
7D
  8
0
  6
CONTINUOUS
 62
     0
 10
0.0
 20
-5.6675990423
 30
0.0
 40
4.7625
  1
Spannschraube SS1,8-1
 41
0.7
 11
0.0
 21
-7.3500000872
 31
0.0
 73
     1
  0
ENDBLK
  5
7B
  8
0
  0
BLOCK
  8
0
  2
_D
 70
     0
 10
0.0
 20
0.0
 30
0.0
  3
_D
  1

  0
SOLID
  5
400
  8
0
  6
CONTINUOUS
 62
     7
 10
67.1223474126
 20
130.1622788789
 30
0.0
 11
66.3723474126
 21
126.1622788789
 31
0.0
 12
67.8723474126
 22
126.1622788789
 32
0.0
 13
67.8723474126
 23
126.1622788789
 33
0.0
  0
SOLID
  5
401
  8
0
  6
CONTINUOUS
 62
     7
 10
67.1223474126
 20
112.6622788789
 30
0.0
 11
67.8723474126
 21
116.6622788789
 31
0.0
 12
66.3723474126
 22
116.6622788789
 32
0.0
 13
66.3723474126
 23
116.6622788789
 33
0.0
  0
LINE
  5
402
  8
0
  6
CONTINUOUS
 62
     7
 10
69.9735134999
 20
130.1622788789
 30
0.0
 11
66.1223474126
 21
130.1622788789
 31
0.0
  0
LINE
  5
403
  8
0
  6
CONTINUOUS
 62
     7
 10
71.1546350349
 20
112.6622788789
 30
0.0
 11
66.1223474126
 21
112.6622788789
 31
0.0
  0
LINE
  5
404
  8
0
  6
CONTINUOUS
 62
     7
 10
67.1223474126
 20
130.1622788789
 30
0.0
 11
67.1223474126
 21
112.6622788789
 31
0.0
  0
TEXT
  5
405
  8
0
  6
CONTINUOUS
 62
     7
 10
66.0942132079
 20
114.3724394215
 30
0.0
 40
2.9104166667
  1
%%c
 50
90.0
 41
0.7
 11
67.1223471798
 21
114.3724394215
 31
0.0
 73
     1
  0
TEXT
  5
406
  8
0
  6
CONTINUOUS
 62
     7
 10
66.0942132079
 20
118.7655518016
 30
0.0
 40
2.9104166667
  1
17,5
 50
90.0
 41
0.7
 11
67.1223471798
 21
118.7655518016
 31
0.0
 73
     1
  0
ENDBLK
  5
3FF
  8
0
  0
BLOCK
  8
0
  2
_D_1
 70
     0
 10
0.0
 20
0.0
 30
0.0
  3
_D_1
  1

  0
SOLID
  5
40C
  8
0
  6
CONTINUOUS
 62
     7
 10
73.6016000758
 20
89.1569891047
 30
0.0
 11
77.6016000758
 21
88.4069891047
 31
0.0
 12
77.6016000758
 22
89.9069891047
 32
0.0
 13
77.6016000758
 23
89.9069891047
 33
0.0
  0
SOLID
  5
40D
  8
0
  6
CONTINUOUS
 62
     7
 10
154.6027839451
 20
89.1569891047
 30
0.0
 11
150.6027839451
 21
89.9069891047
 31
0.0
 12
150.6027839451
 22
88.4069891047
 32
0.0
 13
150.6027839451
 23
88.4069891047
 33
0.0
  0
LINE
  5
40E
  8
0
  6
CONTINUOUS
 62
     7
 10
73.6016000758
 20
107.650189939
 30
0.0
 11
73.6016000758
 21
88.1569891047
 31
0.0
  0
LINE
  5
40F
  8
0
  6
CONTINUOUS
 62
     7
 10
154.6027839451
 20
105.9110060751
 30
0.0
 11
154.6027839451
 21
88.1569891047
 31
0.0
  0
LINE
  5
410
  8
0
  6
CONTINUOUS
 62
     7
 10
73.6016000758
 20
89.1569891047
 30
0.0
 11
154.6027839451
 21
89.1569891047
 31
0.0
  0
TEXT
  5
411
  8
0
  6
CONTINUOUS
 62
     7
 10
106.8978966908
 20
90.1851230765
 30
0.0
 40
2.9104166667
  1
81
 41
0.7
 11
106.8978966908
 21
89.1569891047
 31
0.0
 73
     1
  0
ENDBLK
  5
40B
  8
0
  0
BLOCK
  8
0
  2
_D_2
 70
     0
 10
0.0
 20
0.0
 30
0.0
  3
_D_2
  1

  0
SOLID
  5
416
  8
0
  6
CONTINUOUS
 62
     7
 10
73.6016000758
 20
76.1427057973
 30
0.0
 11
77.6016000758
 21
75.3927057973
 31
0.0
 12
77.6016000758
 22
76.8927057973
 32
0.0
 13
77.6016000758
 23
76.8927057973
 33
0.0
  0
SOLID
  5
417
  8
0
  6
CONTINUOUS
 62
     7
 10
204.6027839451
 20
76.1427057973
 30
0.0
 11
200.6027839451
 21
76.8927057973
 31
0.0
 12
200.6027839451
 22
75.3927057973
 32
0.0
 13
200.6027839451
 23
75.3927057973
 33
0.0
  0
LINE
  5
418
  8
0
  6
CONTINUOUS
 62
     7
 10
73.6016000758
 20
107.650189939
 30
0.0
 11
73.6016000758
 21
75.1427057973
 31
0.0
  0
LINE
  5
419
  8
0
  6
CONTINUOUS
 62
     7
 10
204.6027839451
 20
114.3315324137
 30
0.0
 11
204.6027839451
 21
75.1427057973
 31
0.0
  0
LINE
  5
41A
  8
0
  6
CONTINUOUS
 62
     7
 10
73.6016000758
 20
76.1427057973
 30
0.0
 11
204.6027839451
 21
76.1427057973
 31
0.0
  0
TEXT
  5
41B
  8
0
  6
CONTINUOUS
 62
     7
 10
139.5203494708
 20
77.1708397692
 30
0.0
 40
2.9104166667
  1
131
 41
0.7
 11
139.5203494708
 21
76.1427057973
 31
0.0
 73
     1
  0
ENDBLK
  5
415
  8
0
  0
BLOCK
  8
0
  2
_D_3
 70
     0
 10
0.0
 20
0.0
 30
0.0
  3
_D_3
  1

  0
SOLID
  5
421
  8
0
  6
CONTINUOUS
 62
     7
 10
73.6016000758
 20
101.9947867043
 30
0.0
 11
77.6016000758
 21
101.2447867043
 31
0.0
 12
77.6016000758
 22
102.7447867043
 32
0.0
 13
77.6016000758
 23
102.7447867043
 33
0.0
  0
SOLID
  5
422
  8
0
  6
CONTINUOUS
 62
     7
 10
127.6016000758
 20
101.9947867043
 30
0.0
 11
123.6016000758
 21
102.7447867043
 31
0.0
 12
123.6016000758
 22
101.2447867043
 32
0.0
 13
123.6016000758
 23
101.2447867043
 33
0.0
  0
LINE
  5
423
  8
0
  6
CONTINUOUS
 62
     7
 10
73.6016000758
 20
107.650189939
 30
0.0
 11
73.6016000758
 21
100.9947867043
 31
0.0
  0
LINE
  5
424
  8
0
  6
CONTINUOUS
 62
     7
 10
127.6016000758
 20
106.3026260974
 30
0.0
 11
127.6016000758
 21
100.9947867043
 31
0.0
  0
LINE
  5
425
  8
0
  6
CONTINUOUS
 62
     7
 10
73.6016000758
 20
101.9947867043
 30
0.0
 11
127.6016000758
 21
101.9947867043
 31
0.0
  0
TEXT
  5
426
  8
0
  6
CONTINUOUS
 62
     7
 10
101.1959775886
 20
103.0229206762
 30
0.0
 40
2.9104166667
  1
54
 41
0.7
 11
101.1959775886
 21
101.9947867043
 31
0.0
 73
     1
  0
ENDBLK
  5
420
  8
0
  0
BLOCK
  8
0
  2
_D_4
 70
     0
 10
0.0
 20
0.0
 30
0.0
  3
_D_4
  1

  0
SOLID
  5
42B
  8
0
  6
CONTINUOUS
 62
     7
 10
154.6027839451
 20
89.1569891047
 30
0.0
 11
158.6027839451
 21
88.4069891047
 31
0.0
 12
158.6027839451
 22
89.9069891047
 32
0.0
 13
158.6027839451
 23
89.9069891047
 33
0.0
  0
SOLID
  5
42C
  8
0
  6
CONTINUOUS
 62
     7
 10
204.6027839451
 20
89.1569891047
 30
0.0
 11
200.6027839451
 21
89.9069891047
 31
0.0
 12
200.6027839451
 22
88.4069891047
 32
0.0
 13
200.6027839451
 23
88.4069891047
 33
0.0
  0
LINE
  5
42D
  8
0
  6
CONTINUOUS
 62
     7
 10
154.6027839451
 20
105.9110060751
 30
0.0
 11
154.6027839451
 21
88.1569891047
 31
0.0
  0
LINE
  5
42E
  8
0
  6
CONTINUOUS
 62
     7
 10
204.6027839451
 20
114.3315324137
 30
0.0
 11
204.6027839451
 21
88.1569891047
 31
0.0
  0
LINE
  5
42F
  8
0
  6
CONTINUOUS
 62
     7
 10
154.6027839451
 20
89.1569891047
 30
0.0
 11
204.6027839451
 21
89.1569891047
 31
0.0
  0
TEXT
  5
430
  8
0
  6
CONTINUOUS
 62
     7
 10
169.384598393
 20
90.1851230765
 30
6.0090621718
 40
2.9104166667
  1
50
 41
0.7
 11
169.384598393
 21
89.1569891047
 31
6.0090621718
 73
     1
  0
ENDBLK
  5
42A
  8
0
  0
BLOCK
  8
0
  2
_D_5
 70
     0
 10
0.0
 20
0.0
 30
0.0
  3
_D_5
  1

  0
SOLID
  5
435
  8
0
  6
CONTINUOUS
 62
     7
 10
224.0482337206
 20
136.4110060751
 30
0.0
 11
223.2982337206
 21
132.4110060751
 31
0.0
 12
224.7982337206
 22
132.4110060751
 32
0.0
 13
224.7982337206
 23
132.4110060751
 33
0.0
  0
SOLID
  5
436
  8
0
  6
CONTINUOUS
 62
     7
 10
224.0482337206
 20
106.4110060751
 30
0.0
 11
224.7982337206
 21
110.4110060751
 31
0.0
 12
223.2982337206
 22
110.4110060751
 32
0.0
 13
223.2982337206
 23
110.4110060751
 33
0.0
  0
LINE
  5
437
  8
0
  6
CONTINUOUS
 62
     7
 10
155.1027839451
 20
136.4110060751
 30
0.0
 11
225.0482337206
 21
136.4110060751
 31
0.0
  0
LINE
  5
438
  8
0
  6
CONTINUOUS
 62
     7
 10
155.1027839451
 20
106.4110060751
 30
0.0
 11
225.0482337206
 21
106.4110060751
 31
0.0
  0
LINE
  5
439
  8
0
  6
CONTINUOUS
 62
     7
 10
224.0482337206
 20
136.4110060751
 30
0.0
 11
224.0482337206
 21
106.4110060751
 31
0.0
  0
TEXT
  5
43A
  8
0
  6
CONTINUOUS
 62
     7
 10
223.0200995159
 20
117.8127272182
 30
6.0090621718
 40
2.9104166667
  1
%%c
 50
90.0
 41
0.7
 11
224.0482334878
 21
117.8127272182
 31
6.0090621718
 73
     1
  0
TEXT
  5
43B
  8
0
  6
CONTINUOUS
 62
     7
 10
223.0200995159
 20
122.2058395983
 30
6.0090621718
 40
2.9104166667
  1
30
 50
90.0
 41
0.7
 11
224.0482334878
 21
122.2058395983
 31
6.0090621718
 73
     1
  0
ENDBLK
  5
434
  8
0
  0
BLOCK
  8
0
  2
_D_6
 70
     0
 10
0.0
 20
0.0
 30
0.0
  3
_D_6
  1

  0
SOLID
  5
440
  8
0
  6
CONTINUOUS
 62
     7
 10
212.9842367248
 20
111.4110060751
 30
0.0
 11
213.7342367248
 21
115.4110060751
 31
0.0
 12
212.2342367248
 22
115.4110060751
 32
0.0
 13
212.2342367248
 23
115.4110060751
 33
0.0
  0
SOLID
  5
441
  8
0
  6
CONTINUOUS
 62
     7
 10
212.9842367248
 20
131.4110060751
 30
0.0
 11
212.2342367248
 21
127.4110060751
 31
0.0
 12
213.7342367248
 22
127.4110060751
 32
0.0
 13
213.7342367248
 23
127.4110060751
 33
0.0
  0
LINE
  5
442
  8
0
  6
CONTINUOUS
 62
     7
 10
203.3527839451
 20
111.4110060751
 30
0.0
 11
213.9842367248
 21
111.4110060751
 31
0.0
  0
LINE
  5
443
  8
0
  6
CONTINUOUS
 62
     7
 10
203.3527839451
 20
131.4110060751
 30
0.0
 11
213.9842367248
 21
131.4110060751
 31
0.0
  0
LINE
  5
444
  8
0
  6
CONTINUOUS
 62
     7
 10
212.9842367248
 20
111.4110060751
 30
0.0
 11
212.9842367248
 21
131.4110060751
 31
0.0
  0
TEXT
  5
445
  8
0
  6
CONTINUOUS
 62
     7
 10
211.9561025201
 20
115.5544599646
 30
6.0090621718
 40
2.9104166667
  1
%%c
 50
90.0
 41
0.7
 11
212.984236492
 21
115.5544599646
 31
6.0090621718
 73
     1
  0
TEXT
  5
446
  8
0
  6
CONTINUOUS
 62
     7
 10
211.9561025201
 20
119.9475723447
 30
6.0090621718
 40
2.9104166667
  1
20
 50
90.0
 41
0.7
 11
212.984236492
 21
119.9475723447
 31
6.0090621718
 73
     1
  0
TEXT
  5
447
  8
0
  6
CONTINUOUS
 62
     7
 10
211.9561025201
 20
124.2485219741
 30
6.0090621718
 40
2.9104166667
  1
h6
 50
90.0
 41
0.7
 11
212.984236492
 21
124.2485219741
 31
6.0090621718
 73
     1
  0
ENDBLK
  5
43F
  8
0
  0
ENDSEC
  0
SECTION
  2
ENTITIES
  0
INSERT
  5
78
  8
0
  6
CONTINUOUS
 62
     7
  2
SW_NOTE_0
 10
56.0347228121
 20
117.0673195997
 30
0.0
  0
INSERT
  5
7E
  8
0
  6
CONTINUOUS
 62
     7
  2
SW_NOTE_1
 10
113.5523241822
 20
64.0716003234
 30
0.0
  0
LINE
  5
7F
  8
0
  6
CONTINUOUS
 62
     7
 10
148.6027839451
 20
106.4110060751
 30
0.0
 11
154.1027839451
 21
106.4110060751
 31
0.0
  0
LINE
  5
80
  8
0
  6
CONTINUOUS
 62
     7
 10
154.1027839451
 20
136.4110060751
 30
0.0
 11
148.6027839451
 21
136.4110060751
 31
0.0
  0
LINE
  5
81
  8
0
  6
CONTINUOUS
 62
     7
 10
154.1027839451
 20
106.4110060751
 30
0.0
 11
154.6027839451
 21
106.9110060751
 31
0.0
  0
LINE
  5
82
  8
0
  6
CONTINUOUS
 62
     7
 10
154.6027839451
 20
135.9110060751
 30
0.0
 11
154.1027839451
 21
136.4110060751
 31
0.0
  0
LINE
  5
83
  8
0
  6
CONTINUOUS
 62
     7
 10
148.6027839451
 20
136.4110060751
 30
0.0
 11
136.703495575
 21
130.6580120472
 31
0.0
  0
LINE
  5
84
  8
0
  6
CONTINUOUS
 62
     7
 10
136.703495575
 20
112.164000103
 30
0.0
 11
148.6027839451
 21
106.4110060751
 31
0.0
  0
LINE
  5
85
  8
0
  6
CONTINUOUS
 62
     7
 10
156.3323209341
 20
111.4110060751
 30
0.0
 11
202.3527839451
 21
111.4110060751
 31
0.0
  0
LINE
  5
86
  8
0
  6
CONTINUOUS
 62
     7
 10
202.3527839451
 20
131.4110060751
 30
0.0
 11
156.3323209341
 21
131.4110060751
 31
0.0
  0
LINE
  5
87
  8
0
  6
CONTINUOUS
 62
     7
 10
156.3323209341
 20
131.4110060751
 30
0.0
 11
155.8618579232
 21
131.3110060751
 31
0.0
  0
LINE
  5
88
  8
0
  6
CONTINUOUS
 62
     7
 10
155.8618579232
 20
111.5110060751
 30
0.0
 11
156.3323209341
 21
111.4110060751
 31
0.0
  0
LINE
  5
89
  8
0
  6
CONTINUOUS
 62
     7
 10
155.8618579232
 20
131.3110060751
 30
0.0
 11
154.6027839451
 21
131.3110060751
 31
0.0
  0
LINE
  5
8A
  8
0
  6
CONTINUOUS
 62
     7
 10
154.6027839451
 20
111.5110060751
 30
0.0
 11
155.8618579232
 21
111.5110060751
 31
0.0
  0
ARC
  5
8B
  8
0
  6
CONTINUOUS
 62
     7
 10
132.3507839451
 20
103.1610060751
 30
0.0
 40
10.0
 50
64.1974503465
 51
90.0
  0
LINE
  5
8C
  8
0
  6
CONTINUOUS
 62
     7
 10
113.752754551
 20
113.1610060751
 30
0.0
 11
132.3507839451
 21
113.1610060751
 31
0.0
  0
LINE
  5
8D
  8
0
  6
CONTINUOUS
 62
     7
 10
202.3527839451
 20
111.4110060751
 30
0.0
 11
203.6027839451
 21
111.5110060751
 31
0.0
  0
LINE
  5
8E
  8
0
  6
CONTINUOUS
 62
     7
 10
203.6027839451
 20
131.3110060751
 30
0.0
 11
202.3527839451
 21
131.4110060751
 31
0.0
  0
LINE
  5
8F
  8
0
  6
CONTINUOUS
 62
     7
 10
203.6027839451
 20
111.5110060751
 30
0.0
 11
204.6027839451
 21
112.5110060751
 31
0.0
  0
LINE
  5
90
  8
0
  6
CONTINUOUS
 62
     7
 10
204.6027839451
 20
130.3110060751
 30
0.0
 11
203.6027839451
 21
131.3110060751
 31
0.0
  0
ARC
  5
91
  8
0
  6
CONTINUOUS
 62
     7
 10
132.3507839451
 20
139.6610060751
 30
0.0
 40
10.00000000000003
 50
270.0
 51
295.8025496535
  0
LINE
  5
92
  8
0
  6
CONTINUOUS
 62
     7
 10
132.3507839451
 20
129.6610060751
 30
0.0
 11
120.4606294607
 21
129.6610060751
 31
0.0
  0
LINE
  5
93
  8
0
  6
CONTINUOUS
 62
     7
 10
73.8527839451
 20
118.9110060751
 30
0.0
 11
73.8683190913
 21
118.7323518931
 31
0.0
  0
LINE
  5
94
  8
0
  6
CONTINUOUS
 62
     7
 10
73.7839028283
 20
121.0897072622
 30
0.0
 11
73.7976431362
 21
121.0937746213
 31
0.0
  0
LINE
  5
95
  8
0
  6
CONTINUOUS
 62
     7
 10
73.8351436714
 20
121.085569253
 30
0.0
 11
73.8527839451
 21
121.0840318019
 31
0.0
  0
ARC
  5
96
  8
0
  6
CONTINUOUS
 62
     7
 10
135.8900424875
 20
114.2321578942
 30
0.0
 40
15.12896414121249
 50
351.7842649993
 51
32.8290755083
  0
LINE
  5
97
  8
0
  6
CONTINUOUS
 62
     7
 10
148.6027839451
 20
122.4340942887
 30
0.0
 11
148.6027839451
 21
136.4110060751
 31
0.0
  0
LINE
  5
98
  8
0
  6
CONTINUOUS
 62
     7
 10
148.6027839451
 20
106.4110060751
 30
0.0
 11
148.6027839451
 21
111.1288385631
 31
0.0
  0
LINE
  5
99
  8
0
  6
CONTINUOUS
 62
     7
 10
148.6781944876
 20
111.1143230712
 30
0.0
 11
148.6027839451
 21
111.1288385631
 31
0.0
  0
ARC
  5
9A
  8
0
  6
CONTINUOUS
 62
     7
 10
149.221151376
 20
112.849359885
 30
0.0
 40
1.818008506022675
 50
252.6231773855
 51
334.6232135694
  0
LINE
  5
9B
  8
0
  6
CONTINUOUS
 62
     7
 10
154.1027839451
 20
106.4110060751
 30
0.0
 11
154.1027839451
 21
136.4110060751
 31
0.0
  0
LINE
  5
9C
  8
0
  6
CONTINUOUS
 62
     7
 10
154.6027839451
 20
135.9110060751
 30
0.0
 11
154.6027839451
 21
106.9110060751
 31
0.0
  0
LINE
  5
9D
  8
0
  6
CONTINUOUS
 62
     7
 10
150.863738429
 20
112.0702175994
 30
0.0
 11
139.1415052573
 21
121.0250714927
 31
0.0
  0
LINE
  5
9E
  8
0
  6
CONTINUOUS
 62
     7
 10
138.8234299545
 20
128.3748906895
 30
0.0
 11
139.1415052574
 21
121.0250714896
 31
0.0
  0
ARC
  5
9F
  8
0
  6
CONTINUOUS
 62
     7
 10
131.4575255925
 20
105.2301487821
 30
0.0
 40
24.28859042784427
 50
45.0978923116
 51
72.346125585
  0
LINE
  5
A0
  8
0
  6
CONTINUOUS
 62
     7
 10
137.9701692283
 20
128.4224886826
 30
0.0
 11
136.703495575
 21
128.2368360064
 31
0.0
  0
LINE
  5
A1
  8
0
  6
CONTINUOUS
 62
     7
 10
136.703495575
 20
116.9159341564
 30
0.0
 11
138.4527839451
 21
115.9463694667
 31
0.0
  0
POLYLINE
  5
A2
  8
0
  6
CONTINUOUS
 62
     7
 66
     1
 10
0.0
 20
0.0
 30
0.0
 70
   128
  0
VERTEX
  5
449
  8
0
  6
CONTINUOUS
 62
     7
 10
148.6027839451
 20
111.1288385631
 30
0.0
  0
VERTEX
  5
44A
  8
0
  6
CONTINUOUS
 62
     7
 10
146.0530507696
 20
112.319599202
 30
0.0
  0
VERTEX
  5
44B
  8
0
  6
CONTINUOUS
 62
     7
 10
143.5099977996
 20
113.5177984933
 30
0.0
  0
VERTEX
  5
44C
  8
0
  6
CONTINUOUS
 62
     7
 10
140.9754452475
 20
114.7257209597
 30
0.0
  0
VERTEX
  5
44D
  8
0
  6
CONTINUOUS
 62
     7
 10
138.4527839451
 20
115.9463694667
 30
0.0
  0
SEQEND
  5
5C5
  8
0
  6
CONTINUOUS
 62
     7
  0
POLYLINE
  5
A3
  8
0
  6
CONTINUOUS
 62
     7
 66
     1
 10
0.0
 20
0.0
 30
0.0
 70
   128
  0
VERTEX
  5
44E
  8
0
  6
CONTINUOUS
 62
     7
 10
138.8234299547
 20
128.3748906882
 30
0.0
  0
VERTEX
  5
44F
  8
0
  6
CONTINUOUS
 62
     7
 10
138.4203764072
 20
128.4416483486
 30
0.0
  0
VERTEX
  5
450
  8
0
  6
CONTINUOUS
 62
     7
 10
137.9701692276
 20
128.4224886825
 30
0.0
  0
SEQEND
  5
5C6
  8
0
  6
CONTINUOUS
 62
     7
  0
LINE
  5
A4
  8
0
  6
CONTINUOUS
 62
     7
 10
148.6781944876
 20
111.1143230712
 30
0.0
 11
138.4527839451
 21
118.9257235156
 31
0.0
  0
LINE
  5
A5
  8
0
  6
CONTINUOUS
 62
     7
 10
138.4527839451
 20
120.7420383551
 30
0.0
 11
138.4527839451
 21
118.9257235156
 31
0.0
  0
LINE
  5
A6
  8
0
  6
CONTINUOUS
 62
     7
 10
139.1415052573
 20
121.0250714927
 30
0.0
 11
138.4527838862
 21
120.7420383172
 31
0.0
  0
LINE
  5
A7
  8
0
  6
CONTINUOUS
 62
     7
 10
138.4527839451
 20
118.9257235156
 30
0.0
 11
138.4527839451
 21
115.9463694667
 31
0.0
  0
LINE
  5
A8
  8
0
  6
CONTINUOUS
 62
     7
 10
156.3323209341
 20
131.4110060751
 30
0.0
 11
156.3323209341
 21
111.4110060751
 31
0.0
  0
LINE
  5
A9
  8
0
  6
CONTINUOUS
 62
     7
 10
202.3527839451
 20
127.4110060751
 30
0.0
 11
202.3527839451
 21
131.4110060751
 31
0.0
  0
LINE
  5
AA
  8
0
  6
CONTINUOUS
 62
     7
 10
202.3527839451
 20
111.4110060751
 30
0.0
 11
202.352783945
 21
115.4110060751
 31
0.0
  0
LINE
  5
AB
  8
0
  6
CONTINUOUS
 62
     7
 10
202.3527839451
 20
127.4110060751
 30
0.0
 11
160.6027839451
 21
127.4110060751
 31
0.0
  0
ARC
  5
AC
  8
0
  6
CONTINUOUS
 62
     7
 10
168.6027839451
 20
121.4110060751
 30
0.0
 40
9.999999999999995
 50
143.1301023542
 51
216.8698976458
  0
LINE
  5
AD
  8
0
  6
CONTINUOUS
 62
     7
 10
160.6027839451
 20
115.4110060751
 30
0.0
 11
202.352783945
 21
115.4110060751
 31
0.0
  0
LINE
  5
AE
  8
0
  6
CONTINUOUS
 62
     7
 10
155.8618579232
 20
131.3110060751
 30
0.0
 11
155.8618579232
 21
111.5110060751
 31
0.0
  0
LINE
  5
AF
  8
0
  6
CONTINUOUS
 62
     7
 10
160.6027839451
 20
115.4110060751
 30
0.0
 11
160.6027839451
 21
127.4110060751
 31
0.0
  0
ARC
  5
B0
  8
0
  6
CONTINUOUS
 62
     7
 10
127.2287708092
 20
98.7181830375
 30
0.0
 40
20.51654345086127
 50
62.4960981883
 51
75.5430305837
  0
POLYLINE
  5
B1
  8
0
  6
CONTINUOUS
 62
     7
 66
     1
 10
0.0
 20
0.0
 30
0.0
 70
   128
  0
VERTEX
  5
451
  8
0
  6
CONTINUOUS
 62
     7
 10
82.3527839451
 20
129.5938022263
 30
0.0
  0
VERTEX
  5
452
  8
0
  6
CONTINUOUS
 62
     7
 10
86.3083837096
 20
129.3628608266
 30
0.0
  0
VERTEX
  5
453
  8
0
  6
CONTINUOUS
 62
     7
 10
88.2861721694
 20
129.1869875016
 30
0.0
  0
VERTEX
  5
454
  8
0
  6
CONTINUOUS
 62
     7
 10
91.2674049421
 20
128.8486188471
 30
0.0
  0
VERTEX
  5
455
  8
0
  6
CONTINUOUS
 62
     7
 10
96.2444829165
 20
128.0978036404
 30
0.0
  0
VERTEX
  5
456
  8
0
  6
CONTINUOUS
 62
     7
 10
98.2431750668
 20
127.7344922193
 30
0.0
  0
VERTEX
  5
457
  8
0
  6
CONTINUOUS
 62
     7
 10
100.3350609707
 20
127.3191968324
 30
0.0
  0
VERTEX
  5
458
  8
0
  6
CONTINUOUS
 62
     7
 10
103.4760819046
 20
126.6341968205
 30
0.0
  0
VERTEX
  5
459
  8
0
  6
CONTINUOUS
 62
     7
 10
106.6212366985
 20
125.8829757381
 30
0.0
  0
VERTEX
  5
45A
  8
0
  6
CONTINUOUS
 62
     7
 10
109.8027542709
 20
125.0658442587
 30
0.0
  0
VERTEX
  5
45B
  8
0
  6
CONTINUOUS
 62
     7
 10
114.5850557909
 20
123.7493094218
 30
0.0
  0
VERTEX
  5
45C
  8
0
  6
CONTINUOUS
 62
     7
 10
119.3808493358
 20
122.3608116757
 30
0.0
  0
VERTEX
  5
45D
  8
0
  6
CONTINUOUS
 62
     7
 10
122.6145067055
 20
121.4076527383
 30
0.0
  0
VERTEX
  5
45E
  8
0
  6
CONTINUOUS
 62
     7
 10
127.4757381014
 20
119.9768362439
 30
0.0
  0
VERTEX
  5
45F
  8
0
  6
CONTINUOUS
 62
     7
 10
132.3507839451
 20
118.5850785325
 30
0.0
  0
SEQEND
  5
5C7
  8
0
  6
CONTINUOUS
 62
     7
  0
LINE
  5
B2
  8
0
  6
CONTINUOUS
 62
     7
 10
74.4653693284
 20
129.5938022263
 30
0.0
 11
82.3527839451
 21
129.5938022263
 31
0.0
  0
LINE
  5
B3
  8
0
  6
CONTINUOUS
 62
     7
 10
82.811049406
 20
119.0608089284
 30
0.0
 11
81.8702357899
 21
119.2110060751
 31
0.0
  0
LINE
  5
B4
  8
0
  6
CONTINUOUS
 62
     7
 10
81.8702357899
 20
119.2110060751
 30
0.0
 11
74.3527839451
 21
119.2110060751
 31
0.0
  0
LINE
  5
B5
  8
0
  6
CONTINUOUS
 62
     7
 10
74.3527839451
 20
119.2110060751
 30
0.0
 11
74.3527839451
 21
128.9987793937
 31
0.0
  0
ARC
  5
B6
  8
0
  6
CONTINUOUS
 62
     7
 10
68.4885174062
 20
130.4165308988
 30
0.0
 40
6.033211530261879
 50
346.4088970516
 51
352.1623475947
  0
ARC
  5
B7
  8
0
  6
CONTINUOUS
 62
     7
 10
76.1966801937
 20
122.8844568391
 30
0.0
 40
0.8014559904525255
 50
352.9758967301
 51
187.0241032699
  0
ARC
  5
B8
  8
0
  6
CONTINUOUS
 62
     7
 10
76.1966801937
 20
123.1427962649
 30
0.0
 40
0.8716130979651525
 50
204.1317469383
 51
335.8682530617
  0
POLYLINE
  5
B9
  8
0
  6
CONTINUOUS
 62
     7
 66
     1
 10
0.0
 20
0.0
 30
0.0
 70
   128
  0
VERTEX
  5
460
  8
0
  6
CONTINUOUS
 62
     7
 10
113.752754551
 20
113.1816688657
 30
0.0
  0
VERTEX
  5
461
  8
0
  6
CONTINUOUS
 62
     7
 10
112.7437149641
 20
113.1682686923
 30
0.0
  0
VERTEX
  5
462
  8
0
  6
CONTINUOUS
 62
     7
 10
109.6218788383
 20
113.282116579
 30
0.0
  0
VERTEX
  5
463
  8
0
  6
CONTINUOUS
 62
     7
 10
104.134886829
 20
113.8098782699
 30
0.0
  0
VERTEX
  5
464
  8
0
  6
CONTINUOUS
 62
     7
 10
101.449535927
 20
114.2133191791
 30
0.0
  0
VERTEX
  5
465
  8
0
  6
CONTINUOUS
 62
     7
 10
97.4097697207
 20
114.9853948714
 30
0.0
  0
VERTEX
  5
466
  8
0
  6
CONTINUOUS
 62
     7
 10
93.3558585018
 20
115.9401101489
 30
0.0
  0
VERTEX
  5
467
  8
0
  6
CONTINUOUS
 62
     7
 10
90.7283682315
 20
116.6426792866
 30
0.0
  0
VERTEX
  5
468
  8
0
  6
CONTINUOUS
 62
     7
 10
86.7763722171
 20
117.8019923522
 30
0.0
  0
VERTEX
  5
469
  8
0
  6
CONTINUOUS
 62
     7
 10
82.811049406
 20
119.0608089284
 30
0.0
  0
SEQEND
  5
5C8
  8
0
  6
CONTINUOUS
 62
     7
  0
LINE
  5
BA
  8
0
  6
CONTINUOUS
 62
     7
 10
74.3527839451
 20
119.2110060751
 30
0.0
 11
73.8527839451
 21
119.2110060751
 31
0.0
  0
LINE
  5
BB
  8
0
  6
CONTINUOUS
 62
     7
 10
73.8527839451
 20
119.2110060751
 30
0.0
 11
73.8527839451
 21
122.7538126594
 31
0.0
  0
LINE
  5
BC
  8
0
  6
CONTINUOUS
 62
     7
 10
73.8527839451
 20
122.7538126594
 30
0.0
 11
74.1038076257
 21
126.2272744631
 31
0.0
  0
LINE
  5
BD
  8
0
  6
CONTINUOUS
 62
     7
 10
74.1038076257
 20
126.2272744631
 30
0.0
 11
74.0825509689
 21
126.3010305906
 31
0.0
  0
LINE
  5
BE
  8
0
  6
CONTINUOUS
 62
     7
 10
74.0825509689
 20
126.3010305906
 30
0.0
 11
74.0859588965
 21
126.5330008129
 31
0.0
  0
LINE
  5
BF
  8
0
  6
CONTINUOUS
 62
     7
 10
74.0859588965
 20
126.5330008129
 30
0.0
 11
74.3021345572
 21
129.0130393203
 31
0.0
  0
LINE
  5
C0
  8
0
  6
CONTINUOUS
 62
     7
 10
74.3021345572
 20
129.0130393203
 30
0.0
 11
74.3527839451
 21
128.9987793937
 31
0.0
  0
POLYLINE
  5
C1
  8
0
  6
CONTINUOUS
 62
     7
 66
     1
 10
0.0
 20
0.0
 30
0.0
 70
   128
  0
VERTEX
  5
46A
  8
0
  6
CONTINUOUS
 62
     7
 10
74.3323451858
 20
119.7403769643
 30
0.0
  0
VERTEX
  5
46B
  8
0
  6
CONTINUOUS
 62
     7
 10
74.3234663837
 20
119.6343716828
 30
0.0
  0
VERTEX
  5
46C
  8
0
  6
CONTINUOUS
 62
     7
 10
74.3126516545
 20
119.5490338034
 30
0.0
  0
VERTEX
  5
46D
  8
0
  6
CONTINUOUS
 62
     7
 10
74.3007430199
 20
119.4915005839
 30
0.0
  0
VERTEX
  5
46E
  8
0
  6
CONTINUOUS
 62
     7
 10
74.2873294864
 20
119.4600621302
 30
0.0
  0
VERTEX
  5
46F
  8
0
  6
CONTINUOUS
 62
     7
 10
74.2734433454
 20
119.4573340479
 30
0.0
  0
VERTEX
  5
470
  8
0
  6
CONTINUOUS
 62
     7
 10
74.258673198
 20
119.4833137541
 30
0.0
  0
VERTEX
  5
471
  8
0
  6
CONTINUOUS
 62
     7
 10
74.2442028309
 20
119.5359636344
 30
0.0
  0
VERTEX
  5
472
  8
0
  6
CONTINUOUS
 62
     7
 10
74.2296591178
 20
119.6167776257
 30
0.0
  0
VERTEX
  5
473
  8
0
  6
CONTINUOUS
 62
     7
 10
74.21629942
 20
119.719020984
 30
0.0
  0
VERTEX
  5
474
  8
0
  6
CONTINUOUS
 62
     7
 10
74.2038149197
 20
119.8456642228
 30
0.0
  0
VERTEX
  5
475
  8
0
  6
CONTINUOUS
 62
     7
 10
74.1933756743
 20
119.9857129467
 30
0.0
  0
VERTEX
  5
476
  8
0
  6
CONTINUOUS
 62
     7
 10
74.1847598276
 20
120.1435388662
 30
0.0
  0
VERTEX
  5
477
  8
0
  6
CONTINUOUS
 62
     7
 10
74.1788230971
 20
120.3050864867
 30
0.0
  0
VERTEX
  5
478
  8
0
  6
CONTINUOUS
 62
     7
 10
74.1754399823
 20
120.4757190063
 30
0.0
  0
VERTEX
  5
479
  8
0
  6
CONTINUOUS
 62
     7
 10
74.1749451177
 20
120.6403207699
 30
0.0
  0
VERTEX
  5
47A
  8
0
  6
CONTINUOUS
 62
     7
 10
74.1773121309
 20
120.8043655021
 30
0.0
  0
VERTEX
  5
47B
  8
0
  6
CONTINUOUS
 62
     7
 10
74.1822969171
 20
120.9538634528
 30
0.0
  0
VERTEX
  5
47C
  8
0
  6
CONTINUOUS
 62
     7
 10
74.1899667589
 20
121.0933683501
 30
0.0
  0
VERTEX
  5
47D
  8
0
  6
CONTINUOUS
 62
     7
 10
74.1996083125
 20
121.2115183778
 30
0.0
  0
VERTEX
  5
47E
  8
0
  6
CONTINUOUS
 62
     7
 10
74.2113715475
 20
121.3113920052
 30
0.0
  0
VERTEX
  5
47F
  8
0
  6
CONTINUOUS
 62
     7
 10
74.2242393218
 20
121.3850000248
 30
0.0
  0
VERTEX
  5
480
  8
0
  6
CONTINUOUS
 62
     7
 10
74.2384481272
 20
121.4339881937
 30
0.0
  0
VERTEX
  5
481
  8
0
  6
CONTINUOUS
 62
     7
 10
74.2528195824
 20
121.4543316588
 30
0.0
  0
VERTEX
  5
482
  8
0
  6
CONTINUOUS
 62
     7
 10
74.2676889308
 20
121.4463750634
 30
0.0
  0
VERTEX
  5
483
  8
0
  6
CONTINUOUS
 62
     7
 10
74.2818424014
 20
121.4107003773
 30
0.0
  0
VERTEX
  5
484
  8
0
  6
CONTINUOUS
 62
     7
 10
74.2956968298
 20
121.3462457521
 30
0.0
  0
VERTEX
  5
485
  8
0
  6
CONTINUOUS
 62
     7
 10
74.3081280687
 20
121.2584924631
 30
0.0
  0
VERTEX
  5
486
  8
0
  6
CONTINUOUS
 62
     7
 10
74.3195735844
 20
121.1448229617
 30
0.0
  0
VERTEX
  5
487
  8
0
  6
CONTINUOUS
 62
     7
 10
74.329112808
 20
121.0151601385
 30
0.0
  0
VERTEX
  5
488
  8
0
  6
CONTINUOUS
 62
     7
 10
74.3371222999
 20
120.8654538452
 30
0.0
  0
VERTEX
  5
489
  8
0
  6
CONTINUOUS
 62
     7
 10
74.3429689927
 20
120.7088379947
 30
0.0
  0
VERTEX
  5
48A
  8
0
  6
CONTINUOUS
 62
     7
 10
74.3468988659
 20
120.5403206003
 30
0.0
  0
VERTEX
  5
48B
  8
0
  6
CONTINUOUS
 62
     7
 10
74.3486103485
 20
120.3745349915
 30
0.0
  0
VERTEX
  5
48C
  8
0
  6
CONTINUOUS
 62
     7
 10
74.3481807677
 20
120.2062684342
 30
0.0
  0
VERTEX
  5
48D
  8
0
  6
CONTINUOUS
 62
     7
 10
74.3456467236
 20
120.0498486921
 30
0.0
  0
VERTEX
  5
48E
  8
0
  6
CONTINUOUS
 62
     7
 10
74.3409141491
 20
119.900566578
 30
0.0
  0
VERTEX
  5
48F
  8
0
  6
CONTINUOUS
 62
     7
 10
74.3323451858
 20
119.7403769643
 30
0.0
  0
SEQEND
  5
5C9
  8
0
  6
CONTINUOUS
 62
     7
  0
POLYLINE
  5
C2
  8
0
  6
CONTINUOUS
 62
     7
 66
     1
 10
0.0
 20
0.0
 30
0.0
 70
   128
  0
VERTEX
  5
490
  8
0
  6
CONTINUOUS
 62
     7
 10
203.1027839451
 20
115.5115484729
 30
0.0
  0
VERTEX
  5
491
  8
0
  6
CONTINUOUS
 62
     7
 10
202.5497621215
 20
115.4373067823
 30
0.0
  0
VERTEX
  5
492
  8
0
  6
CONTINUOUS
 62
     7
 10
202.352783945
 20
115.4110060751
 30
0.0
  0
SEQEND
  5
5CA
  8
0
  6
CONTINUOUS
 62
     7
  0
ARC
  5
C3
  8
0
  6
CONTINUOUS
 62
     7
 10
210.3288788633
 20
121.4285051976
 30
0.0
 40
9.339530215635563
 50
219.3117095876
 51
223.9310804443
  0
LINE
  5
C4
  8
0
  6
CONTINUOUS
 62
     7
 10
203.6027839451
 20
127.8732038436
 30
0.0
 11
203.6027839451
 21
131.3110060751
 31
0.0
  0
LINE
  5
C5
  8
0
  6
CONTINUOUS
 62
     7
 10
203.6027839451
 20
111.5110060751
 30
0.0
 11
203.6027839451
 21
114.9488083065
 31
0.0
  0
ARC
  5
C6
  8
0
  6
CONTINUOUS
 62
     7
 10
210.3288788633
 20
121.3935069526
 30
0.0
 40
9.339530215629608
 50
136.0689195557
 51
140.6882904124
  0
POLYLINE
  5
C7
  8
0
  6
CONTINUOUS
 62
     7
 66
     1
 10
0.0
 20
0.0
 30
0.0
 70
   128
  0
VERTEX
  5
493
  8
0
  6
CONTINUOUS
 62
     7
 10
202.3527839451
 20
127.4110060751
 30
0.0
  0
VERTEX
  5
494
  8
0
  6
CONTINUOUS
 62
     7
 10
202.5497621215
 20
127.3847053678
 30
0.0
  0
VERTEX
  5
495
  8
0
  6
CONTINUOUS
 62
     7
 10
203.1027839451
 20
127.3104636773
 30
0.0
  0
SEQEND
  5
5CB
  8
0
  6
CONTINUOUS
 62
     7
  0
LINE
  5
C8
  8
0
  6
CONTINUOUS
 62
     7
 10
203.6027839451
 20
127.8732038436
 30
0.0
 11
204.6027839451
 21
127.4904797365
 31
0.0
  0
LINE
  5
C9
  8
0
  6
CONTINUOUS
 62
     7
 10
204.6027839451
 20
115.3315324137
 30
0.0
 11
204.6027839451
 21
127.4904797365
 31
0.0
  0
LINE
  5
CA
  8
0
  6
CONTINUOUS
 62
     7
 10
204.6027839451
 20
115.3315324137
 30
0.0
 11
203.6027839451
 21
114.9488083065
 31
0.0
  0
LINE
  5
CB
  8
0
  6
CONTINUOUS
 62
     7
 10
203.1027839451
 20
115.5115484729
 30
0.0
 11
203.1027839451
 21
127.3104636773
 31
0.0
  0
ARC
  5
CC
  8
0
  6
CONTINUOUS
 62
     7
 10
182.3476440072
 20
163.3890462524
 30
0.0
 40
61.20070280454916
 50
222.9363093196
 51
224.1739061022
  0
POLYLINE
  5
CD
  8
0
  6
CONTINUOUS
 62
     7
 66
     1
 10
0.0
 20
0.0
 30
0.0
 70
   128
  0
VERTEX
  5
496
  8
0
  6
CONTINUOUS
 62
     7
 10
137.5289772297
 20
121.7021258807
 30
0.0
  0
VERTEX
  5
497
  8
0
  6
CONTINUOUS
 62
     7
 10
137.7623602402
 20
125.0738900463
 30
0.0
  0
VERTEX
  5
498
  8
0
  6
CONTINUOUS
 62
     7
 10
137.9701696421
 20
128.4224874272
 30
0.0
  0
SEQEND
  5
5CC
  8
0
  6
CONTINUOUS
 62
     7
  0
LINE
  5
CE
  8
0
  6
CONTINUOUS
 62
     7
 10
204.6027839451
 20
127.4904797365
 30
0.0
 11
204.6027839451
 21
130.3110060751
 31
0.0
  0
LINE
  5
CF
  8
0
  6
CONTINUOUS
 62
     7
 10
204.6027839451
 20
112.5110060751
 30
0.0
 11
204.6027839451
 21
115.3315324137
 31
0.0
  0
ARC
  5
D0
  8
0
  6
CONTINUOUS
 62
     7
 10
120.3630098921
 20
71.8791498978
 30
0.0
 40
57.7405270201769
 50
78.0174041735
 51
107.9057115657
  0
ARC
  5
D1
  8
0
  6
CONTINUOUS
 62
     7
 10
134.8594284637
 20
139.8964096693
 30
0.0
 40
11.80450090049487
 50
257.730166791
 51
278.9874017563
  0
LINE
  5
D2
  8
0
  6
CONTINUOUS
 62
     7
 10
78.6066132809
 20
113.3597639349
 30
0.0
 11
78.5281431229
 21
113.3597639349
 31
0.0
  0
ARC
  5
D3
  8
0
  6
CONTINUOUS
 62
     7
 10
79.3422098964
 20
113.3602382028
 30
0.0
 40
0.20177998183545
 50
224.4946034245
 51
258.6999574274
  0
LINE
  5
D4
  8
0
  6
CONTINUOUS
 62
     7
 10
79.3026717399
 20
113.1623698242
 30
0.0
 11
82.3527839451
 21
113.1623698242
 31
0.0
  0
ARC
  5
D5
  8
0
  6
CONTINUOUS
 62
     7
 10
81.9476933152
 20
206.2230397146
 30
0.0
 40
93.06155156068891
 50
270.2494054346
 51
280.4658246677
  0
LINE
  5
D6
  8
0
  6
CONTINUOUS
 62
     7
 10
74.3021345572
 20
129.0130393203
 30
0.0
 11
74.4653693284
 21
129.5938022263
 31
0.0
  0
LINE
  5
D7
  8
0
  6
CONTINUOUS
 62
     7
 10
82.3527839451
 20
118.2110060751
 30
0.0
 11
82.3527839451
 21
113.1623698242
 31
0.0
  0
LINE
  5
D8
  8
0
  6
CONTINUOUS
 62
     7
 10
82.3527839451
 20
119.0771339504
 30
0.0
 11
82.3527839451
 21
118.2110060751
 31
0.0
  0
ARC
  5
D9
  8
0
  6
CONTINUOUS
 62
     7
 10
473.4743491707
 20
153.2906014302
 30
0.0
 40
401.097348987041
 50
184.916514776
 51
185.0174451635
  0
LINE
  5
DA
  8
0
  6
CONTINUOUS
 62
     7
 10
82.3527839451
 20
118.2110060751
 30
0.0
 11
79.8935762756
 21
118.2110060751
 31
0.0
  0
ARC
  5
DB
  8
0
  6
CONTINUOUS
 62
     7
 10
78.9585419582
 20
117.8737168729
 30
0.0
 40
0.9940086421474825
 50
19.8355843981
 51
148.1037282179
  0
LINE
  5
DC
  8
0
  6
CONTINUOUS
 62
     7
 10
73.8527839451
 20
118.9149127673
 30
0.0
 11
73.8527839451
 21
119.2110060751
 31
0.0
  0
LINE
  5
DD
  8
0
  6
CONTINUOUS
 62
     7
 10
73.9139590491
 20
118.2110060751
 30
0.0
 11
73.9231127427
 21
118.1056266942
 31
0.0
  0
LINE
  5
DE
  8
0
  6
CONTINUOUS
 62
     7
 10
73.8527839451
 20
118.9110060751
 30
0.0
 11
73.8527839451
 21
118.9149127673
 31
0.0
  0
LINE
  5
DF
  8
0
  6
CONTINUOUS
 62
     7
 10
79.296986448
 20
113.2708516568
 30
0.0
 11
79.3026717399
 21
113.1623698242
 31
0.0
  0
ARC
  5
E0
  8
0
  6
CONTINUOUS
 62
     7
 10
78.9546874868
 20
117.8667854451
 30
0.0
 40
1.000000000000018
 50
281.0937340036
 51
20.134227392
  0
LINE
  5
E1
  8
0
  6
CONTINUOUS
 62
     7
 10
75.6712874429
 20
115.1993275176
 30
0.0
 11
75.9793070499
 21
115.1690375102
 31
0.0
  0
LINE
  5
E2
  8
0
  6
CONTINUOUS
 62
     7
 10
75.9793070499
 20
115.1690375102
 30
0.0
 11
75.9695204639
 21
115.0695175487
 31
0.0
  0
LINE
  5
E3
  8
0
  6
CONTINUOUS
 62
     7
 10
75.9695204639
 20
115.0695175487
 30
0.0
 11
75.661500857
 21
115.0998075561
 31
0.0
  0
LINE
  5
E4
  8
0
  6
CONTINUOUS
 62
     7
 10
75.6712874429
 20
115.1993275176
 30
0.0
 11
75.661500857
 21
115.0998075561
 31
0.0
  0
ARC
  5
E5
  8
0
  6
CONTINUOUS
 62
     7
 10
75.6786273824
 20
115.2739674887
 30
0.0
 40
0.0749999999999992
 50
130.9861878664
 51
264.3837096094
  0
ARC
  5
E6
  8
0
  6
CONTINUOUS
 62
     7
 10
75.6786273824
 20
115.2739674887
 30
0.0
 40
0.1749999999999666
 50
130.9861878663
 51
264.3837096094
  0
LINE
  5
E7
  8
0
  6
CONTINUOUS
 62
     7
 10
75.6294366019
 20
115.3305825672
 30
0.0
 11
75.5638488944
 21
115.4060693384
 31
0.0
  0
LINE
  5
E8
  8
0
  6
CONTINUOUS
 62
     7
 10
77.0176744297
 20
114.8037406815
 30
0.0
 11
76.72505567
 21
114.9045763114
 31
0.0
  0
LINE
  5
E9
  8
0
  6
CONTINUOUS
 62
     7
 10
76.72505567
 20
114.9045763114
 30
0.0
 11
76.7576352778
 21
114.9991203178
 31
0.0
  0
LINE
  5
EA
  8
0
  6
CONTINUOUS
 62
     7
 10
76.7576352778
 20
114.9991203178
 30
0.0
 11
77.0502540376
 21
114.8982846879
 31
0.0
  0
LINE
  5
EB
  8
0
  6
CONTINUOUS
 62
     7
 10
77.0176744297
 20
114.8037406815
 30
0.0
 11
77.0502540376
 21
114.8982846879
 31
0.0
  0
ARC
  5
EC
  8
0
  6
CONTINUOUS
 62
     7
 10
77.0746887435
 20
114.9691926928
 30
0.0
 40
0.1750000000000274
 50
250.9861878664
 51
24.3837096094
  0
ARC
  5
ED
  8
0
  6
CONTINUOUS
 62
     7
 10
77.0746887435
 20
114.9691926928
 30
0.0
 40
0.0750000000000239
 50
250.9861878664
 51
24.3837096094
  0
LINE
  5
EE
  8
0
  6
CONTINUOUS
 62
     7
 10
77.2340789322
 20
115.0414406529
 30
0.0
 11
77.1429988243
 21
115.0001561043
 31
0.0
  0
LINE
  5
EF
  8
0
  6
CONTINUOUS
 62
     7
 10
76.1716426586
 20
116.0500562662
 30
0.0
 11
75.8790238988
 21
116.1508918961
 31
0.0
  0
LINE
  5
F0
  8
0
  6
CONTINUOUS
 62
     7
 10
75.8790238988
 20
116.1508918961
 30
0.0
 11
75.9116035067
 21
116.2454359026
 31
0.0
  0
LINE
  5
F1
  8
0
  6
CONTINUOUS
 62
     7
 10
75.9116035067
 20
116.2454359026
 30
0.0
 11
76.2042222664
 21
116.1446002726
 31
0.0
  0
LINE
  5
F2
  8
0
  6
CONTINUOUS
 62
     7
 10
76.1716426586
 20
116.0500562662
 30
0.0
 11
76.2042222664
 21
116.1446002726
 31
0.0
  0
ARC
  5
F3
  8
0
  6
CONTINUOUS
 62
     7
 10
75.8545891929
 20
116.0799838913
 30
0.0
 40
0.0750000000000239
 50
70.9861878664
 51
204.3837096094
  0
LINE
  5
F4
  8
0
  6
CONTINUOUS
 62
     7
 10
75.786279112
 20
116.0490204798
 30
0.0
 11
75.6951990042
 21
116.0077359311
 31
0.0
  0
ARC
  5
F5
  8
0
  6
CONTINUOUS
 62
     7
 10
75.8545891929
 20
116.0799838913
 30
0.0
 40
0.175000000000048
 50
70.9861878664
 51
204.3837096094
  0
LINE
  5
F6
  8
0
  6
CONTINUOUS
 62
     7
 10
76.5796306373
 20
116.3742812542
 30
0.0
 11
76.3993889179
 21
116.1226734534
 31
0.0
  0
LINE
  5
F7
  8
0
  6
CONTINUOUS
 62
     7
 10
76.3993889179
 20
116.1226734534
 30
0.0
 11
76.3180953961
 21
116.1809088663
 31
0.0
  0
LINE
  5
F8
  8
0
  6
CONTINUOUS
 62
     7
 10
76.3180953961
 20
116.1809088663
 30
0.0
 11
76.4983371154
 21
116.4325166671
 31
0.0
  0
LINE
  5
F9
  8
0
  6
CONTINUOUS
 62
     7
 10
76.5796306373
 20
116.3742812542
 30
0.0
 11
76.4983371154
 21
116.4325166671
 31
0.0
  0
ARC
  5
FA
  8
0
  6
CONTINUOUS
 62
     7
 10
76.2368018743
 20
116.2391442791
 30
0.0
 40
0.2000000000000061
 50
250.9861878664
 51
324.3837096094
  0
ARC
  5
FB
  8
0
  6
CONTINUOUS
 62
     7
 10
76.2368018743
 20
116.2391442791
 30
0.0
 40
0.1000000000000278
 50
250.9861878664
 51
324.3837096094
  0
ARC
  5
FC
  8
0
  6
CONTINUOUS
 62
     7
 10
76.2886771577
 20
114.7185718894
 30
0.0
 40
0.1750000000000252
 50
190.9861878664
 51
324.3837096094
  0
LINE
  5
FD
  8
0
  6
CONTINUOUS
 62
     7
 10
76.116884356
 20
114.6852217279
 30
0.0
 11
76.2150516712
 21
114.7042789631
 31
0.0
  0
ARC
  5
FE
  8
0
  6
CONTINUOUS
 62
     7
 10
76.2886771577
 20
114.7185718894
 30
0.0
 40
0.0750000000000295
 50
190.9861878664
 51
324.3837096094
  0
LINE
  5
FF
  8
0
  6
CONTINUOUS
 62
     7
 10
76.4309408209
 20
114.616659917
 30
0.0
 11
76.3496472991
 21
114.6748953298
 31
0.0
  0
ARC
  5
100
  8
0
  6
CONTINUOUS
 62
     7
 10
76.6406007787
 20
116.3306046946
 30
0.0
 40
0.075000000000027
 50
10.9861878664
 51
144.3837096094
  0
ARC
  5
101
  8
0
  6
CONTINUOUS
 62
     7
 10
76.6406007787
 20
116.3306046946
 30
0.0
 40
0.1750000000000144
 50
10.9861878664
 51
144.3837096094
  0
LINE
  5
102
  8
0
  6
CONTINUOUS
 62
     7
 10
76.7142262651
 20
116.344897621
 30
0.0
 11
76.8123935804
 21
116.3639548562
 31
0.0
  0
LINE
  5
103
  8
0
  6
CONTINUOUS
 62
     7
 10
76.6111825403
 20
114.8682677178
 30
0.0
 11
76.4309408209
 21
114.616659917
 31
0.0
  0
LINE
  5
104
  8
0
  6
CONTINUOUS
 62
     7
 10
76.3496472991
 20
114.6748953298
 30
0.0
 11
76.5298890184
 21
114.9265031306
 31
0.0
  0
LINE
  5
105
  8
0
  6
CONTINUOUS
 62
     7
 10
76.6111825403
 20
114.8682677178
 30
0.0
 11
76.5298890184
 21
114.9265031306
 31
0.0
  0
LINE
  5
106
  8
0
  6
CONTINUOUS
 62
     7
 10
77.3654290419
 20
115.6431072456
 30
0.0
 11
77.1317934449
 21
115.440109781
 31
0.0
  0
LINE
  5
107
  8
0
  6
CONTINUOUS
 62
     7
 10
77.1317934449
 20
115.440109781
 30
0.0
 11
77.0662057375
 21
115.5155965523
 31
0.0
  0
LINE
  5
108
  8
0
  6
CONTINUOUS
 62
     7
 10
77.0662057375
 20
115.5155965523
 30
0.0
 11
77.2998413345
 21
115.7185940169
 31
0.0
  0
LINE
  5
109
  8
0
  6
CONTINUOUS
 62
     7
 10
77.3654290419
 20
115.6431072456
 30
0.0
 11
77.2998413345
 21
115.7185940169
 31
0.0
  0
LINE
  5
10A
  8
0
  6
CONTINUOUS
 62
     7
 10
75.8630721988
 20
115.5335800318
 30
0.0
 11
75.6294366019
 21
115.3305825672
 31
0.0
  0
LINE
  5
10B
  8
0
  6
CONTINUOUS
 62
     7
 10
75.5638488944
 20
115.4060693384
 30
0.0
 11
75.7974844914
 21
115.609066803
 31
0.0
  0
LINE
  5
10C
  8
0
  6
CONTINUOUS
 62
     7
 10
75.8630721988
 20
115.5335800318
 30
0.0
 11
75.7974844914
 21
115.609066803
 31
0.0
  0
ARC
  5
10D
  8
0
  6
CONTINUOUS
 62
     7
 10
77.2506505539
 20
115.7752090954
 30
0.0
 40
0.1749999999999901
 50
310.9861878664
 51
84.3837096094
  0
ARC
  5
10E
  8
0
  6
CONTINUOUS
 62
     7
 10
77.2506505539
 20
115.7752090954
 30
0.0
 40
0.074999999999989
 50
310.9861878664
 51
84.3837096095
  0
LINE
  5
10F
  8
0
  6
CONTINUOUS
 62
     7
 10
77.2677770794
 20
115.949369028
 30
0.0
 11
77.2579904934
 21
115.8498490665
 31
0.0
  0
ARC
  5
110
  8
0
  6
CONTINUOUS
 62
     7
 10
76.6924760621
 20
114.810032305
 30
0.0
 40
0.1000000000000125
 50
70.9861878664
 51
144.3837096094
  0
LINE
  5
111
  8
0
  6
CONTINUOUS
 62
     7
 10
77.1063010445
 20
115.3233384611
 30
0.0
 11
77.2340789322
 21
115.0414406529
 31
0.0
  0
ARC
  5
112
  8
0
  6
CONTINUOUS
 62
     7
 10
77.1973811524
 20
115.3646230098
 30
0.0
 40
0.1000000000000104
 50
130.9861878664
 51
204.3837096094
  0
LINE
  5
113
  8
0
  6
CONTINUOUS
 62
     7
 10
76.9597574725
 20
115.9796590353
 30
0.0
 11
77.2677770794
 21
115.949369028
 31
0.0
  0
ARC
  5
114
  8
0
  6
CONTINUOUS
 62
     7
 10
76.9695440584
 20
116.0791789968
 30
0.0
 40
0.1000000000000628
 50
190.9861878664
 51
264.3837096094
  0
LINE
  5
115
  8
0
  6
CONTINUOUS
 62
     7
 10
76.8123935804
 20
116.3639548562
 30
0.0
 11
76.8713767432
 21
116.0601217617
 31
0.0
  0
LINE
  5
116
  8
0
  6
CONTINUOUS
 62
     7
 10
75.8229768918
 20
115.725838123
 30
0.0
 11
75.6951990042
 21
116.0077359311
 31
0.0
  0
ARC
  5
117
  8
0
  6
CONTINUOUS
 62
     7
 10
75.731896784
 20
115.6845535743
 30
0.0
 40
0.1000000000000106
 50
310.9861878664
 51
24.3837096094
  0
ARC
  5
118
  8
0
  6
CONTINUOUS
 62
     7
 10
75.9597338779
 20
114.9699975872
 30
0.0
 40
0.0999999999999958
 50
10.9861878664
 51
84.3837096094
  0
LINE
  5
119
  8
0
  6
CONTINUOUS
 62
     7
 10
76.116884356
 20
114.6852217279
 30
0.0
 11
76.0579011932
 21
114.9890548224
 31
0.0
  0
CIRCLE
  5
11A
  8
0
  6
CONTINUOUS
 62
     7
 10
76.4646389682
 20
115.524588292
 30
0.0
 40
1.125000000000028
  0
LINE
  5
11B
  8
0
  6
CONTINUOUS
 62
     7
 10
76.0579011932
 20
114.9890548224
 30
0.0
 11
76.1560685085
 21
115.0081120576
 31
0.0
  0
LINE
  5
11C
  8
0
  6
CONTINUOUS
 62
     7
 10
76.1560685085
 20
115.0081120576
 30
0.0
 11
76.2150516712
 21
114.7042789631
 31
0.0
  0
LINE
  5
11D
  8
0
  6
CONTINUOUS
 62
     7
 10
77.1429988243
 20
115.0001561043
 30
0.0
 11
77.0152209367
 21
115.2820539124
 31
0.0
  0
LINE
  5
11E
  8
0
  6
CONTINUOUS
 62
     7
 10
77.1063010445
 20
115.3233384611
 30
0.0
 11
77.0152209367
 21
115.2820539124
 31
0.0
  0
ARC
  5
11F
  8
0
  6
CONTINUOUS
 62
     7
 10
75.731896784
 20
115.6845535743
 30
0.0
 40
0.1999999999999953
 50
310.9861878664
 51
24.3837096094
  0
LINE
  5
120
  8
0
  6
CONTINUOUS
 62
     7
 10
75.9140569997
 20
115.7671226716
 30
0.0
 11
75.8229768918
 21
115.725838123
 31
0.0
  0
ARC
  5
121
  8
0
  6
CONTINUOUS
 62
     7
 10
75.9597338779
 20
114.9699975872
 30
0.0
 40
0.2000000000000334
 50
10.9861878664
 51
84.3837096094
  0
LINE
  5
122
  8
0
  6
CONTINUOUS
 62
     7
 10
75.786279112
 20
116.0490204798
 30
0.0
 11
75.9140569997
 21
115.7671226716
 31
0.0
  0
LINE
  5
123
  8
0
  6
CONTINUOUS
 62
     7
 10
77.2579904934
 20
115.8498490665
 30
0.0
 11
76.9499708865
 21
115.8801390738
 31
0.0
  0
LINE
  5
124
  8
0
  6
CONTINUOUS
 62
     7
 10
76.9597574725
 20
115.9796590353
 30
0.0
 11
76.9499708865
 21
115.8801390738
 31
0.0
  0
ARC
  5
125
  8
0
  6
CONTINUOUS
 62
     7
 10
77.1973811524
 20
115.3646230098
 30
0.0
 40
0.2000000000000058
 50
130.9861878664
 51
204.3837096094
  0
LINE
  5
126
  8
0
  6
CONTINUOUS
 62
     7
 10
76.7732094279
 20
116.0410645265
 30
0.0
 11
76.7142262651
 21
116.344897621
 31
0.0
  0
LINE
  5
127
  8
0
  6
CONTINUOUS
 62
     7
 10
76.7732094279
 20
116.0410645265
 30
0.0
 11
76.8713767432
 21
116.0601217617
 31
0.0
  0
CIRCLE
  5
128
  8
0
  6
CONTINUOUS
 62
     7
 10
76.4646389682
 20
115.524588292
 30
0.0
 40
1.225000000000038
  0
ARC
  5
129
  8
0
  6
CONTINUOUS
 62
     7
 10
76.9695440584
 20
116.0791789968
 30
0.0
 40
0.2000000000000026
 50
190.9861878664
 51
264.3837096094
  0
ARC
  5
12A
  8
0
  6
CONTINUOUS
 62
     7
 10
76.6924760621
 20
114.810032305
 30
0.0
 40
0.2000000000000441
 50
70.9861878664
 51
144.3837096094
  0
LINE
  5
12B
  8
0
  6
CONTINUOUS
 62
     7
 10
77.0746887435
 20
114.9691926928
 30
0.0
 11
77.1429988243
 21
115.0001561043
 31
0.0
  0
LINE
  5
12C
  8
0
  6
CONTINUOUS
 62
     7
 10
76.825499252
 20
115.1960573726
 30
0.0
 11
77.0746887435
 21
114.9691926928
 31
0.0
  0
LINE
  5
12D
  8
0
  6
CONTINUOUS
 62
     7
 10
76.825499252
 20
115.1960573726
 30
0.0
 11
77.0152209367
 21
115.2820539124
 31
0.0
  0
LINE
  5
12E
  8
0
  6
CONTINUOUS
 62
     7
 10
76.4646389682
 20
115.524588292
 30
0.0
 11
76.9295852323
 21
115.6728370053
 31
0.0
  0
LINE
  5
12F
  8
0
  6
CONTINUOUS
 62
     7
 10
76.9295852323
 20
115.6728370053
 30
0.0
 11
77.0662057375
 21
115.5155965523
 31
0.0
  0
LINE
  5
130
  8
0
  6
CONTINUOUS
 62
     7
 10
76.4646389682
 20
115.524588292
 30
0.0
 11
76.825499252
 21
115.1960573726
 31
0.0
  0
LINE
  5
131
  8
0
  6
CONTINUOUS
 62
     7
 10
75.6786273824
 20
115.2739674887
 30
0.0
 11
75.6712874429
 21
115.1993275176
 31
0.0
  0
LINE
  5
132
  8
0
  6
CONTINUOUS
 62
     7
 10
75.9996927041
 20
115.3763395787
 30
0.0
 11
75.6786273824
 21
115.2739674887
 31
0.0
  0
LINE
  5
133
  8
0
  6
CONTINUOUS
 62
     7
 10
75.9996927041
 20
115.3763395787
 30
0.0
 11
75.9793070499
 21
115.1690375102
 31
0.0
  0
LINE
  5
134
  8
0
  6
CONTINUOUS
 62
     7
 10
76.5687249485
 20
116.0013679248
 30
0.0
 11
76.7732094279
 21
116.0410645265
 31
0.0
  0
LINE
  5
135
  8
0
  6
CONTINUOUS
 62
     7
 10
76.9295852323
 20
115.6728370053
 30
0.0
 11
76.9499708865
 21
115.8801390738
 31
0.0
  0
LINE
  5
136
  8
0
  6
CONTINUOUS
 62
     7
 10
76.5687249485
 20
116.0013679248
 30
0.0
 11
76.4646389682
 21
115.524588292
 31
0.0
  0
LINE
  5
137
  8
0
  6
CONTINUOUS
 62
     7
 10
75.6786273824
 20
115.2739674887
 30
0.0
 11
75.6294366019
 21
115.3305825672
 31
0.0
  0
LINE
  5
138
  8
0
  6
CONTINUOUS
 62
     7
 10
76.1037786843
 20
115.8531192115
 30
0.0
 11
76.1716426586
 21
116.0500562662
 31
0.0
  0
LINE
  5
139
  8
0
  6
CONTINUOUS
 62
     7
 10
76.1037786843
 20
115.8531192115
 30
0.0
 11
75.8545891929
 21
116.0799838913
 31
0.0
  0
LINE
  5
13A
  8
0
  6
CONTINUOUS
 62
     7
 10
75.8545891929
 20
116.0799838913
 30
0.0
 11
75.8790238988
 21
116.1508918961
 31
0.0
  0
LINE
  5
13B
  8
0
  6
CONTINUOUS
 62
     7
 10
76.5687249485
 20
116.0013679248
 30
0.0
 11
76.6406007787
 21
116.3306046946
 31
0.0
  0
LINE
  5
13C
  8
0
  6
CONTINUOUS
 62
     7
 10
76.6406007787
 20
116.3306046946
 30
0.0
 11
76.7142262651
 21
116.344897621
 31
0.0
  0
LINE
  5
13D
  8
0
  6
CONTINUOUS
 62
     7
 10
75.8545891929
 20
116.0799838913
 30
0.0
 11
75.786279112
 21
116.0490204798
 31
0.0
  0
LINE
  5
13E
  8
0
  6
CONTINUOUS
 62
     7
 10
76.4646389682
 20
115.524588292
 30
0.0
 11
76.3605529879
 21
115.0478086593
 31
0.0
  0
LINE
  5
13F
  8
0
  6
CONTINUOUS
 62
     7
 10
76.3605529879
 20
115.0478086593
 30
0.0
 11
76.1560685085
 21
115.0081120576
 31
0.0
  0
LINE
  5
140
  8
0
  6
CONTINUOUS
 62
     7
 10
76.4646389682
 20
115.524588292
 30
0.0
 11
75.9996927041
 21
115.3763395787
 31
0.0
  0
LINE
  5
141
  8
0
  6
CONTINUOUS
 62
     7
 10
77.0746887435
 20
114.9691926928
 30
0.0
 11
77.0502540376
 21
114.8982846879
 31
0.0
  0
LINE
  5
142
  8
0
  6
CONTINUOUS
 62
     7
 10
76.2886771577
 20
114.7185718894
 30
0.0
 11
76.3496472991
 21
114.6748953298
 31
0.0
  0
LINE
  5
143
  8
0
  6
CONTINUOUS
 62
     7
 10
76.2886771577
 20
114.7185718894
 30
0.0
 11
76.2150516712
 21
114.7042789631
 31
0.0
  0
LINE
  5
144
  8
0
  6
CONTINUOUS
 62
     7
 10
76.3605529879
 20
115.0478086593
 30
0.0
 11
76.2886771577
 21
114.7185718894
 31
0.0
  0
LINE
  5
145
  8
0
  6
CONTINUOUS
 62
     7
 10
76.3605529879
 20
115.0478086593
 30
0.0
 11
76.5298890184
 21
114.9265031306
 31
0.0
  0
LINE
  5
146
  8
0
  6
CONTINUOUS
 62
     7
 10
77.2506505539
 20
115.7752090954
 30
0.0
 11
77.2579904934
 21
115.8498490665
 31
0.0
  0
LINE
  5
147
  8
0
  6
CONTINUOUS
 62
     7
 10
76.9295852323
 20
115.6728370053
 30
0.0
 11
77.2506505539
 21
115.7752090954
 31
0.0
  0
LINE
  5
148
  8
0
  6
CONTINUOUS
 62
     7
 10
77.2506505539
 20
115.7752090954
 30
0.0
 11
77.2998413345
 21
115.7185940169
 31
0.0
  0
LINE
  5
149
  8
0
  6
CONTINUOUS
 62
     7
 10
76.825499252
 20
115.1960573726
 30
0.0
 11
76.7576352778
 21
114.9991203178
 31
0.0
  0
LINE
  5
14A
  8
0
  6
CONTINUOUS
 62
     7
 10
75.9996927041
 20
115.3763395787
 30
0.0
 11
75.8630721988
 21
115.5335800318
 31
0.0
  0
LINE
  5
14B
  8
0
  6
CONTINUOUS
 62
     7
 10
76.1037786843
 20
115.8531192115
 30
0.0
 11
75.9140569997
 21
115.7671226716
 31
0.0
  0
LINE
  5
14C
  8
0
  6
CONTINUOUS
 62
     7
 10
76.4646389682
 20
115.524588292
 30
0.0
 11
76.1037786843
 21
115.8531192115
 31
0.0
  0
LINE
  5
14D
  8
0
  6
CONTINUOUS
 62
     7
 10
76.5687249485
 20
116.0013679248
 30
0.0
 11
76.3993889179
 21
116.1226734534
 31
0.0
  0
LINE
  5
14E
  8
0
  6
CONTINUOUS
 62
     7
 10
76.6406007787
 20
116.3306046946
 30
0.0
 11
76.5796306373
 21
116.3742812542
 31
0.0
  0
ARC
  5
14F
  8
0
  6
CONTINUOUS
 62
     7
 10
76.1967037079
 20
123.252634979
 30
0.0
 40
0.8005390760999176
 50
192.289916446
 51
346.141761829
  0
LINE
  5
150
  8
0
  6
CONTINUOUS
 62
     7
 10
74.0675214216
 20
125.3253933857
 30
0.0
 11
73.8362931309
 21
125.9641415446
 31
0.0
  0
POLYLINE
  5
151
  8
0
  6
CONTINUOUS
 62
     7
 66
     1
 10
0.0
 20
0.0
 30
0.0
 70
   128
  0
VERTEX
  5
499
  8
0
  6
CONTINUOUS
 62
     7
 10
73.8362931309
 20
125.9641415446
 30
0.0
  0
VERTEX
  5
49A
  8
0
  6
CONTINUOUS
 62
     7
 10
73.8224340033
 20
126.0565528794
 30
0.0
  0
VERTEX
  5
49B
  8
0
  6
CONTINUOUS
 62
     7
 10
73.7742008003
 20
126.1147545839
 30
0.0
  0
SEQEND
  5
5CD
  8
0
  6
CONTINUOUS
 62
     7
  0
ARC
  5
152
  8
0
  6
CONTINUOUS
 62
     7
 10
73.9981671909
 20
126.1390645275
 30
0.0
 40
0.2252818623738164
 50
73.5902346092
 51
186.194793362
  0
LINE
  5
153
  8
0
  6
CONTINUOUS
 62
     7
 10
73.8527839451
 20
121.7662254687
 30
0.0
 11
73.7641830918
 21
121.8714140506
 31
0.0
  0
ARC
  5
154
  8
0
  6
CONTINUOUS
 62
     7
 10
73.9032951633
 20
121.9851925709
 30
0.0
 40
0.1797156646929274
 50
174.1250510129
 51
219.2794265767
  0
LINE
  5
155
  8
0
  6
CONTINUOUS
 62
     7
 10
73.8079698698
 20
122.953755577
 30
0.0
 11
73.7245234254
 21
122.0035878387
 31
0.0
  0
ARC
  5
156
  8
0
  6
CONTINUOUS
 62
     7
 10
73.9790274756
 20
122.9387369752
 30
0.0
 40
0.1717156532154918
 50
143.5299450333
 51
174.9823827926
  0
ARC
  5
157
  8
0
  6
CONTINUOUS
 62
     7
 10
73.7029040847
 20
123.1431016653
 30
0.0
 40
0.1718088653233672
 50
323.4582413453
 51
354.9126825115
  0
LINE
  5
158
  8
0
  6
CONTINUOUS
 62
     7
 10
73.8740361464
 20
123.127866717
 30
0.0
 11
73.9066740185
 21
123.499499724
 31
0.0
  0
ARC
  5
159
  8
0
  6
CONTINUOUS
 62
     7
 10
74.0928643521
 20
124.2368940039
 30
0.0
 40
0.1715453239946843
 50
174.9747432329
 51
206.448284049
  0
LINE
  5
15A
  8
0
  6
CONTINUOUS
 62
     7
 10
74.0054248654
 20
125.2020882366
 30
0.0
 11
73.9219784205
 21
124.2519204941
 31
0.0
  0
ARC
  5
15B
  8
0
  6
CONTINUOUS
 62
     7
 10
74.1914573648
 20
125.187067206
 30
0.0
 40
0.186637944176549
 50
147.226432603
 51
175.3837174101
  0
POLYLINE
  5
15C
  8
0
  6
CONTINUOUS
 62
     7
 66
     1
 10
0.0
 20
0.0
 30
0.0
 70
   128
  0
VERTEX
  5
49C
  8
0
  6
CONTINUOUS
 62
     7
 10
73.8060343956
 20
122.1119827606
 30
0.0
  0
VERTEX
  5
49D
  8
0
  6
CONTINUOUS
 62
     7
 10
73.8156493821
 20
122.019931399
 30
0.0
  0
VERTEX
  5
49E
  8
0
  6
CONTINUOUS
 62
     7
 10
73.860774554
 20
121.9390298107
 30
0.0
  0
SEQEND
  5
5CE
  8
0
  6
CONTINUOUS
 62
     7
  0
ARC
  5
15D
  8
0
  6
CONTINUOUS
 62
     7
 10
73.9358160258
 20
125.8236973929
 30
0.0
 40
0.1721318283874491
 50
125.3225185502
 51
168.0001037819
  0
LINE
  5
15E
  8
0
  6
CONTINUOUS
 62
     7
 10
73.767445626
 20
125.8594853074
 30
0.0
 11
74.0054248654
 21
125.2020882366
 31
0.0
  0
POLYLINE
  5
15F
  8
0
  6
CONTINUOUS
 62
     7
 66
     1
 10
0.0
 20
0.0
 30
0.0
 70
   128
  0
VERTEX
  5
49F
  8
0
  6
CONTINUOUS
 62
     7
 10
73.9219784205
 20
124.2519204941
 30
0.0
  0
VERTEX
  5
4A0
  8
0
  6
CONTINUOUS
 62
     7
 10
73.7380190016
 20
124.2766163242
 30
0.0
  0
VERTEX
  5
4A1
  8
0
  6
CONTINUOUS
 62
     7
 10
73.6272470509
 20
124.2631061669
 30
0.0
  0
SEQEND
  5
5CF
  8
0
  6
CONTINUOUS
 62
     7
  0
LINE
  5
160
  8
0
  6
CONTINUOUS
 62
     7
 10
73.6272470508
 20
124.2631061667
 30
0.0
 11
73.767445626
 21
125.8594853074
 31
0.0
  0
ARC
  5
161
  8
0
  6
CONTINUOUS
 62
     7
 10
73.7193878424
 20
121.0314971225
 30
0.0
 40
1.083954260758601
 50
80.0018417274
 51
85.4151349625
  0
LINE
  5
162
  8
0
  6
CONTINUOUS
 62
     7
 10
73.6272470509
 20
124.2631061668
 30
0.0
 11
73.6284977136
 21
124.2336707384
 31
0.0
  0
POLYLINE
  5
163
  8
0
  6
CONTINUOUS
 62
     7
 66
     1
 10
0.0
 20
0.0
 30
0.0
 70
   128
  0
VERTEX
  5
4A2
  8
0
  6
CONTINUOUS
 62
     7
 10
73.6284977136
 20
124.2336707384
 30
0.0
  0
VERTEX
  5
4A3
  8
0
  6
CONTINUOUS
 62
     7
 10
73.7431167729
 20
124.215595087
 30
0.0
  0
VERTEX
  5
4A4
  8
0
  6
CONTINUOUS
 62
     7
 10
73.9392735219
 20
124.1604894563
 30
0.0
  0
SEQEND
  5
5D0
  8
0
  6
CONTINUOUS
 62
     7
  0
ARC
  5
164
  8
0
  6
CONTINUOUS
 62
     7
 10
73.7339315129
 20
124.1967016857
 30
0.0
 40
0.1117273327820982
 50
160.6774160247
 51
174.6142658516
  0
LINE
  5
165
  8
0
  6
CONTINUOUS
 62
     7
 10
73.9566914307
 20
124.0690258648
 30
0.0
 11
73.6226974154
 21
124.2071884611
 31
0.0
  0
LINE
  5
166
  8
0
  6
CONTINUOUS
 62
     7
 10
73.5400421311
 20
123.2660293133
 30
0.0
 11
73.8740361464
 21
123.127866717
 31
0.0
  0
LINE
  5
167
  8
0
  6
CONTINUOUS
 62
     7
 10
73.6226974154
 20
124.2071884611
 30
0.0
 11
73.5400421311
 21
123.2660293133
 31
0.0
  0
LINE
  5
168
  8
0
  6
CONTINUOUS
 62
     7
 10
73.5408124956
 20
123.2352379621
 30
0.0
 11
73.5345318989
 21
123.2073997622
 31
0.0
  0
POLYLINE
  5
169
  8
0
  6
CONTINUOUS
 62
     7
 66
     1
 10
0.0
 20
0.0
 30
0.0
 70
   128
  0
VERTEX
  5
4A5
  8
0
  6
CONTINUOUS
 62
     7
 10
73.8409393064
 20
123.0408051989
 30
0.0
  0
VERTEX
  5
4A6
  8
0
  6
CONTINUOUS
 62
     7
 10
73.649935112
 20
123.1553091771
 30
0.0
  0
VERTEX
  5
4A7
  8
0
  6
CONTINUOUS
 62
     7
 10
73.5408124956
 20
123.2352379621
 30
0.0
  0
SEQEND
  5
5D1
  8
0
  6
CONTINUOUS
 62
     7
  0
POLYLINE
  5
16A
  8
0
  6
CONTINUOUS
 62
     7
 66
     1
 10
0.0
 20
0.0
 30
0.0
 70
   128
  0
VERTEX
  5
4A8
  8
0
  6
CONTINUOUS
 62
     7
 10
73.5345318989
 20
123.2073997623
 30
0.0
  0
VERTEX
  5
4A9
  8
0
  6
CONTINUOUS
 62
     7
 10
73.6342381597
 20
123.0958020379
 30
0.0
  0
VERTEX
  5
4AA
  8
0
  6
CONTINUOUS
 62
     7
 10
73.8079698698
 20
122.953755577
 30
0.0
  0
SEQEND
  5
5D2
  8
0
  6
CONTINUOUS
 62
     7
  0
ARC
  5
16B
  8
0
  6
CONTINUOUS
 62
     7
 10
73.6987219064
 20
123.254593988
 30
0.0
 40
0.1590912874932836
 50
175.8780811352
 51
186.9882711169
  0
LINE
  5
16C
  8
0
  6
CONTINUOUS
 62
     7
 10
73.3943333234
 20
121.6110206214
 30
0.0
 11
73.5345318989
 21
123.2073997623
 31
0.0
  0
LINE
  5
16D
  8
0
  6
CONTINUOUS
 62
     7
 10
73.7245234254
 20
122.0035878387
 30
0.0
 11
73.3943333234
 21
121.6110206214
 31
0.0
  0
ARC
  5
16E
  8
0
  6
CONTINUOUS
 62
     7
 10
73.5752215535
 20
121.6138418048
 30
0.0
 40
0.1809102287021725
 50
180.8935285706
 51
223.2074417452
  0
LINE
  5
16F
  8
0
  6
CONTINUOUS
 62
     7
 10
73.7641830918
 20
121.8714140506
 30
0.0
 11
73.4433597584
 21
121.4899831037
 31
0.0
  0
POLYLINE
  5
170
  8
0
  6
CONTINUOUS
 62
     7
 66
     1
 10
0.0
 20
0.0
 30
0.0
 70
   128
  0
VERTEX
  5
4AB
  8
0
  6
CONTINUOUS
 62
     7
 10
73.6017292712
 20
121.1164162461
 30
0.0
  0
VERTEX
  5
4AC
  8
0
  6
CONTINUOUS
 62
     7
 10
73.6477201253
 20
121.1520804133
 30
0.0
  0
VERTEX
  5
4AD
  8
0
  6
CONTINUOUS
 62
     7
 10
73.7273599768
 20
121.1528127591
 30
0.0
  0
SEQEND
  5
5D3
  8
0
  6
CONTINUOUS
 62
     7
  0
ARC
  5
171
  8
0
  6
CONTINUOUS
 62
     7
 10
73.6242142283
 20
121.3802519689
 30
0.0
 40
0.2647921107639113
 50
175.0864258057
 51
265.1288336249
  0
POLYLINE
  5
172
  8
0
  6
CONTINUOUS
 62
     7
 66
     1
 10
0.0
 20
0.0
 30
0.0
 70
   128
  0
VERTEX
  5
4AE
  8
0
  6
CONTINUOUS
 62
     7
 10
73.4433597584
 20
121.4899831037
 30
0.0
  0
VERTEX
  5
4AF
  8
0
  6
CONTINUOUS
 62
     7
 10
73.4158818593
 20
121.4273228062
 30
0.0
  0
VERTEX
  5
4B0
  8
0
  6
CONTINUOUS
 62
     7
 10
73.3603952201
 20
121.4029321994
 30
0.0
  0
SEQEND
  5
5D4
  8
0
  6
CONTINUOUS
 62
     7
  0
ARC
  5
173
  8
0
  6
CONTINUOUS
 62
     7
 10
73.8619881969
 20
121.2529764629
 30
0.0
 40
0.1678020417971176
 50
216.6493318425
 51
260.9112880217
  0
ARC
  5
174
  8
0
  6
CONTINUOUS
 62
     7
 10
73.8974900634
 20
125.8426888592
 30
0.0
 40
0.135999335757566
 50
116.7423778284
 51
171.4621035734
  0
ARC
  5
175
  8
0
  6
CONTINUOUS
 62
     7
 10
73.7743345993
 20
125.8750394478
 30
0.0
 40
0.0170114442214323
 50
234.1740659112
 51
246.1113102207
  0
ARC
  5
176
  8
0
  6
CONTINUOUS
 62
     7
 10
73.7664782059
 20
125.8644202459
 30
0.0
 40
0.0038059930413319
 50
203.874958445
 51
236.4971596924
  0
POLYLINE
  5
177
  8
0
  6
CONTINUOUS
 62
     7
 66
     1
 10
0.0
 20
0.0
 30
0.0
 70
   128
  0
VERTEX
  5
4B1
  8
0
  6
CONTINUOUS
 62
     7
 10
73.7190386488
 20
126.0055475861
 30
0.0
  0
VERTEX
  5
4B2
  8
0
  6
CONTINUOUS
 62
     7
 10
73.7540248895
 20
125.9523914426
 30
0.0
  0
VERTEX
  5
4B3
  8
0
  6
CONTINUOUS
 62
     7
 10
73.7629978881
 20
125.8628798008
 30
0.0
  0
SEQEND
  5
5D5
  8
0
  6
CONTINUOUS
 62
     7
  0
POLYLINE
  5
178
  8
0
  6
CONTINUOUS
 62
     7
 66
     1
 10
0.0
 20
0.0
 30
0.0
 70
   128
  0
VERTEX
  5
4B4
  8
0
  6
CONTINUOUS
 62
     7
 10
73.7742008007
 20
126.1147545834
 30
0.0
  0
VERTEX
  5
4B5
  8
0
  6
CONTINUOUS
 62
     7
 10
73.7380420284
 20
126.0641845161
 30
0.0
  0
VERTEX
  5
4B6
  8
0
  6
CONTINUOUS
 62
     7
 10
73.7190397804
 20
126.0055475363
 30
0.0
  0
SEQEND
  5
5D6
  8
0
  6
CONTINUOUS
 62
     7
  0
ARC
  5
179
  8
0
  6
CONTINUOUS
 62
     7
 10
73.6297738853
 20
124.2710281676
 30
0.0
 40
0.0083152263830078
 50
212.9894090731
 51
252.3091799393
  0
LINE
  5
17A
  8
0
  6
CONTINUOUS
 62
     7
 10
73.7629978881
 20
125.8628798008
 30
0.0
 11
73.6227993127
 21
124.2665006598
 31
0.0
  0
POLYLINE
  5
17B
  8
0
  6
CONTINUOUS
 62
     7
 66
     1
 10
0.0
 20
0.0
 30
0.0
 70
   128
  0
VERTEX
  5
4B7
  8
0
  6
CONTINUOUS
 62
     7
 10
73.6227993127
 20
124.2665006598
 30
0.0
  0
VERTEX
  5
4B8
  8
0
  6
CONTINUOUS
 62
     7
 10
73.6196864431
 20
124.2380974983
 30
0.0
  0
VERTEX
  5
4B9
  8
0
  6
CONTINUOUS
 62
     7
 10
73.6170102462
 20
124.2107343117
 30
0.0
  0
SEQEND
  5
5D7
  8
0
  6
CONTINUOUS
 62
     7
  0
LINE
  5
17C
  8
0
  6
CONTINUOUS
 62
     7
 10
73.6170102462
 20
124.2107343117
 30
0.0
 11
73.5343549619
 21
123.2695751638
 31
0.0
  0
POLYLINE
  5
17D
  8
0
  6
CONTINUOUS
 62
     7
 66
     1
 10
0.0
 20
0.0
 30
0.0
 70
   128
  0
VERTEX
  5
4BA
  8
0
  6
CONTINUOUS
 62
     7
 10
73.5343549619
 20
123.2695751638
 30
0.0
  0
VERTEX
  5
4BB
  8
0
  6
CONTINUOUS
 62
     7
 10
73.532157928
 20
123.2414518877
 30
0.0
  0
VERTEX
  5
4BC
  8
0
  6
CONTINUOUS
 62
     7
 10
73.5300841611
 20
123.2107942553
 30
0.0
  0
SEQEND
  5
5D8
  8
0
  6
CONTINUOUS
 62
     7
  0
LINE
  5
17E
  8
0
  6
CONTINUOUS
 62
     7
 10
73.5300841611
 20
123.2107942553
 30
0.0
 11
73.3898855857
 21
121.6144151143
 31
0.0
  0
POLYLINE
  5
17F
  8
0
  6
CONTINUOUS
 62
     7
 66
     1
 10
0.0
 20
0.0
 30
0.0
 70
   128
  0
VERTEX
  5
4BD
  8
0
  6
CONTINUOUS
 62
     7
 10
73.3898855857
 20
121.6144151143
 30
0.0
  0
VERTEX
  5
4BE
  8
0
  6
CONTINUOUS
 62
     7
 10
73.3671890997
 20
121.5475437034
 30
0.0
  0
VERTEX
  5
4BF
  8
0
  6
CONTINUOUS
 62
     7
 10
73.3250550238
 20
121.5194122725
 30
0.0
  0
SEQEND
  5
5D9
  8
0
  6
CONTINUOUS
 62
     7
  0
LINE
  5
180
  8
0
  6
CONTINUOUS
 62
     7
 10
73.3250550238
 20
121.5194122725
 30
0.0
 11
73.3258000892
 21
121.5623546375
 31
0.0
  0
LINE
  5
181
  8
0
  6
CONTINUOUS
 62
     7
 10
73.3258000892
 20
121.5623546378
 30
0.0
 11
73.7123793862
 21
125.9641620316
 31
0.0
  0
LINE
  5
182
  8
0
  6
CONTINUOUS
 62
     7
 10
73.7123793862
 20
125.9641620316
 30
0.0
 11
73.7190386488
 21
126.0055475861
 31
0.0
  0
LINE
  5
183
  8
0
  6
CONTINUOUS
 62
     7
 10
73.6284977136
 20
124.2336707384
 30
0.0
 11
73.6227993127
 21
124.2665006598
 31
0.0
  0
ARC
  5
184
  8
0
  6
CONTINUOUS
 62
     7
 10
73.6267179419
 20
124.2199706945
 30
0.0
 40
0.0133996314939128
 50
223.5748227202
 51
252.5395413035
  0
POLYLINE
  5
185
  8
0
  6
CONTINUOUS
 62
     7
 66
     1
 10
0.0
 20
0.0
 30
0.0
 70
   128
  0
VERTEX
  5
4C0
  8
0
  6
CONTINUOUS
 62
     7
 10
73.7060788381
 20
126.0355347268
 30
0.0
  0
VERTEX
  5
4C1
  8
0
  6
CONTINUOUS
 62
     7
 10
73.7315441112
 20
126.0799330761
 30
0.0
  0
VERTEX
  5
4C2
  8
0
  6
CONTINUOUS
 62
     7
 10
73.7742008007
 20
126.1147545834
 30
0.0
  0
SEQEND
  5
5DA
  8
0
  6
CONTINUOUS
 62
     7
  0
LINE
  5
186
  8
0
  6
CONTINUOUS
 62
     7
 10
73.7099710991
 20
126.0208897255
 30
0.0
 11
73.7190397804
 21
126.0055475363
 31
0.0
  0
LINE
  5
187
  8
0
  6
CONTINUOUS
 62
     7
 10
73.7060788381
 20
126.0355347268
 30
0.0
 11
73.7099710991
 21
126.0208897255
 31
0.0
  0
ARC
  5
188
  8
0
  6
CONTINUOUS
 62
     7
 10
73.5440626576
 20
123.2788115467
 30
0.0
 40
0.0133996314937726
 50
223.5748227201
 51
252.5395413035
  0
ARC
  5
189
  8
0
  6
CONTINUOUS
 62
     7
 10
74.0966535461
 20
126.035781581
 30
0.0
 40
0.3854641615777626
 50
105.9298414285
 51
165.8779676221
  0
LINE
  5
18A
  8
0
  6
CONTINUOUS
 62
     7
 10
73.5300841611
 20
123.2107942553
 30
0.0
 11
73.5408124956
 21
123.2352379621
 31
0.0
  0
ARC
  5
18B
  8
0
  6
CONTINUOUS
 62
     7
 10
73.5370587333
 20
123.2153217625
 30
0.0
 40
0.0083152257297787
 50
212.9894080958
 51
252.309178863
  0
ARC
  5
18C
  8
0
  6
CONTINUOUS
 62
     7
 10
73.401222315
 20
121.6265747965
 30
0.0
 40
0.0170114834394606
 50
234.1740858177
 51
246.1113011671
  0
ARC
  5
18D
  8
0
  6
CONTINUOUS
 62
     7
 10
73.3933659035
 20
121.6159555594
 30
0.0
 40
0.0038059930387872
 50
203.8749584099
 51
236.4971596991
  0
LINE
  5
18E
  8
0
  6
CONTINUOUS
 62
     7
 10
73.7123793862
 20
125.9641620316
 30
0.0
 11
73.6946919083
 21
125.970694298
 31
0.0
  0
LINE
  5
18F
  8
0
  6
CONTINUOUS
 62
     7
 10
73.6946919082
 20
125.9706942973
 30
0.0
 11
73.7060787284
 21
126.0355344153
 31
0.0
  0
LINE
  5
190
  8
0
  6
CONTINUOUS
 62
     7
 10
73.6946919082
 20
125.9706942973
 30
0.0
 11
73.6504243795
 21
126.0039701153
 31
0.0
  0
ARC
  5
191
  8
0
  6
CONTINUOUS
 62
     7
 10
74.1779877991
 20
125.9574227509
 30
0.0
 40
0.5296130226696204
 50
129.8632378656
 51
174.9582043959
  0
POLYLINE
  5
192
  8
0
  6
CONTINUOUS
 62
     7
 66
     1
 10
0.0
 20
0.0
 30
0.0
 70
   128
  0
VERTEX
  5
4C3
  8
0
  6
CONTINUOUS
 62
     7
 10
74.0851121195
 20
126.4753625433
 30
0.0
  0
VERTEX
  5
4C4
  8
0
  6
CONTINUOUS
 62
     7
 10
73.9409506087
 20
126.4311769204
 30
0.0
  0
VERTEX
  5
4C5
  8
0
  6
CONTINUOUS
 62
     7
 10
73.8385284815
 20
126.3639412935
 30
0.0
  0
SEQEND
  5
5DB
  8
0
  6
CONTINUOUS
 62
     7
  0
ARC
  5
193
  8
0
  6
CONTINUOUS
 62
     7
 10
73.5441667618
 20
121.6070106856
 30
0.0
 40
0.1544587545188053
 50
177.2523074475
 51
229.2585463893
  0
LINE
  5
194
  8
0
  6
CONTINUOUS
 62
     7
 10
73.3081126113
 20
121.5688869042
 30
0.0
 11
73.3258000892
 21
121.5623546378
 31
0.0
  0
LINE
  5
195
  8
0
  6
CONTINUOUS
 62
     7
 10
73.308112609
 20
121.5688868775
 30
0.0
 11
73.6946919082
 21
125.9706942977
 31
0.0
  0
ARC
  5
196
  8
0
  6
CONTINUOUS
 62
     7
 10
73.8443243175
 20
121.2208607921
 30
0.0
 40
0.1353188523414437
 50
210.1901783908
 51
266.0880747442
  0
ARC
  5
197
  8
0
  6
CONTINUOUS
 62
     7
 10
73.8190282323
 20
121.0893030814
 30
0.0
 40
0.0165771281192965
 50
347.511837639
 51
352.9942438824
  0
ARC
  5
198
  8
0
  6
CONTINUOUS
 62
     7
 10
73.8355891449
 20
121.0857969994
 30
0.0
 40
0.0005003149117219
 50
173.0869272695
 51
207.0781955426
  0
LINE
  5
199
  8
0
  6
CONTINUOUS
 62
     7
 10
73.2767081373
 20
121.7486283142
 30
0.0
 11
73.2638450447
 21
121.6021626939
 31
0.0
  0
LINE
  5
19A
  8
0
  6
CONTINUOUS
 62
     7
 10
73.3014971433
 20
122.0308890942
 30
0.0
 11
73.2767081373
 21
121.7486283142
 31
0.0
  0
LINE
  5
19B
  8
0
  6
CONTINUOUS
 62
     7
 10
73.6504243795
 20
126.0039701153
 30
0.0
 11
73.3014970624
 21
122.030889155
 31
0.0
  0
LINE
  5
19C
  8
0
  6
CONTINUOUS
 62
     7
 10
73.2638450447
 20
121.6021626939
 30
0.0
 11
73.3081126066
 21
121.5688868509
 31
0.0
  0
POLYLINE
  5
19D
  8
0
  6
CONTINUOUS
 62
     7
 66
     1
 10
0.0
 20
0.0
 30
0.0
 70
   128
  0
VERTEX
  5
4C6
  8
0
  6
CONTINUOUS
 62
     7
 10
73.3250512191
 20
121.51941244
 30
0.0
  0
VERTEX
  5
4C7
  8
0
  6
CONTINUOUS
 62
     7
 10
73.3334967884
 20
121.4578143873
 30
0.0
  0
VERTEX
  5
4C8
  8
0
  6
CONTINUOUS
 62
     7
 10
73.3603952208
 20
121.4029322
 30
0.0
  0
SEQEND
  5
5DC
  8
0
  6
CONTINUOUS
 62
     7
  0
LINE
  5
19E
  8
0
  6
CONTINUOUS
 62
     7
 10
73.7551947037
 20
121.0868430112
 30
0.0
 11
73.8350924673
 21
121.085857219
 31
0.0
  0
POLYLINE
  5
19F
  8
0
  6
CONTINUOUS
 62
     7
 66
     1
 10
0.0
 20
0.0
 30
0.0
 70
   128
  0
VERTEX
  5
4C9
  8
0
  6
CONTINUOUS
 62
     7
 10
73.6017292718
 20
121.1164162466
 30
0.0
  0
VERTEX
  5
4CA
  8
0
  6
CONTINUOUS
 62
     7
 10
73.6519021024
 20
121.0798048542
 30
0.0
  0
VERTEX
  5
4CB
  8
0
  6
CONTINUOUS
 62
     7
 10
73.7110518942
 20
121.0611613543
 30
0.0
  0
SEQEND
  5
5DD
  8
0
  6
CONTINUOUS
 62
     7
  0
LINE
  5
1A0
  8
0
  6
CONTINUOUS
 62
     7
 10
73.7531105917
 20
121.0550436567
 30
0.0
 11
73.7110517951
 21
121.061160178
 31
0.0
  0
POLYLINE
  5
1A1
  8
0
  6
CONTINUOUS
 62
     7
 66
     1
 10
0.0
 20
0.0
 30
0.0
 70
   128
  0
VERTEX
  5
4CC
  8
0
  6
CONTINUOUS
 62
     7
 10
73.3603952208
 20
121.4029322
 30
0.0
  0
VERTEX
  5
4CD
  8
0
  6
CONTINUOUS
 62
     7
 10
73.3248020383
 20
121.4485599624
 30
0.0
  0
VERTEX
  5
4CE
  8
0
  6
CONTINUOUS
 62
     7
 10
73.3079074311
 20
121.501707552
 30
0.0
  0
SEQEND
  5
5DE
  8
0
  6
CONTINUOUS
 62
     7
  0
LINE
  5
1A2
  8
0
  6
CONTINUOUS
 62
     7
 10
73.3138576217
 20
121.510524391
 30
0.0
 11
73.3079074311
 21
121.501707552
 31
0.0
  0
LINE
  5
1A3
  8
0
  6
CONTINUOUS
 62
     7
 10
73.3250512191
 20
121.51941244
 30
0.0
 11
73.3138576217
 21
121.510524391
 31
0.0
  0
POLYLINE
  5
1A4
  8
0
  6
CONTINUOUS
 62
     7
 66
     1
 10
0.0
 20
0.0
 30
0.0
 70
   128
  0
VERTEX
  5
4CF
  8
0
  6
CONTINUOUS
 62
     7
 10
73.6857872737
 20
121.0530657161
 30
0.0
  0
VERTEX
  5
4D0
  8
0
  6
CONTINUOUS
 62
     7
 10
73.6386827309
 20
121.0759096941
 30
0.0
  0
VERTEX
  5
4D1
  8
0
  6
CONTINUOUS
 62
     7
 10
73.6017292718
 20
121.1164162466
 30
0.0
  0
SEQEND
  5
5DF
  8
0
  6
CONTINUOUS
 62
     7
  0
LINE
  5
1A5
  8
0
  6
CONTINUOUS
 62
     7
 10
73.6979992802
 20
121.0544658255
 30
0.0
 11
73.7110518942
 21
121.0611613543
 31
0.0
  0
ARC
  5
1A6
  8
0
  6
CONTINUOUS
 62
     7
 10
73.6885586858
 20
121.0828506751
 30
0.0
 40
0.0299136174970199
 50
264.6840844528
 51
288.396749698
  0
LINE
  5
1A7
  8
0
  6
CONTINUOUS
 62
     7
 10
73.307902189
 20
121.5017075746
 30
0.0
 11
73.3081126113
 21
121.5688869042
 31
0.0
  0
ARC
  5
1A8
  8
0
  6
CONTINUOUS
 62
     7
 10
73.7546511122
 20
121.5003256558
 30
0.0
 40
0.4525302487637612
 50
190.0658254059
 51
261.2470034981
  0
LINE
  5
1A9
  8
0
  6
CONTINUOUS
 62
     7
 10
73.7531105917
 20
121.0550436567
 30
0.0
 11
73.7515631379
 21
121.0424141861
 31
0.0
  0
LINE
  5
1AA
  8
0
  6
CONTINUOUS
 62
     7
 10
73.7515631378
 20
121.0424141861
 30
0.0
 11
73.6857876125
 21
121.0530656987
 31
0.0
  0
LINE
  5
1AB
  8
0
  6
CONTINUOUS
 62
     7
 10
73.7476972522
 20
121.027732173
 30
0.0
 11
73.7515701521
 21
121.0424135748
 31
0.0
  0
ARC
  5
1AC
  8
0
  6
CONTINUOUS
 62
     7
 10
73.793741829
 20
121.5586248997
 30
0.0
 40
0.5328857868665284
 50
220.1364312079
 51
265.0427749072
  0
ARC
  5
1AD
  8
0
  6
CONTINUOUS
 62
     7
 10
73.7907297188
 20
121.5560165773
 30
0.0
 40
0.5289016456883525
 50
174.9946368756
 51
220.1307485535
  0
LINE
  5
1AE
  8
0
  6
CONTINUOUS
 62
     7
 10
73.8527839451
 20
121.0185732642
 30
0.0
 11
73.7476972362
 21
121.0277319936
 31
0.0
  0
LINE
  5
1AF
  8
0
  6
CONTINUOUS
 62
     7
 10
74.7420927055
 20
114.6881543246
 30
0.0
 11
74.7170436107
 21
114.7107086309
 31
0.0
  0
LINE
  5
1B0
  8
0
  6
CONTINUOUS
 62
     7
 10
74.8385772489
 20
114.8456854105
 30
0.0
 11
74.7170436107
 21
114.7107086308
 31
0.0
  0
ARC
  5
1B1
  8
0
  6
CONTINUOUS
 62
     7
 10
74.8691423305
 20
114.8562749052
 30
0.0
 40
0.0323475132196973
 50
199.1090153398
 51
261.9783272969
  0
LINE
  5
1B2
  8
0
  6
CONTINUOUS
 62
     7
 10
74.7420927055
 20
114.6881543246
 30
0.0
 11
74.8646283104
 21
114.824243901
 31
0.0
  0
ARC
  5
1B3
  8
0
  6
CONTINUOUS
 62
     7
 10
76.4646389682
 20
115.524588292
 30
0.0
 40
1.700000000000019
 50
159.3640440434
 51
206.6359559566
  0
ARC
  5
1B4
  8
0
  6
CONTINUOUS
 62
     7
 10
74.8524517241
 20
114.7251637691
 30
0.0
 40
0.0998255567822169
 50
21.9288269964
 51
82.993690311
  0
ARC
  5
1B5
  8
0
  6
CONTINUOUS
 62
     7
 10
76.4646389682
 20
115.524588292
 30
0.0
 40
1.762097000000011
 50
163.338800161
 51
202.661199839
  0
ARC
  5
1B6
  8
0
  6
CONTINUOUS
 62
     7
 10
74.8070402339
 20
116.0234348391
 30
0.0
 40
0.0311770877881551
 50
102.6974681874
 51
168.2151890537
  0
ARC
  5
1B7
  8
0
  6
CONTINUOUS
 62
     7
 10
74.7778417803
 20
116.1509867542
 30
0.0
 40
0.0996743682222931
 50
282.9550374196
 51
344.1224453065
  0
ARC
  5
1B8
  8
0
  6
CONTINUOUS
 62
     7
 10
76.4646389682
 20
115.524588292
 30
0.0
 40
1.700000000000004
 50
249.3640440434
 51
296.6359559566
  0
ARC
  5
1B9
  8
0
  6
CONTINUOUS
 62
     7
 10
77.2640634911
 20
113.9124010479
 30
0.0
 40
0.0998255567822497
 50
111.9288269964
 51
172.993690311
  0
ARC
  5
1BA
  8
0
  6
CONTINUOUS
 62
     7
 10
77.132952355
 20
113.9290916544
 30
0.0
 40
0.0323475132228013
 50
289.1090153425
 51
351.9783272935
  0
ARC
  5
1BB
  8
0
  6
CONTINUOUS
 62
     7
 10
76.4646389682
 20
115.524588292
 30
0.0
 40
1.762097000000005
 50
253.338800161
 51
292.661199839
  0
ARC
  5
1BC
  8
0
  6
CONTINUOUS
 62
     7
 10
75.9657924211
 20
113.8669895577
 30
0.0
 40
0.0311770877872092
 50
192.6974681872
 51
258.215189057
  0
ARC
  5
1BD
  8
0
  6
CONTINUOUS
 62
     7
 10
75.838240506
 20
113.8377911042
 30
0.0
 40
0.0996743682249692
 50
12.9550374201
 51
74.1224453055
  0
LINE
  5
1BE
  8
0
  6
CONTINUOUS
 62
     7
 10
77.2785186294
 20
113.7769929345
 30
0.0
 11
77.3010729356
 21
113.8020420293
 31
0.0
  0
LINE
  5
1BF
  8
0
  6
CONTINUOUS
 62
     7
 10
77.1435418498
 20
113.8985265728
 30
0.0
 11
77.2785186294
 21
113.7769929345
 31
0.0
  0
LINE
  5
1C0
  8
0
  6
CONTINUOUS
 62
     7
 10
77.3010729356
 20
113.8020420293
 30
0.0
 11
77.1649833592
 21
113.9245776343
 31
0.0
  0
ARC
  5
1C1
  8
0
  6
CONTINUOUS
 62
     7
 10
76.4646389682
 20
115.524588292
 30
0.0
 40
1.7
 50
339.3640440434
 51
26.6359559566
  0
ARC
  5
1C2
  8
0
  6
CONTINUOUS
 62
     7
 10
78.0768262123
 20
116.324012815
 30
0.0
 40
0.0998255567800427
 50
201.9288269958
 51
262.9936903117
  0
ARC
  5
1C3
  8
0
  6
CONTINUOUS
 62
     7
 10
78.0601356059
 20
116.1929016788
 30
0.0
 40
0.032347513223037
 50
19.1090153434
 51
81.9783272932
  0
ARC
  5
1C4
  8
0
  6
CONTINUOUS
 62
     7
 10
76.4646389682
 20
115.524588292
 30
0.0
 40
1.762097000000001
 50
343.338800161
 51
22.661199839
  0
ARC
  5
1C5
  8
0
  6
CONTINUOUS
 62
     7
 10
78.1222377025
 20
115.025741745
 30
0.0
 40
0.0311770877872818
 50
282.6974681864
 51
348.2151890547
  0
ARC
  5
1C6
  8
0
  6
CONTINUOUS
 62
     7
 10
78.1514361561
 20
114.8981898298
 30
0.0
 40
0.0996743682255316
 50
102.9550374207
 51
164.1224453054
  0
LINE
  5
1C7
  8
0
  6
CONTINUOUS
 62
     7
 10
78.1871852309
 20
116.3610222595
 30
0.0
 11
78.2122343257
 21
116.3384679532
 31
0.0
  0
LINE
  5
1C8
  8
0
  6
CONTINUOUS
 62
     7
 10
78.0907006874
 20
116.2034911736
 30
0.0
 11
78.2122343257
 21
116.3384679532
 31
0.0
  0
LINE
  5
1C9
  8
0
  6
CONTINUOUS
 62
     7
 10
78.1871852309
 20
116.3610222595
 30
0.0
 11
78.064649626
 21
116.2249326831
 31
0.0
  0
ARC
  5
1CA
  8
0
  6
CONTINUOUS
 62
     7
 10
76.4646389682
 20
115.524588292
 30
0.0
 40
1.700000000000013
 50
69.3640440434
 51
116.6359559566
  0
ARC
  5
1CB
  8
0
  6
CONTINUOUS
 62
     7
 10
75.6652144757
 20
117.1367755127
 30
0.0
 40
0.0998255237086512
 50
291.9288158002
 51
352.9937015073
  0
ARC
  5
1CC
  8
0
  6
CONTINUOUS
 62
     7
 10
75.7963255993
 20
117.120084915
 30
0.0
 40
0.0323475329665115
 50
109.1090367187
 51
171.9783059179
  0
ARC
  5
1CD
  8
0
  6
CONTINUOUS
 62
     7
 10
76.4646389682
 20
115.524588292
 30
0.0
 40
1.762097000000011
 50
73.338800161
 51
112.661199839
  0
ARC
  5
1CE
  8
0
  6
CONTINUOUS
 62
     7
 10
76.9634855153
 20
117.1821870264
 30
0.0
 40
0.0311770877884461
 50
12.6974681878
 51
78.2151890534
  0
ARC
  5
1CF
  8
0
  6
CONTINUOUS
 62
     7
 10
77.0910374304
 20
117.2113854799
 30
0.0
 40
0.0996743682236029
 50
192.95503742
 51
254.1224453063
  0
LINE
  5
1D0
  8
0
  6
CONTINUOUS
 62
     7
 10
75.6282050008
 20
117.2471345547
 30
0.0
 11
75.650759307
 21
117.2721836495
 31
0.0
  0
LINE
  5
1D1
  8
0
  6
CONTINUOUS
 62
     7
 10
75.7857360866
 20
117.1506500113
 30
0.0
 11
75.650759307
 21
117.2721836495
 31
0.0
  0
LINE
  5
1D2
  8
0
  6
CONTINUOUS
 62
     7
 10
75.6282050008
 20
117.2471345547
 30
0.0
 11
75.7642945771
 21
117.1245989498
 31
0.0
  0
ARC
  5
1D3
  8
0
  6
CONTINUOUS
 62
     7
 10
78.0978472987
 20
116.4424603374
 30
0.0
 40
0.1545923928048934
 50
317.7251652653
 51
48.2748347347
  0
LINE
  5
1D4
  8
0
  6
CONTINUOUS
 62
     7
 10
78.2007375375
 20
116.5578397406
 30
0.0
 11
77.3107584417
 21
117.3591805178
 31
0.0
  0
ARC
  5
1D5
  8
0
  6
CONTINUOUS
 62
     7
 10
77.2067660575
 20
117.2447934908
 30
0.0
 40
0.1545923928043218
 50
47.7251652652
 51
138.2748347348
  0
LINE
  5
1D6
  8
0
  6
CONTINUOUS
 62
     7
 10
77.0913866543
 20
117.3476837296
 30
0.0
 11
76.969853016
 21
117.21270695
 31
0.0
  0
ARC
  5
1D7
  8
0
  6
CONTINUOUS
 62
     7
 10
75.5467669228
 20
117.1577966225
 30
0.0
 40
0.1545923928048819
 50
47.7251652653
 51
138.2748347347
  0
LINE
  5
1D8
  8
0
  6
CONTINUOUS
 62
     7
 10
75.4313875196
 20
117.2606868613
 30
0.0
 11
74.6300467424
 21
116.3707077655
 31
0.0
  0
ARC
  5
1D9
  8
0
  6
CONTINUOUS
 62
     7
 10
74.7444337694
 20
116.2667153813
 30
0.0
 40
0.1545923928043018
 50
137.7251652652
 51
228.2748347348
  0
LINE
  5
1DA
  8
0
  6
CONTINUOUS
 62
     7
 10
74.6415435306
 20
116.1513359781
 30
0.0
 11
74.7765203103
 21
116.0298023399
 31
0.0
  0
ARC
  5
1DB
  8
0
  6
CONTINUOUS
 62
     7
 10
74.8314306377
 20
114.6067162467
 30
0.0
 40
0.1545923928048924
 50
137.7251652653
 51
228.2748347347
  0
LINE
  5
1DC
  8
0
  6
CONTINUOUS
 62
     7
 10
74.7285403989
 20
114.4913368435
 30
0.0
 11
75.6185194947
 21
113.6899960663
 31
0.0
  0
ARC
  5
1DD
  8
0
  6
CONTINUOUS
 62
     7
 10
75.7225118789
 20
113.8043830933
 30
0.0
 40
0.1545923928043408
 50
227.7251652653
 51
318.2748347347
  0
LINE
  5
1DE
  8
0
  6
CONTINUOUS
 62
     7
 10
75.8378912821
 20
113.7014928545
 30
0.0
 11
75.9594249203
 21
113.8364696341
 31
0.0
  0
ARC
  5
1DF
  8
0
  6
CONTINUOUS
 62
     7
 10
77.3825110136
 20
113.8913799615
 30
0.0
 40
0.1545923928048924
 50
227.7251652653
 51
318.2748347347
  0
LINE
  5
1E0
  8
0
  6
CONTINUOUS
 62
     7
 10
77.4978904167
 20
113.7884897227
 30
0.0
 11
78.2992311939
 21
114.6784688186
 31
0.0
  0
ARC
  5
1E1
  8
0
  6
CONTINUOUS
 62
     7
 10
78.184844167
 20
114.7824612028
 30
0.0
 40
0.1545923928043294
 50
317.7251652652
 51
48.2748347347
  0
LINE
  5
1E2
  8
0
  6
CONTINUOUS
 62
     7
 10
78.2877344057
 20
114.8978406059
 30
0.0
 11
78.1527576261
 21
115.0193742442
 31
0.0
  0
ARC
  5
1E3
  8
0
  6
CONTINUOUS
 62
     7
 10
78.3413399995
 20
113.8348034073
 30
0.0
 40
0.0492496605178204
 50
273.205793109
 51
2.5647360819
  0
LINE
  5
1E4
  8
0
  6
CONTINUOUS
 62
     7
 10
78.3440941615
 20
113.7856308168
 30
0.0
 11
74.7772501797
 21
113.5987004447
 31
0.0
  0
ARC
  5
1E5
  8
0
  6
CONTINUOUS
 62
     7
 10
74.7748491321
 20
113.6478913427
 30
0.0
 40
0.0492494617246745
 50
183.4350352191
 51
272.79443559
  0
LINE
  5
1E6
  8
0
  6
CONTINUOUS
 62
     7
 10
74.7256881531
 20
113.6449404743
 30
0.0
 11
74.5387376097
 21
117.212169346
 31
0.0
  0
ARC
  5
1E7
  8
0
  6
CONTINUOUS
 62
     7
 10
74.5879379369
 20
117.2143731768
 30
0.0
 40
0.0492496605178212
 50
93.205793109
 51
182.5647360819
  0
LINE
  5
1E8
  8
0
  6
CONTINUOUS
 62
     7
 10
74.5851837749
 20
117.2635457672
 30
0.0
 11
78.1520277567
 21
117.4504761394
 31
0.0
  0
ARC
  5
1E9
  8
0
  6
CONTINUOUS
 62
     7
 10
78.1544288043
 20
117.4012852413
 30
0.0
 40
0.0492494617246452
 50
3.4350352191
 51
92.79443559
  0
LINE
  5
1EA
  8
0
  6
CONTINUOUS
 62
     7
 10
78.2035897833
 20
117.4042361098
 30
0.0
 11
78.3905403266
 21
113.8370072381
 31
0.0
  0
CIRCLE
  5
1EB
  8
0
  6
CONTINUOUS
 62
     7
 10
74.8165295315
 20
117.0085526943
 30
0.0
 40
0.1995975000001071
  0
LINE
  5
1EC
  8
0
  6
CONTINUOUS
 62
     7
 10
78.2741820992
 20
114.7010231248
 30
0.0
 11
77.4728413219
 21
113.811044029
 31
0.0
  0
LINE
  5
1ED
  8
0
  6
CONTINUOUS
 62
     7
 10
78.2741820992
 20
114.7010231248
 30
0.0
 11
78.2992311939
 21
114.6784688186
 31
0.0
  0
LINE
  5
1EE
  8
0
  6
CONTINUOUS
 62
     7
 10
77.4728413219
 20
113.811044029
 30
0.0
 11
77.4978904167
 21
113.7884897227
 31
0.0
  0
LINE
  5
1EF
  8
0
  6
CONTINUOUS
 62
     7
 10
74.6550958372
 20
116.3481534593
 30
0.0
 11
75.4564366144
 21
117.2381325551
 31
0.0
  0
LINE
  5
1F0
  8
0
  6
CONTINUOUS
 62
     7
 10
74.6550958372
 20
116.3481534593
 30
0.0
 11
74.6300467424
 21
116.3707077655
 31
0.0
  0
LINE
  5
1F1
  8
0
  6
CONTINUOUS
 62
     7
 10
75.4564366144
 20
117.2381325551
 30
0.0
 11
75.4313875196
 21
117.2606868613
 31
0.0
  0
LINE
  5
1F2
  8
0
  6
CONTINUOUS
 62
     7
 10
77.2882041354
 20
117.334131423
 30
0.0
 11
78.1781832312
 21
116.5327906458
 31
0.0
  0
LINE
  5
1F3
  8
0
  6
CONTINUOUS
 62
     7
 10
77.2882041354
 20
117.334131423
 30
0.0
 11
77.3107584417
 21
117.3591805178
 31
0.0
  0
LINE
  5
1F4
  8
0
  6
CONTINUOUS
 62
     7
 10
78.1781832312
 20
116.5327906458
 30
0.0
 11
78.2007375375
 21
116.5578397406
 31
0.0
  0
LINE
  5
1F5
  8
0
  6
CONTINUOUS
 62
     7
 10
78.2651800995
 20
114.8727915111
 30
0.0
 11
78.2877344057
 21
114.8978406059
 31
0.0
  0
LINE
  5
1F6
  8
0
  6
CONTINUOUS
 62
     7
 10
78.129090523
 20
114.995327116
 30
0.0
 11
78.2651800995
 21
114.8727915111
 31
0.0
  0
LINE
  5
1F7
  8
0
  6
CONTINUOUS
 62
     7
 10
74.6640978369
 20
116.1763850729
 30
0.0
 11
74.6415435306
 21
116.1513359781
 31
0.0
  0
LINE
  5
1F8
  8
0
  6
CONTINUOUS
 62
     7
 10
74.8001874134
 20
116.0538494681
 30
0.0
 11
74.6640978369
 21
116.1763850729
 31
0.0
  0
LINE
  5
1F9
  8
0
  6
CONTINUOUS
 62
     7
 10
77.1164357491
 20
117.3251294233
 30
0.0
 11
77.0913866543
 21
117.3476837296
 31
0.0
  0
LINE
  5
1FA
  8
0
  6
CONTINUOUS
 62
     7
 10
76.9939001442
 20
117.1890398468
 30
0.0
 11
77.1164357491
 21
117.3251294233
 31
0.0
  0
LINE
  5
1FB
  8
0
  6
CONTINUOUS
 62
     7
 10
75.641073801
 20
113.7150451611
 30
0.0
 11
74.7510947051
 21
114.5163859383
 31
0.0
  0
LINE
  5
1FC
  8
0
  6
CONTINUOUS
 62
     7
 10
75.641073801
 20
113.7150451611
 30
0.0
 11
75.6185194947
 21
113.6899960663
 31
0.0
  0
LINE
  5
1FD
  8
0
  6
CONTINUOUS
 62
     7
 10
74.7510947051
 20
114.5163859383
 30
0.0
 11
74.7285403989
 21
114.4913368435
 31
0.0
  0
LINE
  5
1FE
  8
0
  6
CONTINUOUS
 62
     7
 10
75.8128421873
 20
113.7240471607
 30
0.0
 11
75.8378912821
 21
113.7014928545
 31
0.0
  0
LINE
  5
1FF
  8
0
  6
CONTINUOUS
 62
     7
 10
75.9353777922
 20
113.8601367373
 30
0.0
 11
75.8128421873
 21
113.7240471607
 31
0.0
  0
LINE
  5
200
  8
0
  6
CONTINUOUS
 62
     7
 10
74.4878166699
 20
117.2091578764
 30
0.0
 11
74.6747313792
 21
113.6426127591
 31
0.0
  0
POLYLINE
  5
201
  8
0
  6
CONTINUOUS
 62
     7
 66
     1
 10
0.0
 20
0.0
 30
0.0
 70
   128
  0
VERTEX
  5
4D2
  8
0
  6
CONTINUOUS
 62
     7
 10
74.4878166699
 20
117.2091578764
 30
0.0
  0
VERTEX
  5
4D3
  8
0
  6
CONTINUOUS
 62
     7
 10
74.5120337106
 20
117.2105984458
 30
0.0
  0
VERTEX
  5
4D4
  8
0
  6
CONTINUOUS
 62
     7
 10
74.5387376097
 20
117.212169346
 30
0.0
  0
SEQEND
  5
5E0
  8
0
  6
CONTINUOUS
 62
     7
  0
POLYLINE
  5
202
  8
0
  6
CONTINUOUS
 62
     7
 66
     1
 10
0.0
 20
0.0
 30
0.0
 70
   128
  0
VERTEX
  5
4D5
  8
0
  6
CONTINUOUS
 62
     7
 10
74.6747313792
 20
113.6426127591
 30
0.0
  0
VERTEX
  5
4D6
  8
0
  6
CONTINUOUS
 62
     7
 10
74.6989663369
 20
113.6437114513
 30
0.0
  0
VERTEX
  5
4D7
  8
0
  6
CONTINUOUS
 62
     7
 10
74.7256881531
 20
113.6449404743
 30
0.0
  0
SEQEND
  5
5E1
  8
0
  6
CONTINUOUS
 62
     7
  0
LINE
  5
203
  8
0
  6
CONTINUOUS
 62
     7
 10
78.4414612664
 20
113.8400187077
 30
0.0
 11
78.2545465571
 21
117.4065638249
 31
0.0
  0
POLYLINE
  5
204
  8
0
  6
CONTINUOUS
 62
     7
 66
     1
 10
0.0
 20
0.0
 30
0.0
 70
   128
  0
VERTEX
  5
4D8
  8
0
  6
CONTINUOUS
 62
     7
 10
78.4414612664
 20
113.8400187077
 30
0.0
  0
VERTEX
  5
4D9
  8
0
  6
CONTINUOUS
 62
     7
 10
78.4172442258
 20
113.8385781382
 30
0.0
  0
VERTEX
  5
4DA
  8
0
  6
CONTINUOUS
 62
     7
 10
78.3905403266
 20
113.8370072381
 30
0.0
  0
SEQEND
  5
5E2
  8
0
  6
CONTINUOUS
 62
     7
  0
POLYLINE
  5
205
  8
0
  6
CONTINUOUS
 62
     7
 66
     1
 10
0.0
 20
0.0
 30
0.0
 70
   128
  0
VERTEX
  5
4DB
  8
0
  6
CONTINUOUS
 62
     7
 10
78.2545465571
 20
117.4065638249
 30
0.0
  0
VERTEX
  5
4DC
  8
0
  6
CONTINUOUS
 62
     7
 10
78.2303115995
 20
117.4054651327
 30
0.0
  0
VERTEX
  5
4DD
  8
0
  6
CONTINUOUS
 62
     7
 10
78.2035897833
 20
117.4042361098
 30
0.0
  0
SEQEND
  5
5E3
  8
0
  6
CONTINUOUS
 62
     7
  0
POLYLINE
  5
206
  8
0
  6
CONTINUOUS
 62
     7
 66
     1
 10
0.0
 20
0.0
 30
0.0
 70
   128
  0
VERTEX
  5
4DE
  8
0
  6
CONTINUOUS
 62
     7
 10
78.3440941615
 20
113.7856308168
 30
0.0
  0
VERTEX
  5
4DF
  8
0
  6
CONTINUOUS
 62
     7
 10
78.3453972476
 20
113.7589332463
 30
0.0
  0
VERTEX
  5
4E0
  8
0
  6
CONTINUOUS
 62
     7
 10
78.3465703231
 20
113.734716426
 30
0.0
  0
SEQEND
  5
5E4
  8
0
  6
CONTINUOUS
 62
     7
  0
LINE
  5
207
  8
0
  6
CONTINUOUS
 62
     7
 10
74.7801095857
 20
113.5478061389
 30
0.0
 11
78.3465703231
 21
113.734716426
 31
0.0
  0
POLYLINE
  5
208
  8
0
  6
CONTINUOUS
 62
     7
 66
     1
 10
0.0
 20
0.0
 30
0.0
 70
   128
  0
VERTEX
  5
4E1
  8
0
  6
CONTINUOUS
 62
     7
 10
74.7801095857
 20
113.5478061389
 30
0.0
  0
VERTEX
  5
4E2
  8
0
  6
CONTINUOUS
 62
     7
 10
74.778744888
 20
113.5720129167
 30
0.0
  0
VERTEX
  5
4E3
  8
0
  6
CONTINUOUS
 62
     7
 10
74.7772501797
 20
113.5987004447
 30
0.0
  0
SEQEND
  5
5E5
  8
0
  6
CONTINUOUS
 62
     7
  0
POLYLINE
  5
209
  8
0
  6
CONTINUOUS
 62
     7
 66
     1
 10
0.0
 20
0.0
 30
0.0
 70
   128
  0
VERTEX
  5
4E4
  8
0
  6
CONTINUOUS
 62
     7
 10
74.5827076133
 20
117.314460158
 30
0.0
  0
VERTEX
  5
4E5
  8
0
  6
CONTINUOUS
 62
     7
 10
74.5838806888
 20
117.2902433378
 30
0.0
  0
VERTEX
  5
4E6
  8
0
  6
CONTINUOUS
 62
     7
 10
74.5851837749
 20
117.2635457672
 30
0.0
  0
SEQEND
  5
5E6
  8
0
  6
CONTINUOUS
 62
     7
  0
LINE
  5
20A
  8
0
  6
CONTINUOUS
 62
     7
 10
78.1491683506
 20
117.5013704452
 30
0.0
 11
74.5827076133
 21
117.314460158
 31
0.0
  0
POLYLINE
  5
20B
  8
0
  6
CONTINUOUS
 62
     7
 66
     1
 10
0.0
 20
0.0
 30
0.0
 70
   128
  0
VERTEX
  5
4E7
  8
0
  6
CONTINUOUS
 62
     7
 10
78.1491683506
 20
117.5013704452
 30
0.0
  0
VERTEX
  5
4E8
  8
0
  6
CONTINUOUS
 62
     7
 10
78.1505330484
 20
117.4771636674
 30
0.0
  0
VERTEX
  5
4E9
  8
0
  6
CONTINUOUS
 62
     7
 10
78.1520277567
 20
117.4504761394
 30
0.0
  0
SEQEND
  5
5E7
  8
0
  6
CONTINUOUS
 62
     7
  0
ARC
  5
20C
  8
0
  6
CONTINUOUS
 62
     7
 10
75.7224569943
 20
113.8054303541
 30
0.0
 40
0.1216252739837998
 50
227.9999999997
 51
317.9999999997
  0
ARC
  5
20D
  8
0
  6
CONTINUOUS
 62
     7
 10
78.1837969062
 20
114.7824063181
 30
0.0
 40
0.1216252739837998
 50
317.9999999997
 51
47.9999999997
  0
ARC
  5
20E
  8
0
  6
CONTINUOUS
 62
     7
 10
74.7454810302
 20
116.2667702659
 30
0.0
 40
0.1216252739837893
 50
137.9999999997
 51
227.9999999997
  0
ARC
  5
20F
  8
0
  6
CONTINUOUS
 62
     7
 10
77.2068209421
 20
117.24374623
 30
0.0
 40
0.1216252739837893
 50
47.9999999997
 51
137.9999999997
  0
ARC
  5
210
  8
0
  6
CONTINUOUS
 62
     7
 10
74.8324778985
 20
114.6067711313
 30
0.0
 40
0.1216252739836591
 50
138.0000000002
 51
228.0000000003
  0
ARC
  5
211
  8
0
  6
CONTINUOUS
 62
     7
 10
75.5468218074
 20
117.1567493617
 30
0.0
 40
0.1216252739836686
 50
48.0000000002
 51
138.0000000003
  0
ARC
  5
212
  8
0
  6
CONTINUOUS
 62
     7
 10
77.3824561289
 20
113.8924272223
 30
0.0
 40
0.1216252739836591
 50
228.0000000002
 51
318.0000000003
  0
ARC
  5
213
  8
0
  6
CONTINUOUS
 62
     7
 10
78.0968000379
 20
116.4424054528
 30
0.0
 40
0.1216252739836686
 50
318.0000000002
 51
48.0000000003
  0
ARC
  5
214
  8
0
  6
CONTINUOUS
 62
     7
 10
74.7970246208
 20
113.672575162
 30
0.0
 40
0.1259102578910859
 50
193.7665439802
 51
262.2794239379
  0
ARC
  5
215
  8
0
  6
CONTINUOUS
 62
     7
 10
78.1322533156
 20
117.376601422
 30
0.0
 40
0.1259102578910409
 50
13.7665439802
 51
82.2794239379
  0
ARC
  5
216
  8
0
  6
CONTINUOUS
 62
     7
 10
78.3167060388
 20
113.8570338463
 30
0.0
 40
0.1259102548935201
 50
283.7205751331
 51
352.2334569488
  0
ARC
  5
217
  8
0
  6
CONTINUOUS
 62
     7
 10
74.6125718976
 20
117.1921427377
 30
0.0
 40
0.1259102548934437
 50
103.7205751331
 51
172.2334569488
  0
CIRCLE
  5
218
  8
0
  6
CONTINUOUS
 62
     7
 10
74.8165295315
 20
117.0085526943
 30
0.0
 40
0.0459472728601232
  0
LINE
  5
219
  8
0
  6
CONTINUOUS
 62
     7
 10
75.702494754
 20
117.0441725104
 30
0.0
 11
75.560542082
 21
117.1719872704
 31
0.0
  0
LINE
  5
21A
  8
0
  6
CONTINUOUS
 62
     7
 10
75.6282050008
 20
117.2471345547
 30
0.0
 11
75.560542082
 21
117.1719872704
 31
0.0
  0
LINE
  5
21B
  8
0
  6
CONTINUOUS
 62
     7
 10
77.9842231866
 20
116.2867325062
 30
0.0
 11
78.1120379466
 21
116.4286851782
 31
0.0
  0
LINE
  5
21C
  8
0
  6
CONTINUOUS
 62
     7
 10
78.1871852309
 20
116.3610222595
 30
0.0
 11
78.1120379466
 21
116.4286851782
 31
0.0
  0
LINE
  5
21D
  8
0
  6
CONTINUOUS
 62
     7
 10
77.2267831823
 20
114.0050040736
 30
0.0
 11
77.3687358543
 21
113.8771893136
 31
0.0
  0
LINE
  5
21E
  8
0
  6
CONTINUOUS
 62
     7
 10
77.3687358543
 20
113.8771893136
 30
0.0
 11
77.3010729356
 21
113.8020420293
 31
0.0
  0
LINE
  5
21F
  8
0
  6
CONTINUOUS
 62
     7
 10
74.9450547498
 20
114.7624440779
 30
0.0
 11
74.8172399898
 21
114.6204914059
 31
0.0
  0
LINE
  5
220
  8
0
  6
CONTINUOUS
 62
     7
 10
74.7420927055
 20
114.6881543246
 30
0.0
 11
74.8172399898
 21
114.6204914059
 31
0.0
  0
LINE
  5
221
  8
0
  6
CONTINUOUS
 62
     7
 10
75.8128421873
 20
113.7240471607
 30
0.0
 11
75.737694903
 21
113.7917100795
 31
0.0
  0
LINE
  5
222
  8
0
  6
CONTINUOUS
 62
     7
 10
78.2651800995
 20
114.8727915111
 30
0.0
 11
78.1975171808
 21
114.7976442268
 31
0.0
  0
LINE
  5
223
  8
0
  6
CONTINUOUS
 62
     7
 10
78.1975171808
 20
114.7976442268
 30
0.0
 11
78.0555645087
 21
114.9254589868
 31
0.0
  0
LINE
  5
224
  8
0
  6
CONTINUOUS
 62
     7
 10
77.1164357491
 20
117.3251294233
 30
0.0
 11
77.1915830334
 21
117.2574665046
 31
0.0
  0
LINE
  5
225
  8
0
  6
CONTINUOUS
 62
     7
 10
74.6640978369
 20
116.1763850729
 30
0.0
 11
74.7317607556
 21
116.2515323573
 31
0.0
  0
LINE
  5
226
  8
0
  6
CONTINUOUS
 62
     7
 10
74.7317607556
 20
116.2515323573
 30
0.0
 11
74.8737134276
 21
116.1237175973
 31
0.0
  0
LINE
  5
227
  8
0
  6
CONTINUOUS
 62
     7
 10
74.3482191859
 20
117.2700451024
 30
0.0
 11
74.3487323324
 21
117.3051656283
 31
0.0
  0
POLYLINE
  5
228
  8
0
  6
CONTINUOUS
 62
     7
 66
     1
 10
0.0
 20
0.0
 30
0.0
 70
   128
  0
VERTEX
  5
4EA
  8
0
  6
CONTINUOUS
 62
     7
 10
74.3487323324
 20
117.3051656283
 30
0.0
  0
VERTEX
  5
4EB
  8
0
  6
CONTINUOUS
 62
     7
 10
74.3620344207
 20
117.3525953687
 30
0.0
  0
VERTEX
  5
4EC
  8
0
  6
CONTINUOUS
 62
     7
 10
74.3888759955
 20
117.3936136677
 30
0.0
  0
SEQEND
  5
5E8
  8
0
  6
CONTINUOUS
 62
     7
  0
ARC
  5
229
  8
0
  6
CONTINUOUS
 62
     7
 10
74.5091003228
 20
117.28485084
 30
0.0
 40
0.1621210706651644
 50
90.5592777853
 51
137.8654357203
  0
LINE
  5
22A
  8
0
  6
CONTINUOUS
 62
     7
 10
74.5075178454
 20
117.4469641872
 30
0.0
 11
74.5827076112
 21
117.3144601968
 31
0.0
  0
LINE
  5
22B
  8
0
  6
CONTINUOUS
 62
     7
 10
74.4878165911
 20
117.2091578718
 30
0.0
 11
74.348219186
 21
117.270045102
 31
0.0
  0
LINE
  5
22C
  8
0
  6
CONTINUOUS
 62
     7
 10
78.5810587504
 20
113.7791314816
 30
0.0
 11
78.580545604
 21
113.7440109558
 31
0.0
  0
POLYLINE
  5
22D
  8
0
  6
CONTINUOUS
 62
     7
 66
     1
 10
0.0
 20
0.0
 30
0.0
 70
   128
  0
VERTEX
  5
4ED
  8
0
  6
CONTINUOUS
 62
     7
 10
78.580545604
 20
113.7440109558
 30
0.0
  0
VERTEX
  5
4EE
  8
0
  6
CONTINUOUS
 62
     7
 10
78.5672435157
 20
113.6965812154
 30
0.0
  0
VERTEX
  5
4EF
  8
0
  6
CONTINUOUS
 62
     7
 10
78.5404019409
 20
113.6555629164
 30
0.0
  0
SEQEND
  5
5E9
  8
0
  6
CONTINUOUS
 62
     7
  0
ARC
  5
22E
  8
0
  6
CONTINUOUS
 62
     7
 10
78.4201776136
 20
113.764325744
 30
0.0
 40
0.1621210706648401
 50
270.5592777852
 51
317.8654357203
  0
LINE
  5
22F
  8
0
  6
CONTINUOUS
 62
     7
 10
78.4217600909
 20
113.6022123969
 30
0.0
 11
78.3465703209
 21
113.734716464
 31
0.0
  0
LINE
  5
230
  8
0
  6
CONTINUOUS
 62
     7
 10
78.4414613453
 20
113.8400187122
 30
0.0
 11
78.5810587504
 21
113.7791314821
 31
0.0
  0
LINE
  5
231
  8
0
  6
CONTINUOUS
 62
     7
 10
74.542263073
 20
113.5674671693
 30
0.0
 11
74.6747313005
 21
113.642612755
 31
0.0
  0
LINE
  5
232
  8
0
  6
CONTINUOUS
 62
     7
 10
74.7191821578
 20
113.4081685098
 30
0.0
 11
74.7801095839
 21
113.5478061769
 31
0.0
  0
LINE
  5
233
  8
0
  6
CONTINUOUS
 62
     7
 10
74.6840616319
 20
113.4086816562
 30
0.0
 11
74.7191821578
 21
113.4081685098
 31
0.0
  0
POLYLINE
  5
234
  8
0
  6
CONTINUOUS
 62
     7
 66
     1
 10
0.0
 20
0.0
 30
0.0
 70
   128
  0
VERTEX
  5
4F0
  8
0
  6
CONTINUOUS
 62
     7
 10
74.5956135925
 20
113.4488253193
 30
0.0
  0
VERTEX
  5
4F1
  8
0
  6
CONTINUOUS
 62
     7
 10
74.6366318915
 20
113.4219837445
 30
0.0
  0
VERTEX
  5
4F2
  8
0
  6
CONTINUOUS
 62
     7
 10
74.6840616319
 20
113.4086816562
 30
0.0
  0
SEQEND
  5
5EA
  8
0
  6
CONTINUOUS
 62
     7
  0
ARC
  5
235
  8
0
  6
CONTINUOUS
 62
     7
 10
74.7043751801
 20
113.569049089
 30
0.0
 40
0.1621198252377253
 50
180.5590848569
 51
227.8656285066
  0
LINE
  5
236
  8
0
  6
CONTINUOUS
 62
     7
 10
78.2545466359
 20
117.4065638291
 30
0.0
 11
78.3870148633
 21
117.4817094148
 31
0.0
  0
LINE
  5
237
  8
0
  6
CONTINUOUS
 62
     7
 10
78.2100957786
 20
117.6410080743
 30
0.0
 11
78.1491683524
 21
117.5013704072
 31
0.0
  0
LINE
  5
238
  8
0
  6
CONTINUOUS
 62
     7
 10
78.2452163045
 20
117.6404949278
 30
0.0
 11
78.2100957786
 21
117.6410080743
 31
0.0
  0
POLYLINE
  5
239
  8
0
  6
CONTINUOUS
 62
     7
 66
     1
 10
0.0
 20
0.0
 30
0.0
 70
   128
  0
VERTEX
  5
4F3
  8
0
  6
CONTINUOUS
 62
     7
 10
78.3336643438
 20
117.6003512647
 30
0.0
  0
VERTEX
  5
4F4
  8
0
  6
CONTINUOUS
 62
     7
 10
78.2926460448
 20
117.6271928396
 30
0.0
  0
VERTEX
  5
4F5
  8
0
  6
CONTINUOUS
 62
     7
 10
78.2452163045
 20
117.6404949278
 30
0.0
  0
SEQEND
  5
5EB
  8
0
  6
CONTINUOUS
 62
     7
  0
ARC
  5
23A
  8
0
  6
CONTINUOUS
 62
     7
 10
78.2249027562
 20
117.4801274951
 30
0.0
 40
0.162119825227952
 50
0.5590850006
 51
47.8656285076
  0
LINE
  5
23B
  8
0
  6
CONTINUOUS
 62
     7
 10
78.2100957786
 20
117.6410080743
 30
0.0
 11
78.1421014953
 21
117.6374446449
 31
0.0
  0
LINE
  5
23C
  8
0
  6
CONTINUOUS
 62
     7
 10
78.1421014953
 20
117.6374446449
 30
0.0
 11
74.5075178454
 21
117.4469641872
 31
0.0
  0
LINE
  5
23D
  8
0
  6
CONTINUOUS
 62
     7
 10
74.7871764411
 20
113.4117319392
 30
0.0
 11
78.4217600909
 21
113.6022123969
 31
0.0
  0
LINE
  5
23E
  8
0
  6
CONTINUOUS
 62
     7
 10
74.7191821578
 20
113.4081685098
 30
0.0
 11
74.7871764411
 21
113.4117319392
 31
0.0
  0
LINE
  5
23F
  8
0
  6
CONTINUOUS
 62
     7
 10
74.3517826153
 20
117.2020508191
 30
0.0
 11
74.542263073
 21
113.5674671693
 31
0.0
  0
LINE
  5
240
  8
0
  6
CONTINUOUS
 62
     7
 10
74.3482191859
 20
117.2700451024
 30
0.0
 11
74.3517826153
 21
117.2020508191
 31
0.0
  0
LINE
  5
241
  8
0
  6
CONTINUOUS
 62
     7
 10
78.3870148633
 20
117.4817094148
 30
0.0
 11
78.577495321
 21
113.8471257649
 31
0.0
  0
LINE
  5
242
  8
0
  6
CONTINUOUS
 62
     7
 10
78.577495321
 20
113.8471257649
 30
0.0
 11
78.5810587504
 21
113.7791314816
 31
0.0
  0
LINE
  5
243
  8
0
  6
CONTINUOUS
 62
     7
 10
75.641073801
 20
113.7150451611
 30
0.0
 11
75.7087367197
 21
113.7901924454
 31
0.0
  0
ARC
  5
244
  8
0
  6
CONTINUOUS
 62
     7
 10
75.7224569943
 20
113.8054303541
 30
0.0
 40
0.0205046286392179
 50
227.9999999982
 51
317.999999999
  0
LINE
  5
245
  8
0
  6
CONTINUOUS
 62
     7
 10
77.4728413219
 20
113.811044029
 30
0.0
 11
77.3976940376
 21
113.8787069477
 31
0.0
  0
ARC
  5
246
  8
0
  6
CONTINUOUS
 62
     7
 10
77.3824561289
 20
113.8924272223
 30
0.0
 40
0.0205046286391913
 50
228.0000000006
 51
318.0000000011
  0
LINE
  5
247
  8
0
  6
CONTINUOUS
 62
     7
 10
74.7510947051
 20
114.5163859383
 30
0.0
 11
74.8187576239
 21
114.5915332226
 31
0.0
  0
LINE
  5
248
  8
0
  6
CONTINUOUS
 62
     7
 10
74.8187576239
 20
114.5915332226
 30
0.0
 11
75.7087367197
 21
113.7901924454
 31
0.0
  0
LINE
  5
249
  8
0
  6
CONTINUOUS
 62
     7
 10
78.2741820992
 20
114.7010231248
 30
0.0
 11
78.1990348148
 21
114.7686860435
 31
0.0
  0
LINE
  5
24A
  8
0
  6
CONTINUOUS
 62
     7
 10
77.3976940376
 20
113.8787069477
 30
0.0
 11
78.1990348148
 21
114.7686860435
 31
0.0
  0
ARC
  5
24B
  8
0
  6
CONTINUOUS
 62
     7
 10
74.8324778985
 20
114.6067711313
 30
0.0
 40
0.0205046286392008
 50
138.0000000004
 51
228.000000001
  0
ARC
  5
24C
  8
0
  6
CONTINUOUS
 62
     7
 10
78.1837969062
 20
114.7824063181
 30
0.0
 40
0.0205046286392285
 50
317.9999999982
 51
47.9999999989
  0
LINE
  5
24D
  8
0
  6
CONTINUOUS
 62
     7
 10
74.6550958372
 20
116.3481534593
 30
0.0
 11
74.7302431215
 21
116.2804905405
 31
0.0
  0
ARC
  5
24E
  8
0
  6
CONTINUOUS
 62
     7
 10
74.7454810302
 20
116.2667702659
 30
0.0
 40
0.0205046286392274
 50
137.9999999982
 51
227.9999999989
  0
LINE
  5
24F
  8
0
  6
CONTINUOUS
 62
     7
 10
75.4564366144
 20
117.2381325551
 30
0.0
 11
75.5315838988
 21
117.1704696363
 31
0.0
  0
LINE
  5
250
  8
0
  6
CONTINUOUS
 62
     7
 10
75.5315838988
 20
117.1704696363
 30
0.0
 11
74.7302431215
 21
116.2804905405
 31
0.0
  0
LINE
  5
251
  8
0
  6
CONTINUOUS
 62
     7
 10
77.2882041354
 20
117.334131423
 30
0.0
 11
77.2205412167
 21
117.2589841387
 31
0.0
  0
LINE
  5
252
  8
0
  6
CONTINUOUS
 62
     7
 10
78.1781832312
 20
116.5327906458
 30
0.0
 11
78.1105203125
 21
116.4576433615
 31
0.0
  0
LINE
  5
253
  8
0
  6
CONTINUOUS
 62
     7
 10
78.1105203125
 20
116.4576433615
 30
0.0
 11
77.2205412167
 21
117.2589841387
 31
0.0
  0
ARC
  5
254
  8
0
  6
CONTINUOUS
 62
     7
 10
78.0968000379
 20
116.4424054528
 30
0.0
 40
0.0205046286391807
 50
318.0000000003
 51
48.000000001
  0
ARC
  5
255
  8
0
  6
CONTINUOUS
 62
     7
 10
77.2068209421
 20
117.24374623
 30
0.0
 40
0.0205046286392074
 50
47.9999999982
 51
137.999999999
  0
ARC
  5
256
  8
0
  6
CONTINUOUS
 62
     7
 10
75.5468218074
 20
117.1567493617
 30
0.0
 40
0.0205046286392114
 50
48.0000000004
 51
138.0000000011
  0
CIRCLE
  5
257
  8
0
  6
CONTINUOUS
 62
     7
 10
76.4646389682
 20
115.524588292
 30
0.0
 40
1.69443185918887
  0
CIRCLE
  5
258
  8
0
  6
CONTINUOUS
 62
     7
 10
76.4646389682
 20
115.524588292
 30
0.0
 40
1.573024458851753
  0
ARC
  5
259
  8
0
  6
CONTINUOUS
 62
     7
 10
78.7954205822
 20
113.4259410776
 30
0.0
 40
0.5322554272013937
 50
272.999295029
 51
318.0001618182
  0
LINE
  5
25A
  8
0
  6
CONTINUOUS
 62
     7
 10
78.8232670001
 20
112.8944146003
 30
0.0
 11
78.6275904228
 21
113.3241851176
 31
0.0
  0
LINE
  5
25B
  8
0
  6
CONTINUOUS
 62
     7
 10
78.6275903546
 20
113.3241851068
 30
0.0
 11
78.741648138
 21
113.3509003136
 31
0.0
  0
LINE
  5
25C
  8
0
  6
CONTINUOUS
 62
     7
 10
78.7416485834
 20
113.3509005758
 30
0.0
 11
78.793118282
 21
113.3781163257
 31
0.0
  0
LINE
  5
25D
  8
0
  6
CONTINUOUS
 62
     7
 10
78.793118442
 20
113.3781164643
 30
0.0
 11
79.1909644417
 21
113.0697938096
 31
0.0
  0
ARC
  5
25E
  8
0
  6
CONTINUOUS
 62
     7
 10
74.1338573542
 20
117.6232355065
 30
0.0
 40
0.5322554271862443
 50
92.9993383343
 51
138.0001618186
  0
LINE
  5
25F
  8
0
  6
CONTINUOUS
 62
     7
 10
74.1060109363
 20
118.1547619838
 30
0.0
 11
74.3016875136
 21
117.7249914665
 31
0.0
  0
LINE
  5
260
  8
0
  6
CONTINUOUS
 62
     7
 10
74.3016875818
 20
117.7249914772
 30
0.0
 11
74.1876297983
 21
117.6982762704
 31
0.0
  0
LINE
  5
261
  8
0
  6
CONTINUOUS
 62
     7
 10
74.1876293529
 20
117.6982760083
 30
0.0
 11
74.1361596544
 21
117.6710602584
 31
0.0
  0
LINE
  5
262
  8
0
  6
CONTINUOUS
 62
     7
 10
74.1361594943
 20
117.6710601197
 30
0.0
 11
73.7383134946
 21
117.9793827745
 31
0.0
  0
ARC
  5
263
  8
0
  6
CONTINUOUS
 62
     7
 10
78.5632861826
 20
117.855369906
 30
0.0
 40
0.5322554272055657
 50
2.9993041336
 51
48.0001618186
  0
LINE
  5
264
  8
0
  6
CONTINUOUS
 62
     7
 10
79.0948126599
 20
117.8832163239
 30
0.0
 11
78.6650421426
 21
117.6875397466
 31
0.0
  0
LINE
  5
265
  8
0
  6
CONTINUOUS
 62
     7
 10
78.6650421534
 20
117.6875396785
 30
0.0
 11
78.6383269466
 21
117.8015974619
 31
0.0
  0
LINE
  5
266
  8
0
  6
CONTINUOUS
 62
     7
 10
78.6383266844
 20
117.8015979073
 30
0.0
 11
78.6111109345
 21
117.8530676058
 31
0.0
  0
LINE
  5
267
  8
0
  6
CONTINUOUS
 62
     7
 10
78.6111107959
 20
117.8530677659
 30
0.0
 11
78.9194334506
 21
118.2509137655
 31
0.0
  0
ARC
  5
268
  8
0
  6
CONTINUOUS
 62
     7
 10
74.3659926169
 20
113.1938070897
 30
0.0
 40
0.5322563107078514
 50
182.9989961738
 51
228.0001224245
  0
LINE
  5
269
  8
0
  6
CONTINUOUS
 62
     7
 10
73.8344652765
 20
113.1659602602
 30
0.0
 11
74.2642357938
 21
113.3616368374
 31
0.0
  0
LINE
  5
26A
  8
0
  6
CONTINUOUS
 62
     7
 10
74.264235783
 20
113.3616369056
 30
0.0
 11
74.2909509898
 21
113.2475791222
 31
0.0
  0
LINE
  5
26B
  8
0
  6
CONTINUOUS
 62
     7
 10
74.2909512519
 20
113.2475786768
 30
0.0
 11
74.3181670019
 21
113.1961089782
 31
0.0
  0
LINE
  5
26C
  8
0
  6
CONTINUOUS
 62
     7
 10
74.3181671405
 20
113.1961088182
 30
0.0
 11
74.0098444857
 21
112.7982628185
 31
0.0
  0
LINE
  5
26D
  8
0
  6
CONTINUOUS
 62
     7
 10
78.8232670001
 20
112.8944146003
 30
0.0
 11
78.5647170575
 21
113.2754753499
 31
0.0
  0
LINE
  5
26E
  8
0
  6
CONTINUOUS
 62
     7
 10
78.5647145787
 20
113.2754785839
 30
0.0
 11
78.6275897111
 21
113.3241846098
 31
0.0
  0
LINE
  5
26F
  8
0
  6
CONTINUOUS
 62
     7
 10
74.1060109363
 20
118.1547619838
 30
0.0
 11
74.3645608789
 21
117.7737012341
 31
0.0
  0
LINE
  5
270
  8
0
  6
CONTINUOUS
 62
     7
 10
74.3645633577
 20
117.7736980002
 30
0.0
 11
74.3016882253
 21
117.7249919743
 31
0.0
  0
LINE
  5
271
  8
0
  6
CONTINUOUS
 62
     7
 10
78.7137519103
 20
117.6246663813
 30
0.0
 11
79.0948126599
 21
117.8832163239
 31
0.0
  0
LINE
  5
272
  8
0
  6
CONTINUOUS
 62
     7
 10
78.7137486764
 20
117.6246639026
 30
0.0
 11
78.6650426504
 21
117.6875390349
 31
0.0
  0
LINE
  5
273
  8
0
  6
CONTINUOUS
 62
     7
 10
73.8344652764
 20
113.1659602602
 30
0.0
 11
74.2155260261
 21
113.4245102027
 31
0.0
  0
LINE
  5
274
  8
0
  6
CONTINUOUS
 62
     7
 10
74.21552926
 20
113.4245126815
 30
0.0
 11
74.264235286
 21
113.3616375491
 31
0.0
  0
LINE
  5
275
  8
0
  6
CONTINUOUS
 62
     7
 10
79.3043386892
 20
113.8852180118
 30
0.0
 11
78.8650931424
 21
113.8804690779
 31
0.0
  0
LINE
  5
276
  8
0
  6
CONTINUOUS
 62
     7
 10
79.3043386892
 20
113.8852180118
 30
0.0
 11
78.8637638714
 21
113.8438094478
 31
0.0
  0
LINE
  5
277
  8
0
  6
CONTINUOUS
 62
     7
 10
78.8637640835
 20
113.8438094327
 30
0.0
 11
78.8650931129
 21
113.8804690764
 31
0.0
  0
LINE
  5
278
  8
0
  6
CONTINUOUS
 62
     7
 10
74.8205197541
 20
113.1241341178
 30
0.0
 11
74.8252686879
 21
112.684888571
 31
0.0
  0
LINE
  5
279
  8
0
  6
CONTINUOUS
 62
     7
 10
74.8252686879
 20
112.684888571
 30
0.0
 11
74.783860124
 21
113.1254633888
 31
0.0
  0
LINE
  5
27A
  8
0
  6
CONTINUOUS
 62
     7
 10
74.7838601089
 20
113.1254631767
 30
0.0
 11
74.8205197525
 21
113.1241341473
 31
0.0
  0
LINE
  5
27B
  8
0
  6
CONTINUOUS
 62
     7
 10
78.1087581823
 20
117.9250424662
 30
0.0
 11
78.1040092484
 21
118.3642880131
 31
0.0
  0
LINE
  5
27C
  8
0
  6
CONTINUOUS
 62
     7
 10
78.1040092484
 20
118.3642880131
 30
0.0
 11
78.1454178124
 21
117.9237131953
 31
0.0
  0
LINE
  5
27D
  8
0
  6
CONTINUOUS
 62
     7
 10
78.1454178275
 20
117.9237134073
 30
0.0
 11
78.1087581838
 21
117.9250424368
 31
0.0
  0
LINE
  5
27E
  8
0
  6
CONTINUOUS
 62
     7
 10
74.064184794
 20
117.1687075061
 30
0.0
 11
73.6249392472
 21
117.1639585723
 31
0.0
  0
LINE
  5
27F
  8
0
  6
CONTINUOUS
 62
     7
 10
73.6249392472
 20
117.1639585723
 30
0.0
 11
74.0655140649
 21
117.2053671362
 31
0.0
  0
LINE
  5
280
  8
0
  6
CONTINUOUS
 62
     7
 10
74.0655138529
 20
117.2053671513
 30
0.0
 11
74.0641848234
 21
117.1687075077
 31
0.0
  0
LINE
  5
281
  8
0
  6
CONTINUOUS
 62
     7
 10
78.557490396
 20
117.9056147721
 30
0.0
 11
78.9194334506
 21
118.2509137655
 31
0.0
  0
POLYLINE
  5
282
  8
0
  6
CONTINUOUS
 62
     7
 66
     1
 10
0.0
 20
0.0
 30
0.0
 70
   128
  0
VERTEX
  5
4F6
  8
0
  6
CONTINUOUS
 62
     7
 10
78.3669780991
 20
117.9530211645
 30
0.0
  0
VERTEX
  5
4F7
  8
0
  6
CONTINUOUS
 62
     7
 10
78.4861782639
 20
117.9378177171
 30
0.0
  0
VERTEX
  5
4F8
  8
0
  6
CONTINUOUS
 62
     7
 10
78.5574909676
 20
117.9056141475
 30
0.0
  0
SEQEND
  5
5EC
  8
0
  6
CONTINUOUS
 62
     7
  0
LINE
  5
283
  8
0
  6
CONTINUOUS
 62
     7
 10
78.5354252587
 20
118.3868976829
 30
0.0
 11
78.3669780991
 21
117.9530211645
 31
0.0
  0
ARC
  5
284
  8
0
  6
CONTINUOUS
 62
     7
 10
78.563283804
 20
117.8553712579
 30
0.0
 40
0.5322560141924366
 50
47.9998741642
 51
93.0002607698
  0
LINE
  5
285
  8
0
  6
CONTINUOUS
 62
     7
 10
78.8456654483
 20
113.4317368642
 30
0.0
 11
79.1909644417
 21
113.0697938096
 31
0.0
  0
POLYLINE
  5
286
  8
0
  6
CONTINUOUS
 62
     7
 66
     1
 10
0.0
 20
0.0
 30
0.0
 70
   128
  0
VERTEX
  5
4F9
  8
0
  6
CONTINUOUS
 62
     7
 10
78.8930718407
 20
113.6222491612
 30
0.0
  0
VERTEX
  5
4FA
  8
0
  6
CONTINUOUS
 62
     7
 10
78.8778683932
 20
113.5030489958
 30
0.0
  0
VERTEX
  5
4FB
  8
0
  6
CONTINUOUS
 62
     7
 10
78.8456648237
 20
113.4317362926
 30
0.0
  0
SEQEND
  5
5ED
  8
0
  6
CONTINUOUS
 62
     7
  0
LINE
  5
287
  8
0
  6
CONTINUOUS
 62
     7
 10
79.3269483593
 20
113.453801997
 30
0.0
 11
78.8930718407
 21
113.6222491612
 31
0.0
  0
ARC
  5
288
  8
0
  6
CONTINUOUS
 62
     7
 10
78.795421934
 20
113.4259434562
 30
0.0
 40
0.5322560141777788
 50
317.9998741636
 51
3.0002602758
  0
LINE
  5
289
  8
0
  6
CONTINUOUS
 62
     7
 10
74.0836124881
 20
117.6174397198
 30
0.0
 11
73.7383134946
 21
117.9793827745
 31
0.0
  0
POLYLINE
  5
28A
  8
0
  6
CONTINUOUS
 62
     7
 66
     1
 10
0.0
 20
0.0
 30
0.0
 70
   128
  0
VERTEX
  5
4FC
  8
0
  6
CONTINUOUS
 62
     7
 10
74.0362060957
 20
117.4269274229
 30
0.0
  0
VERTEX
  5
4FD
  8
0
  6
CONTINUOUS
 62
     7
 10
74.0514095432
 20
117.5461275882
 30
0.0
  0
VERTEX
  5
4FE
  8
0
  6
CONTINUOUS
 62
     7
 10
74.0836131127
 20
117.6174402914
 30
0.0
  0
SEQEND
  5
5EE
  8
0
  6
CONTINUOUS
 62
     7
  0
LINE
  5
28B
  8
0
  6
CONTINUOUS
 62
     7
 10
73.602329555
 20
117.5953745612
 30
0.0
 11
74.0362060957
 21
117.4269274229
 31
0.0
  0
ARC
  5
28C
  8
0
  6
CONTINUOUS
 62
     7
 10
74.1338569161
 20
117.6232328052
 30
0.0
 40
0.5322569090740544
 50
137.9999141676
 51
183.0002231015
  0
LINE
  5
28D
  8
0
  6
CONTINUOUS
 62
     7
 10
74.3717875404
 20
113.1435618119
 30
0.0
 11
74.0098444857
 21
112.7982628185
 31
0.0
  0
POLYLINE
  5
28E
  8
0
  6
CONTINUOUS
 62
     7
 66
     1
 10
0.0
 20
0.0
 30
0.0
 70
   128
  0
VERTEX
  5
4FF
  8
0
  6
CONTINUOUS
 62
     7
 10
74.5622998373
 20
113.0961554196
 30
0.0
  0
VERTEX
  5
500
  8
0
  6
CONTINUOUS
 62
     7
 10
74.443099672
 20
113.1113588671
 30
0.0
  0
VERTEX
  5
501
  8
0
  6
CONTINUOUS
 62
     7
 10
74.3717869688
 20
113.1435624365
 30
0.0
  0
SEQEND
  5
5EF
  8
0
  6
CONTINUOUS
 62
     7
  0
LINE
  5
28F
  8
0
  6
CONTINUOUS
 62
     7
 10
74.393852699
 20
112.6622788789
 30
0.0
 11
74.5622998373
 21
113.0961554196
 31
0.0
  0
ARC
  5
290
  8
0
  6
CONTINUOUS
 62
     7
 10
74.365994455
 20
113.1938062398
 30
0.0
 40
0.5322569090255855
 50
227.9999141659
 51
273.0002231095
  0
LINE
  5
291
  8
0
  6
CONTINUOUS
 62
     7
 10
74.8205157786
 20
113.1295182034
 30
0.0
 11
74.8205197541
 21
113.1241341178
 31
0.0
  0
POLYLINE
  5
292
  8
0
  6
CONTINUOUS
 62
     7
 66
     1
 10
0.0
 20
0.0
 30
0.0
 70
   128
  0
VERTEX
  5
502
  8
0
  6
CONTINUOUS
 62
     7
 10
74.8201046583
 20
113.1462286367
 30
0.0
  0
VERTEX
  5
503
  8
0
  6
CONTINUOUS
 62
     7
 10
74.8203311754
 20
113.1368711621
 30
0.0
  0
VERTEX
  5
504
  8
0
  6
CONTINUOUS
 62
     7
 10
74.8205157745
 20
113.1295182033
 30
0.0
  0
SEQEND
  5
5F0
  8
0
  6
CONTINUOUS
 62
     7
  0
LINE
  5
293
  8
0
  6
CONTINUOUS
 62
     7
 10
74.8201270924
 20
113.1479497566
 30
0.0
 11
74.8201046583
 21
113.1462286367
 31
0.0
  0
LINE
  5
294
  8
0
  6
CONTINUOUS
 62
     7
 10
78.5126855298
 20
113.341467844
 30
0.0
 11
74.8201270924
 21
113.1479497566
 31
0.0
  0
LINE
  5
295
  8
0
  6
CONTINUOUS
 62
     7
 10
78.5445373468
 20
113.3061309831
 30
0.0
 11
78.5126855298
 21
113.341467844
 31
0.0
  0
LINE
  5
296
  8
0
  6
CONTINUOUS
 62
     7
 10
78.5522790536
 20
113.2936283124
 30
0.0
 11
78.5445373468
 21
113.3061309831
 31
0.0
  0
LINE
  5
297
  8
0
  6
CONTINUOUS
 62
     7
 10
78.5647170575
 20
113.2754753499
 30
0.0
 11
78.5522790536
 21
113.2936283124
 31
0.0
  0
LINE
  5
298
  8
0
  6
CONTINUOUS
 62
     7
 10
74.8252686879
 20
112.684888571
 30
0.0
 11
78.8232670001
 21
112.8944146003
 31
0.0
  0
LINE
  5
299
  8
0
  6
CONTINUOUS
 62
     7
 10
74.0695688797
 20
117.1687114776
 30
0.0
 11
74.064184794
 21
117.1687075061
 31
0.0
  0
LINE
  5
29A
  8
0
  6
CONTINUOUS
 62
     7
 10
74.0862793128
 20
117.1691226019
 30
0.0
 11
74.0695688797
 21
117.1687114776
 31
0.0
  0
LINE
  5
29B
  8
0
  6
CONTINUOUS
 62
     7
 10
74.0880004327
 20
117.1691001678
 30
0.0
 11
74.0862793128
 21
117.1691226019
 31
0.0
  0
LINE
  5
29C
  8
0
  6
CONTINUOUS
 62
     7
 10
74.2815198175
 20
113.4765427137
 30
0.0
 11
74.0880004327
 21
117.1691001678
 31
0.0
  0
LINE
  5
29D
  8
0
  6
CONTINUOUS
 62
     7
 10
74.2461816593
 20
113.4446899134
 30
0.0
 11
74.2815198175
 21
113.4765427137
 31
0.0
  0
LINE
  5
29E
  8
0
  6
CONTINUOUS
 62
     7
 10
74.2336789886
 20
113.4369482067
 30
0.0
 11
74.2461816593
 21
113.4446899134
 31
0.0
  0
LINE
  5
29F
  8
0
  6
CONTINUOUS
 62
     7
 10
74.2155260261
 20
113.4245102027
 30
0.0
 11
74.2336789886
 21
113.4369482067
 31
0.0
  0
LINE
  5
2A0
  8
0
  6
CONTINUOUS
 62
     7
 10
73.6249392472
 20
117.1639585723
 30
0.0
 11
73.8344654598
 21
113.1659602698
 31
0.0
  0
LINE
  5
2A1
  8
0
  6
CONTINUOUS
 62
     7
 10
78.6955989478
 20
117.6122283774
 30
0.0
 11
78.7137519103
 21
117.6246663813
 31
0.0
  0
LINE
  5
2A2
  8
0
  6
CONTINUOUS
 62
     7
 10
78.8650931424
 20
113.8804690779
 30
0.0
 11
78.8597090568
 21
113.8804651024
 31
0.0
  0
POLYLINE
  5
2A3
  8
0
  6
CONTINUOUS
 62
     7
 66
     1
 10
0.0
 20
0.0
 30
0.0
 70
   128
  0
VERTEX
  5
505
  8
0
  6
CONTINUOUS
 62
     7
 10
78.8429986236
 20
113.8800539822
 30
0.0
  0
VERTEX
  5
506
  8
0
  6
CONTINUOUS
 62
     7
 10
78.8523560982
 20
113.8802804992
 30
0.0
  0
VERTEX
  5
507
  8
0
  6
CONTINUOUS
 62
     7
 10
78.8597090569
 20
113.8804650983
 30
0.0
  0
SEQEND
  5
5F1
  8
0
  6
CONTINUOUS
 62
     7
  0
LINE
  5
2A4
  8
0
  6
CONTINUOUS
 62
     7
 10
78.8412775037
 20
113.8800764162
 30
0.0
 11
78.8429986236
 21
113.8800539822
 31
0.0
  0
LINE
  5
2A5
  8
0
  6
CONTINUOUS
 62
     7
 10
78.6477587061
 20
117.5726343136
 30
0.0
 11
78.8412775037
 21
113.8800764162
 31
0.0
  0
LINE
  5
2A6
  8
0
  6
CONTINUOUS
 62
     7
 10
78.6477587061
 20
117.5726343136
 30
0.0
 11
78.6830962771
 21
117.6044866706
 31
0.0
  0
LINE
  5
2A7
  8
0
  6
CONTINUOUS
 62
     7
 10
78.6830962771
 20
117.6044866706
 30
0.0
 11
78.6955989478
 21
117.6122283774
 31
0.0
  0
LINE
  5
2A8
  8
0
  6
CONTINUOUS
 62
     7
 10
79.0948121892
 20
117.8832233492
 30
0.0
 11
79.3043387703
 21
113.885218016
 31
0.0
  0
POLYLINE
  5
2A9
  8
0
  6
CONTINUOUS
 62
     7
 66
     1
 10
0.0
 20
0.0
 30
0.0
 70
   128
  0
VERTEX
  5
508
  8
0
  6
CONTINUOUS
 62
     7
 10
78.5574903547
 20
117.9056147301
 30
0.0
  0
VERTEX
  5
509
  8
0
  6
CONTINUOUS
 62
     7
 10
78.584418877
 20
117.8790858125
 30
0.0
  0
VERTEX
  5
50A
  8
0
  6
CONTINUOUS
 62
     7
 10
78.6111107959
 20
117.8530677659
 30
0.0
  0
SEQEND
  5
5F2
  8
0
  6
CONTINUOUS
 62
     7
  0
POLYLINE
  5
2AA
  8
0
  6
CONTINUOUS
 62
     7
 66
     1
 10
0.0
 20
0.0
 30
0.0
 70
   128
  0
VERTEX
  5
50B
  8
0
  6
CONTINUOUS
 62
     7
 10
78.8456654063
 20
113.4317369055
 30
0.0
  0
VERTEX
  5
50C
  8
0
  6
CONTINUOUS
 62
     7
 10
78.8191364886
 20
113.4048083832
 30
0.0
  0
VERTEX
  5
50D
  8
0
  6
CONTINUOUS
 62
     7
 10
78.793118442
 20
113.3781164643
 30
0.0
  0
SEQEND
  5
5F3
  8
0
  6
CONTINUOUS
 62
     7
  0
POLYLINE
  5
2AB
  8
0
  6
CONTINUOUS
 62
     7
 66
     1
 10
0.0
 20
0.0
 30
0.0
 70
   128
  0
VERTEX
  5
50E
  8
0
  6
CONTINUOUS
 62
     7
 10
74.0836125301
 20
117.6174396786
 30
0.0
  0
VERTEX
  5
50F
  8
0
  6
CONTINUOUS
 62
     7
 10
74.1101414477
 20
117.6443682009
 30
0.0
  0
VERTEX
  5
510
  8
0
  6
CONTINUOUS
 62
     7
 10
74.1361594943
 20
117.6710601197
 30
0.0
  0
SEQEND
  5
5F4
  8
0
  6
CONTINUOUS
 62
     7
  0
POLYLINE
  5
2AC
  8
0
  6
CONTINUOUS
 62
     7
 66
     1
 10
0.0
 20
0.0
 30
0.0
 70
   128
  0
VERTEX
  5
511
  8
0
  6
CONTINUOUS
 62
     7
 10
74.3717875816
 20
113.1435618539
 30
0.0
  0
VERTEX
  5
512
  8
0
  6
CONTINUOUS
 62
     7
 10
74.3448590594
 20
113.1700907716
 30
0.0
  0
VERTEX
  5
513
  8
0
  6
CONTINUOUS
 62
     7
 10
74.3181671405
 20
113.1961088182
 30
0.0
  0
SEQEND
  5
5F5
  8
0
  6
CONTINUOUS
 62
     7
  0
LINE
  5
2AD
  8
0
  6
CONTINUOUS
 62
     7
 10
74.3847405896
 20
117.7430456009
 30
0.0
 11
74.4165924266
 21
117.7077087136
 31
0.0
  0
LINE
  5
2AE
  8
0
  6
CONTINUOUS
 62
     7
 10
74.3769988828
 20
117.7555482716
 30
0.0
 11
74.3847405896
 21
117.7430456009
 31
0.0
  0
LINE
  5
2AF
  8
0
  6
CONTINUOUS
 62
     7
 10
74.3645608789
 20
117.7737012341
 30
0.0
 11
74.3769988828
 21
117.7555482716
 31
0.0
  0
LINE
  5
2B0
  8
0
  6
CONTINUOUS
 62
     7
 10
78.1040092484
 20
118.3642880131
 30
0.0
 11
74.1060109459
 21
118.1547618004
 31
0.0
  0
LINE
  5
2B1
  8
0
  6
CONTINUOUS
 62
     7
 10
78.1087621578
 20
117.9196583807
 30
0.0
 11
78.1087581823
 21
117.9250424662
 31
0.0
  0
POLYLINE
  5
2B2
  8
0
  6
CONTINUOUS
 62
     7
 66
     1
 10
0.0
 20
0.0
 30
0.0
 70
   128
  0
VERTEX
  5
514
  8
0
  6
CONTINUOUS
 62
     7
 10
78.109173278
 20
117.9029479474
 30
0.0
  0
VERTEX
  5
515
  8
0
  6
CONTINUOUS
 62
     7
 10
78.108946761
 20
117.912305422
 30
0.0
  0
VERTEX
  5
516
  8
0
  6
CONTINUOUS
 62
     7
 10
78.1087621619
 20
117.9196583808
 30
0.0
  0
SEQEND
  5
5F6
  8
0
  6
CONTINUOUS
 62
     7
  0
LINE
  5
2B3
  8
0
  6
CONTINUOUS
 62
     7
 10
78.109150844
 20
117.9012268275
 30
0.0
 11
78.109173278
 21
117.9029479474
 31
0.0
  0
LINE
  5
2B4
  8
0
  6
CONTINUOUS
 62
     7
 10
74.4165924266
 20
117.7077087136
 30
0.0
 11
78.109150844
 21
117.9012268275
 31
0.0
  0
LINE
  5
2B5
  8
0
  6
CONTINUOUS
 62
     7
 10
74.5412371478
 20
112.6700029981
 30
0.0
 11
74.6459089898
 21
113.10520364
 31
0.0
  0
LINE
  5
2B6
  8
0
  6
CONTINUOUS
 62
     7
 10
74.6492585126
 20
113.1057139994
 30
0.0
 11
74.6459089862
 21
113.1052036382
 31
0.0
  0
LINE
  5
2B7
  8
0
  6
CONTINUOUS
 62
     7
 10
74.783860124
 20
113.1254633888
 30
0.0
 11
74.6492585126
 21
113.1057139994
 31
0.0
  0
LINE
  5
2B8
  8
0
  6
CONTINUOUS
 62
     7
 10
74.5412371584
 20
112.6700030087
 30
0.0
 11
74.8252686927
 21
112.6848884806
 31
0.0
  0
LINE
  5
2B9
  8
0
  6
CONTINUOUS
 62
     7
 10
73.6100536743
 20
117.4479901125
 30
0.0
 11
74.0452543162
 21
117.3433182704
 31
0.0
  0
LINE
  5
2BA
  8
0
  6
CONTINUOUS
 62
     7
 10
74.0457646756
 20
117.3399687477
 30
0.0
 11
74.0452543144
 21
117.343318274
 31
0.0
  0
LINE
  5
2BB
  8
0
  6
CONTINUOUS
 62
     7
 10
74.0655140649
 20
117.2053671362
 30
0.0
 11
74.0457646756
 21
117.3399687477
 31
0.0
  0
LINE
  5
2BC
  8
0
  6
CONTINUOUS
 62
     7
 10
73.6100536848
 20
117.4479901018
 30
0.0
 11
73.6249391567
 21
117.1639585675
 31
0.0
  0
LINE
  5
2BD
  8
0
  6
CONTINUOUS
 62
     7
 10
79.3192241819
 20
113.6011864909
 30
0.0
 11
78.8840236202
 21
113.7058583137
 31
0.0
  0
LINE
  5
2BE
  8
0
  6
CONTINUOUS
 62
     7
 10
78.8835132608
 20
113.7092078364
 30
0.0
 11
78.884023622
 21
113.70585831
 31
0.0
  0
LINE
  5
2BF
  8
0
  6
CONTINUOUS
 62
     7
 10
78.8637638714
 20
113.8438094478
 30
0.0
 11
78.8835132608
 21
113.7092078364
 31
0.0
  0
LINE
  5
2C0
  8
0
  6
CONTINUOUS
 62
     7
 10
79.3043386892
 20
113.8852180118
 30
0.0
 11
79.3192242056
 21
113.6011864798
 31
0.0
  0
LINE
  5
2C1
  8
0
  6
CONTINUOUS
 62
     7
 10
78.3880407693
 20
118.3791735057
 30
0.0
 11
78.2833689466
 21
117.943972944
 31
0.0
  0
LINE
  5
2C2
  8
0
  6
CONTINUOUS
 62
     7
 10
78.2800194238
 20
117.9434625847
 30
0.0
 11
78.2833689502
 21
117.9439729458
 31
0.0
  0
LINE
  5
2C3
  8
0
  6
CONTINUOUS
 62
     7
 10
78.1454178124
 20
117.9237131953
 30
0.0
 11
78.2800194238
 21
117.9434625847
 31
0.0
  0
LINE
  5
2C4
  8
0
  6
CONTINUOUS
 62
     7
 10
78.1040092484
 20
118.3642880131
 30
0.0
 11
78.3880407804
 21
118.3791735294
 31
0.0
  0
LINE
  5
2C5
  8
0
  6
CONTINUOUS
 62
     7
 10
74.5704096706
 20
113.0966971783
 30
0.0
 11
74.5622998373
 21
113.0961554196
 31
0.0
  0
LINE
  5
2C6
  8
0
  6
CONTINUOUS
 62
     7
 10
74.5901693749
 20
113.0984412576
 30
0.0
 11
74.5704096706
 21
113.0966971783
 31
0.0
  0
LINE
  5
2C7
  8
0
  6
CONTINUOUS
 62
     7
 10
74.6459089898
 20
113.10520364
 30
0.0
 11
74.5901693749
 21
113.0984412576
 31
0.0
  0
LINE
  5
2C8
  8
0
  6
CONTINUOUS
 62
     7
 10
74.393852699
 20
112.6622788789
 30
0.0
 11
74.5412371584
 21
112.6700030087
 31
0.0
  0
LINE
  5
2C9
  8
0
  6
CONTINUOUS
 62
     7
 10
74.0367478545
 20
117.4188175897
 30
0.0
 11
74.0362060957
 21
117.4269274229
 31
0.0
  0
LINE
  5
2CA
  8
0
  6
CONTINUOUS
 62
     7
 10
74.0384919337
 20
117.3990578853
 30
0.0
 11
74.0367478545
 21
117.4188175897
 31
0.0
  0
LINE
  5
2CB
  8
0
  6
CONTINUOUS
 62
     7
 10
74.0452543162
 20
117.3433182704
 30
0.0
 11
74.0384919337
 21
117.3990578853
 31
0.0
  0
LINE
  5
2CC
  8
0
  6
CONTINUOUS
 62
     7
 10
73.602329555
 20
117.5953745612
 30
0.0
 11
73.6100536848
 21
117.4479901018
 31
0.0
  0
LINE
  5
2CD
  8
0
  6
CONTINUOUS
 62
     7
 10
78.3588682658
 20
117.9524794057
 30
0.0
 11
78.3669780991
 21
117.9530211645
 31
0.0
  0
LINE
  5
2CE
  8
0
  6
CONTINUOUS
 62
     7
 10
78.3391085615
 20
117.9507353265
 30
0.0
 11
78.3588682658
 21
117.9524794057
 31
0.0
  0
LINE
  5
2CF
  8
0
  6
CONTINUOUS
 62
     7
 10
78.2833689466
 20
117.943972944
 30
0.0
 11
78.3391085615
 21
117.9507353265
 31
0.0
  0
LINE
  5
2D0
  8
0
  6
CONTINUOUS
 62
     7
 10
78.3880407804
 20
118.3791735294
 30
0.0
 11
78.5354252587
 21
118.3868976829
 31
0.0
  0
LINE
  5
2D1
  8
0
  6
CONTINUOUS
 62
     7
 10
78.8925300819
 20
113.6303589944
 30
0.0
 11
78.8930718407
 21
113.6222491612
 31
0.0
  0
LINE
  5
2D2
  8
0
  6
CONTINUOUS
 62
     7
 10
78.8907860026
 20
113.6501186987
 30
0.0
 11
78.8925300819
 21
113.6303589944
 31
0.0
  0
LINE
  5
2D3
  8
0
  6
CONTINUOUS
 62
     7
 10
78.8840236202
 20
113.7058583137
 30
0.0
 11
78.8907860026
 21
113.6501186987
 31
0.0
  0
LINE
  5
2D4
  8
0
  6
CONTINUOUS
 62
     7
 10
79.3192242056
 20
113.6011864798
 30
0.0
 11
79.3269483593
 21
113.453801997
 31
0.0
  0
LINE
  5
2D5
  8
0
  6
CONTINUOUS
 62
     7
 10
74.1361596544
 20
117.6710602584
 30
0.0
 11
74.1840504401
 21
117.6298466881
 31
0.0
  0
POLYLINE
  5
2D6
  8
0
  6
CONTINUOUS
 62
     7
 66
     1
 10
0.0
 20
0.0
 30
0.0
 70
   128
  0
VERTEX
  5
517
  8
0
  6
CONTINUOUS
 62
     7
 10
74.1344560188
 20
117.5693152219
 30
0.0
  0
VERTEX
  5
518
  8
0
  6
CONTINUOUS
 62
     7
 10
74.1600283591
 20
117.5992818299
 30
0.0
  0
VERTEX
  5
519
  8
0
  6
CONTINUOUS
 62
     7
 10
74.1840500514
 20
117.6298465707
 30
0.0
  0
SEQEND
  5
5F7
  8
0
  6
CONTINUOUS
 62
     7
  0
LINE
  5
2D7
  8
0
  6
CONTINUOUS
 62
     7
 10
74.1344566105
 20
117.5693146102
 30
0.0
 11
74.0836130758
 21
117.6174402373
 31
0.0
  0
LINE
  5
2D8
  8
0
  6
CONTINUOUS
 62
     7
 10
78.793118282
 20
113.3781163257
 30
0.0
 11
78.7452274962
 21
113.419329896
 31
0.0
  0
POLYLINE
  5
2D9
  8
0
  6
CONTINUOUS
 62
     7
 66
     1
 10
0.0
 20
0.0
 30
0.0
 70
   128
  0
VERTEX
  5
51A
  8
0
  6
CONTINUOUS
 62
     7
 10
78.7948219176
 20
113.4798613621
 30
0.0
  0
VERTEX
  5
51B
  8
0
  6
CONTINUOUS
 62
     7
 10
78.7692495773
 20
113.4498947542
 30
0.0
  0
VERTEX
  5
51C
  8
0
  6
CONTINUOUS
 62
     7
 10
78.745227885
 20
113.4193300133
 30
0.0
  0
SEQEND
  5
5F8
  8
0
  6
CONTINUOUS
 62
     7
  0
LINE
  5
2DA
  8
0
  6
CONTINUOUS
 62
     7
 10
78.7948213258
 20
113.4798619739
 30
0.0
 11
78.8456648606
 21
113.4317363468
 31
0.0
  0
LINE
  5
2DB
  8
0
  6
CONTINUOUS
 62
     7
 10
74.3181670019
 20
113.1961089782
 30
0.0
 11
74.3593805721
 21
113.243999764
 31
0.0
  0
POLYLINE
  5
2DC
  8
0
  6
CONTINUOUS
 62
     7
 66
     1
 10
0.0
 20
0.0
 30
0.0
 70
   128
  0
VERTEX
  5
51D
  8
0
  6
CONTINUOUS
 62
     7
 10
74.4199120383
 20
113.1944053426
 30
0.0
  0
VERTEX
  5
51E
  8
0
  6
CONTINUOUS
 62
     7
 10
74.3899454303
 20
113.2199776829
 30
0.0
  0
VERTEX
  5
51F
  8
0
  6
CONTINUOUS
 62
     7
 10
74.3593806895
 20
113.2439993752
 30
0.0
  0
SEQEND
  5
5F9
  8
0
  6
CONTINUOUS
 62
     7
  0
LINE
  5
2DD
  8
0
  6
CONTINUOUS
 62
     7
 10
74.41991265
 20
113.1944059344
 30
0.0
 11
74.371787023
 21
113.1435623997
 31
0.0
  0
LINE
  5
2DE
  8
0
  6
CONTINUOUS
 62
     7
 10
78.6111109345
 20
117.8530676058
 30
0.0
 11
78.5698973643
 21
117.8051768201
 31
0.0
  0
POLYLINE
  5
2DF
  8
0
  6
CONTINUOUS
 62
     7
 66
     1
 10
0.0
 20
0.0
 30
0.0
 70
   128
  0
VERTEX
  5
520
  8
0
  6
CONTINUOUS
 62
     7
 10
78.5093658981
 20
117.8547712415
 30
0.0
  0
VERTEX
  5
521
  8
0
  6
CONTINUOUS
 62
     7
 10
78.539332506
 20
117.8291989011
 30
0.0
  0
VERTEX
  5
522
  8
0
  6
CONTINUOUS
 62
     7
 10
78.5698972469
 20
117.8051772089
 30
0.0
  0
SEQEND
  5
5FA
  8
0
  6
CONTINUOUS
 62
     7
  0
LINE
  5
2E0
  8
0
  6
CONTINUOUS
 62
     7
 10
78.5093652863
 20
117.8547706497
 30
0.0
 11
78.5574909134
 21
117.9056141844
 31
0.0
  0
POLYLINE
  5
2E1
  8
0
  6
CONTINUOUS
 62
     7
 66
     1
 10
0.0
 20
0.0
 30
0.0
 70
   128
  0
VERTEX
  5
523
  8
0
  6
CONTINUOUS
 62
     7
 10
78.3583273342
 20
117.9126093043
 30
0.0
  0
VERTEX
  5
524
  8
0
  6
CONTINUOUS
 62
     7
 10
78.439521719
 20
117.895600712
 30
0.0
  0
VERTEX
  5
525
  8
0
  6
CONTINUOUS
 62
     7
 10
78.5093633558
 20
117.8547681122
 30
0.0
  0
SEQEND
  5
5FB
  8
0
  6
CONTINUOUS
 62
     7
  0
LINE
  5
2E2
  8
0
  6
CONTINUOUS
 62
     7
 10
78.3669780958
 20
117.953021164
 30
0.0
 11
78.3583270393
 21
117.9126093722
 31
0.0
  0
POLYLINE
  5
2E3
  8
0
  6
CONTINUOUS
 62
     7
 66
     1
 10
0.0
 20
0.0
 30
0.0
 70
   128
  0
VERTEX
  5
526
  8
0
  6
CONTINUOUS
 62
     7
 10
78.8526599805
 20
113.630899926
 30
0.0
  0
VERTEX
  5
527
  8
0
  6
CONTINUOUS
 62
     7
 10
78.8356513882
 20
113.5497055412
 30
0.0
  0
VERTEX
  5
528
  8
0
  6
CONTINUOUS
 62
     7
 10
78.7948187884
 20
113.4798639044
 30
0.0
  0
SEQEND
  5
5FC
  8
0
  6
CONTINUOUS
 62
     7
  0
LINE
  5
2E4
  8
0
  6
CONTINUOUS
 62
     7
 10
78.8930718402
 20
113.6222491645
 30
0.0
 11
78.8526600484
 21
113.6309002209
 31
0.0
  0
POLYLINE
  5
2E5
  8
0
  6
CONTINUOUS
 62
     7
 66
     1
 10
0.0
 20
0.0
 30
0.0
 70
   128
  0
VERTEX
  5
529
  8
0
  6
CONTINUOUS
 62
     7
 10
74.0766179559
 20
117.418276658
 30
0.0
  0
VERTEX
  5
52A
  8
0
  6
CONTINUOUS
 62
     7
 10
74.0936265482
 20
117.4994710429
 30
0.0
  0
VERTEX
  5
52B
  8
0
  6
CONTINUOUS
 62
     7
 10
74.134459148
 20
117.5693126797
 30
0.0
  0
SEQEND
  5
5FD
  8
0
  6
CONTINUOUS
 62
     7
  0
LINE
  5
2E6
  8
0
  6
CONTINUOUS
 62
     7
 10
74.0362060962
 20
117.4269274196
 30
0.0
 11
74.076617888
 21
117.4182763632
 31
0.0
  0
POLYLINE
  5
2E7
  8
0
  6
CONTINUOUS
 62
     7
 66
     1
 10
0.0
 20
0.0
 30
0.0
 70
   128
  0
VERTEX
  5
52C
  8
0
  6
CONTINUOUS
 62
     7
 10
74.5709506022
 20
113.1365672797
 30
0.0
  0
VERTEX
  5
52D
  8
0
  6
CONTINUOUS
 62
     7
 10
74.4897562174
 20
113.1535758721
 30
0.0
  0
VERTEX
  5
52E
  8
0
  6
CONTINUOUS
 62
     7
 10
74.4199145805
 20
113.1944084718
 30
0.0
  0
SEQEND
  5
5FE
  8
0
  6
CONTINUOUS
 62
     7
  0
LINE
  5
2E8
  8
0
  6
CONTINUOUS
 62
     7
 10
74.5622998406
 20
113.09615542
 30
0.0
 11
74.5709508971
 21
113.1365672118
 31
0.0
  0
LINE
  5
2E9
  8
0
  6
CONTINUOUS
 62
     7
 10
74.3063399841
 20
117.4473533241
 30
0.0
 11
74.3252574156
 21
117.4736731759
 31
0.0
  0
LINE
  5
2EA
  8
0
  6
CONTINUOUS
 62
     7
 10
74.3063394948
 20
117.4473536773
 30
0.0
 11
74.1344560188
 21
117.5693152219
 31
0.0
  0
LINE
  5
2EB
  8
0
  6
CONTINUOUS
 62
     7
 10
74.3252575997
 20
117.473673043
 30
0.0
 11
74.1840500514
 21
117.6298465707
 31
0.0
  0
LINE
  5
2EC
  8
0
  6
CONTINUOUS
 62
     7
 10
78.6229379522
 20
113.60182326
 30
0.0
 11
78.6040205208
 21
113.5755034081
 31
0.0
  0
LINE
  5
2ED
  8
0
  6
CONTINUOUS
 62
     7
 10
78.6229384415
 20
113.6018229068
 30
0.0
 11
78.7948219176
 21
113.4798613621
 31
0.0
  0
LINE
  5
2EE
  8
0
  6
CONTINUOUS
 62
     7
 10
78.6040203367
 20
113.575503541
 30
0.0
 11
78.745227885
 21
113.4193300133
 31
0.0
  0
LINE
  5
2EF
  8
0
  6
CONTINUOUS
 62
     7
 10
74.5418739362
 20
113.366289308
 30
0.0
 11
74.5155540843
 21
113.3852067395
 31
0.0
  0
LINE
  5
2F0
  8
0
  6
CONTINUOUS
 62
     7
 10
74.5418735829
 20
113.3662888187
 30
0.0
 11
74.4199120383
 21
113.1944053426
 31
0.0
  0
LINE
  5
2F1
  8
0
  6
CONTINUOUS
 62
     7
 10
74.5155542172
 20
113.3852069235
 30
0.0
 11
74.3593806895
 21
113.2439993752
 31
0.0
  0
LINE
  5
2F2
  8
0
  6
CONTINUOUS
 62
     7
 10
78.3874040002
 20
117.6828872761
 30
0.0
 11
78.4137238521
 21
117.6639698446
 31
0.0
  0
LINE
  5
2F3
  8
0
  6
CONTINUOUS
 62
     7
 10
78.3874043535
 20
117.6828877654
 30
0.0
 11
78.5093658981
 21
117.8547712415
 31
0.0
  0
LINE
  5
2F4
  8
0
  6
CONTINUOUS
 62
     7
 10
78.4137237192
 20
117.6639696605
 30
0.0
 11
78.5698972469
 21
117.8051772089
 31
0.0
  0
POLYLINE
  5
2F5
  8
0
  6
CONTINUOUS
 62
     7
 66
     1
 10
0.0
 20
0.0
 30
0.0
 70
   128
  0
VERTEX
  5
52F
  8
0
  6
CONTINUOUS
 62
     7
 10
78.277888743
 20
117.7218248363
 30
0.0
  0
VERTEX
  5
530
  8
0
  6
CONTINUOUS
 62
     7
 10
78.335780406
 20
117.7106456721
 30
0.0
  0
VERTEX
  5
531
  8
0
  6
CONTINUOUS
 62
     7
 10
78.3874019627
 20
117.6828888637
 30
0.0
  0
SEQEND
  5
5FF
  8
0
  6
CONTINUOUS
 62
     7
  0
LINE
  5
2F6
  8
0
  6
CONTINUOUS
 62
     7
 10
78.3514548113
 20
117.9128601571
 30
0.0
 11
78.277888743
 21
117.7218248363
 31
0.0
  0
LINE
  5
2F7
  8
0
  6
CONTINUOUS
 62
     7
 10
78.3583273559
 20
117.9126093185
 30
0.0
 11
78.3514548113
 21
117.9128601571
 31
0.0
  0
POLYLINE
  5
2F8
  8
0
  6
CONTINUOUS
 62
     7
 66
     1
 10
0.0
 20
0.0
 30
0.0
 70
   128
  0
VERTEX
  5
532
  8
0
  6
CONTINUOUS
 62
     7
 10
74.6513891933
 20
113.3273517478
 30
0.0
  0
VERTEX
  5
533
  8
0
  6
CONTINUOUS
 62
     7
 10
74.5934975303
 20
113.338530912
 30
0.0
  0
VERTEX
  5
534
  8
0
  6
CONTINUOUS
 62
     7
 10
74.5418759737
 20
113.3662877203
 30
0.0
  0
SEQEND
  5
600
  8
0
  6
CONTINUOUS
 62
     7
  0
LINE
  5
2F9
  8
0
  6
CONTINUOUS
 62
     7
 10
74.577823125
 20
113.136316427
 30
0.0
 11
74.6513891933
 21
113.3273517478
 31
0.0
  0
LINE
  5
2FA
  8
0
  6
CONTINUOUS
 62
     7
 10
74.5709505804
 20
113.1365672656
 30
0.0
 11
74.577823125
 21
113.1363164269
 31
0.0
  0
POLYLINE
  5
2FB
  8
0
  6
CONTINUOUS
 62
     7
 66
     1
 10
0.0
 20
0.0
 30
0.0
 70
   128
  0
VERTEX
  5
535
  8
0
  6
CONTINUOUS
 62
     7
 10
78.6618755124
 20
113.7113385172
 30
0.0
  0
VERTEX
  5
536
  8
0
  6
CONTINUOUS
 62
     7
 10
78.6506963483
 20
113.6534468542
 30
0.0
  0
VERTEX
  5
537
  8
0
  6
CONTINUOUS
 62
     7
 10
78.6229395399
 20
113.6018252975
 30
0.0
  0
SEQEND
  5
601
  8
0
  6
CONTINUOUS
 62
     7
  0
LINE
  5
2FC
  8
0
  6
CONTINUOUS
 62
     7
 10
78.8529108333
 20
113.6377724489
 30
0.0
 11
78.6618755124
 21
113.7113385172
 31
0.0
  0
LINE
  5
2FD
  8
0
  6
CONTINUOUS
 62
     7
 10
78.8526599946
 20
113.6308999043
 30
0.0
 11
78.8529108333
 21
113.6377724489
 31
0.0
  0
POLYLINE
  5
2FE
  8
0
  6
CONTINUOUS
 62
     7
 66
     1
 10
0.0
 20
0.0
 30
0.0
 70
   128
  0
VERTEX
  5
538
  8
0
  6
CONTINUOUS
 62
     7
 10
74.2674024239
 20
117.3378380669
 30
0.0
  0
VERTEX
  5
539
  8
0
  6
CONTINUOUS
 62
     7
 10
74.2785815881
 20
117.3957297299
 30
0.0
  0
VERTEX
  5
53A
  8
0
  6
CONTINUOUS
 62
     7
 10
74.3063383965
 20
117.4473512866
 30
0.0
  0
SEQEND
  5
602
  8
0
  6
CONTINUOUS
 62
     7
  0
LINE
  5
2FF
  8
0
  6
CONTINUOUS
 62
     7
 10
74.0763671031
 20
117.4114041352
 30
0.0
 11
74.2674024239
 21
117.3378380669
 31
0.0
  0
LINE
  5
300
  8
0
  6
CONTINUOUS
 62
     7
 10
74.0766179417
 20
117.4182766798
 30
0.0
 11
74.0763671031
 21
117.4114041352
 31
0.0
  0
LINE
  5
301
  8
0
  6
CONTINUOUS
 62
     7
 10
74.1840504401
 20
117.6298466881
 30
0.0
 11
74.2206402466
 21
117.6643422525
 31
0.0
  0
LINE
  5
302
  8
0
  6
CONTINUOUS
 62
     7
 10
74.2206402466
 20
117.6643422525
 30
0.0
 11
74.1876293529
 21
117.6982760083
 31
0.0
  0
LINE
  5
303
  8
0
  6
CONTINUOUS
 62
     7
 10
78.7452274962
 20
113.419329896
 30
0.0
 11
78.7086376898
 21
113.3848343315
 31
0.0
  0
LINE
  5
304
  8
0
  6
CONTINUOUS
 62
     7
 10
78.7086376898
 20
113.3848343315
 30
0.0
 11
78.7416485834
 21
113.3509005758
 31
0.0
  0
LINE
  5
305
  8
0
  6
CONTINUOUS
 62
     7
 10
74.3593805721
 20
113.243999764
 30
0.0
 11
74.3248850077
 21
113.2805895704
 31
0.0
  0
LINE
  5
306
  8
0
  6
CONTINUOUS
 62
     7
 10
74.3248850077
 20
113.2805895704
 30
0.0
 11
74.2909512519
 21
113.2475786768
 31
0.0
  0
LINE
  5
307
  8
0
  6
CONTINUOUS
 62
     7
 10
78.5698973643
 20
117.8051768201
 30
0.0
 11
78.6043929287
 21
117.7685870136
 31
0.0
  0
LINE
  5
308
  8
0
  6
CONTINUOUS
 62
     7
 10
78.6043929287
 20
117.7685870136
 30
0.0
 11
78.6383266844
 21
117.8015979073
 31
0.0
  0
LINE
  5
309
  8
0
  6
CONTINUOUS
 62
     7
 10
74.2206402742
 20
117.6643422586
 30
0.0
 11
74.3179763203
 21
117.7002462326
 31
0.0
  0
POLYLINE
  5
30A
  8
0
  6
CONTINUOUS
 62
     7
 66
     1
 10
0.0
 20
0.0
 30
0.0
 70
   128
  0
VERTEX
  5
53B
  8
0
  6
CONTINUOUS
 62
     7
 10
74.3179757519
 20
117.7002461974
 30
0.0
  0
VERTEX
  5
53C
  8
0
  6
CONTINUOUS
 62
     7
 10
74.3307685081
 20
117.67068898
 30
0.0
  0
VERTEX
  5
53D
  8
0
  6
CONTINUOUS
 62
     7
 10
74.356217733
 20
117.6343390692
 30
0.0
  0
SEQEND
  5
603
  8
0
  6
CONTINUOUS
 62
     7
  0
LINE
  5
30B
  8
0
  6
CONTINUOUS
 62
     7
 10
74.3562177824
 20
117.6343391029
 30
0.0
 11
74.4528339628
 21
117.522039646
 31
0.0
  0
POLYLINE
  5
30C
  8
0
  6
CONTINUOUS
 62
     7
 66
     1
 10
0.0
 20
0.0
 30
0.0
 70
   128
  0
VERTEX
  5
53E
  8
0
  6
CONTINUOUS
 62
     7
 10
74.4528339613
 20
117.5220396398
 30
0.0
  0
VERTEX
  5
53F
  8
0
  6
CONTINUOUS
 62
     7
 10
74.3850115287
 20
117.5066747783
 30
0.0
  0
VERTEX
  5
540
  8
0
  6
CONTINUOUS
 62
     7
 10
74.3270886411
 20
117.470042992
 30
0.0
  0
SEQEND
  5
604
  8
0
  6
CONTINUOUS
 62
     7
  0
LINE
  5
30D
  8
0
  6
CONTINUOUS
 62
     7
 10
74.3270886611
 20
117.4700429913
 30
0.0
 11
74.3252576989
 21
117.4736730445
 31
0.0
  0
LINE
  5
30E
  8
0
  6
CONTINUOUS
 62
     7
 10
74.3248850016
 20
113.280589598
 30
0.0
 11
74.2889810276
 21
113.3779256442
 31
0.0
  0
POLYLINE
  5
30F
  8
0
  6
CONTINUOUS
 62
     7
 66
     1
 10
0.0
 20
0.0
 30
0.0
 70
   128
  0
VERTEX
  5
541
  8
0
  6
CONTINUOUS
 62
     7
 10
74.2889810628
 20
113.3779250758
 30
0.0
  0
VERTEX
  5
542
  8
0
  6
CONTINUOUS
 62
     7
 10
74.3185382802
 20
113.3907178319
 30
0.0
  0
VERTEX
  5
543
  8
0
  6
CONTINUOUS
 62
     7
 10
74.354888191
 20
113.4161670569
 30
0.0
  0
SEQEND
  5
605
  8
0
  6
CONTINUOUS
 62
     7
  0
LINE
  5
310
  8
0
  6
CONTINUOUS
 62
     7
 10
74.3548862006
 20
113.4161692939
 30
0.0
 11
74.4671887302
 21
113.5127830148
 31
0.0
  0
POLYLINE
  5
311
  8
0
  6
CONTINUOUS
 62
     7
 66
     1
 10
0.0
 20
0.0
 30
0.0
 70
   128
  0
VERTEX
  5
544
  8
0
  6
CONTINUOUS
 62
     7
 10
74.4671876204
 20
113.5127832852
 30
0.0
  0
VERTEX
  5
545
  8
0
  6
CONTINUOUS
 62
     7
 10
74.4825524819
 20
113.4449608526
 30
0.0
  0
VERTEX
  5
546
  8
0
  6
CONTINUOUS
 62
     7
 10
74.5191842682
 20
113.387037965
 30
0.0
  0
SEQEND
  5
606
  8
0
  6
CONTINUOUS
 62
     7
  0
LINE
  5
312
  8
0
  6
CONTINUOUS
 62
     7
 10
74.5191842689
 20
113.387037985
 30
0.0
 11
74.5155542157
 21
113.3852070227
 31
0.0
  0
LINE
  5
313
  8
0
  6
CONTINUOUS
 62
     7
 10
78.7086376622
 20
113.3848343254
 30
0.0
 11
78.611301616
 21
113.3489303515
 31
0.0
  0
POLYLINE
  5
314
  8
0
  6
CONTINUOUS
 62
     7
 66
     1
 10
0.0
 20
0.0
 30
0.0
 70
   128
  0
VERTEX
  5
547
  8
0
  6
CONTINUOUS
 62
     7
 10
78.6113021844
 20
113.3489303866
 30
0.0
  0
VERTEX
  5
548
  8
0
  6
CONTINUOUS
 62
     7
 10
78.5985094283
 20
113.378487604
 30
0.0
  0
VERTEX
  5
549
  8
0
  6
CONTINUOUS
 62
     7
 10
78.5730602033
 20
113.4148375148
 30
0.0
  0
SEQEND
  5
607
  8
0
  6
CONTINUOUS
 62
     7
  0
LINE
  5
315
  8
0
  6
CONTINUOUS
 62
     7
 10
78.5730601441
 20
113.4148374723
 30
0.0
 11
78.4764439773
 21
113.5271369534
 31
0.0
  0
POLYLINE
  5
316
  8
0
  6
CONTINUOUS
 62
     7
 66
     1
 10
0.0
 20
0.0
 30
0.0
 70
   128
  0
VERTEX
  5
54A
  8
0
  6
CONTINUOUS
 62
     7
 10
78.476443975
 20
113.5271369443
 30
0.0
  0
VERTEX
  5
54B
  8
0
  6
CONTINUOUS
 62
     7
 10
78.5442664077
 20
113.5425018057
 30
0.0
  0
VERTEX
  5
54C
  8
0
  6
CONTINUOUS
 62
     7
 10
78.6021892952
 20
113.5791335921
 30
0.0
  0
SEQEND
  5
608
  8
0
  6
CONTINUOUS
 62
     7
  0
LINE
  5
317
  8
0
  6
CONTINUOUS
 62
     7
 10
78.6021892753
 20
113.5791335928
 30
0.0
 11
78.6040202375
 21
113.5755035395
 31
0.0
  0
LINE
  5
318
  8
0
  6
CONTINUOUS
 62
     7
 10
78.6043929348
 20
117.768586986
 30
0.0
 11
78.6402969087
 21
117.6712509399
 31
0.0
  0
POLYLINE
  5
319
  8
0
  6
CONTINUOUS
 62
     7
 66
     1
 10
0.0
 20
0.0
 30
0.0
 70
   128
  0
VERTEX
  5
54D
  8
0
  6
CONTINUOUS
 62
     7
 10
78.6402968736
 20
117.6712515083
 30
0.0
  0
VERTEX
  5
54E
  8
0
  6
CONTINUOUS
 62
     7
 10
78.6107396562
 20
117.6584587521
 30
0.0
  0
VERTEX
  5
54F
  8
0
  6
CONTINUOUS
 62
     7
 10
78.5743897454
 20
117.6330095272
 30
0.0
  0
SEQEND
  5
609
  8
0
  6
CONTINUOUS
 62
     7
  0
LINE
  5
31A
  8
0
  6
CONTINUOUS
 62
     7
 10
78.5743898184
 20
117.6330094332
 30
0.0
 11
78.4620902293
 21
117.5363933201
 31
0.0
  0
POLYLINE
  5
31B
  8
0
  6
CONTINUOUS
 62
     7
 66
     1
 10
0.0
 20
0.0
 30
0.0
 70
   128
  0
VERTEX
  5
550
  8
0
  6
CONTINUOUS
 62
     7
 10
78.462090316
 20
117.5363932989
 30
0.0
  0
VERTEX
  5
551
  8
0
  6
CONTINUOUS
 62
     7
 10
78.4467254545
 20
117.6042157315
 30
0.0
  0
VERTEX
  5
552
  8
0
  6
CONTINUOUS
 62
     7
 10
78.4100936681
 20
117.6621386191
 30
0.0
  0
SEQEND
  5
60A
  8
0
  6
CONTINUOUS
 62
     7
  0
LINE
  5
31C
  8
0
  6
CONTINUOUS
 62
     7
 10
78.4100936674
 20
117.6621385991
 30
0.0
 11
78.4137237207
 21
117.6639695613
 31
0.0
  0
POLYLINE
  5
31D
  8
0
  6
CONTINUOUS
 62
     7
 66
     1
 10
0.0
 20
0.0
 30
0.0
 70
   128
  0
VERTEX
  5
553
  8
0
  6
CONTINUOUS
 62
     7
 10
74.3482191728
 20
117.2700451057
 30
0.0
  0
VERTEX
  5
554
  8
0
  6
CONTINUOUS
 62
     7
 10
74.342426076
 20
117.2714837313
 30
0.0
  0
VERTEX
  5
555
  8
0
  6
CONTINUOUS
 62
     7
 10
74.3378303134
 20
117.272621519
 30
0.0
  0
SEQEND
  5
60B
  8
0
  6
CONTINUOUS
 62
     7
  0
LINE
  5
31E
  8
0
  6
CONTINUOUS
 62
     7
 10
74.3417530591
 20
117.2015251924
 30
0.0
 11
74.3517826153
 21
117.2020508191
 31
0.0
  0
LINE
  5
31F
  8
0
  6
CONTINUOUS
 62
     7
 10
74.3378303134
 20
117.272621519
 30
0.0
 11
74.3417530591
 21
117.2015251924
 31
0.0
  0
LINE
  5
320
  8
0
  6
CONTINUOUS
 62
     7
 10
74.5322902109
 20
113.5618731699
 30
0.0
 11
74.4977290299
 21
113.5424447004
 31
0.0
  0
POLYLINE
  5
321
  8
0
  6
CONTINUOUS
 62
     7
 66
     1
 10
0.0
 20
0.0
 30
0.0
 70
   128
  0
VERTEX
  5
556
  8
0
  6
CONTINUOUS
 62
     7
 10
74.4977290299
 20
113.5424447004
 30
0.0
  0
VERTEX
  5
557
  8
0
  6
CONTINUOUS
 62
     7
 10
74.4000476431
 20
113.5220749934
 30
0.0
  0
VERTEX
  5
558
  8
0
  6
CONTINUOUS
 62
     7
 10
74.2815198175
 20
113.4765427137
 30
0.0
  0
SEQEND
  5
60C
  8
0
  6
CONTINUOUS
 62
     7
  0
POLYLINE
  5
322
  8
0
  6
CONTINUOUS
 62
     7
 66
     1
 10
0.0
 20
0.0
 30
0.0
 70
   128
  0
VERTEX
  5
559
  8
0
  6
CONTINUOUS
 62
     7
 10
74.0880004327
 20
117.1691001678
 30
0.0
  0
VERTEX
  5
55A
  8
0
  6
CONTINUOUS
 62
     7
 10
74.2020082147
 20
117.1756106864
 30
0.0
  0
VERTEX
  5
55B
  8
0
  6
CONTINUOUS
 62
     7
 10
74.2848784352
 20
117.1912228909
 30
0.0
  0
SEQEND
  5
60D
  8
0
  6
CONTINUOUS
 62
     7
  0
LINE
  5
323
  8
0
  6
CONTINUOUS
 62
     7
 10
74.2848784352
 20
117.1912228909
 30
0.0
 11
74.3417530591
 21
117.2015251924
 31
0.0
  0
LINE
  5
324
  8
0
  6
CONTINUOUS
 62
     7
 10
74.5422630731
 20
113.5674671693
 30
0.0
 11
74.5322902109
 21
113.5618731699
 31
0.0
  0
POLYLINE
  5
325
  8
0
  6
CONTINUOUS
 62
     7
 66
     1
 10
0.0
 20
0.0
 30
0.0
 70
   128
  0
VERTEX
  5
55C
  8
0
  6
CONTINUOUS
 62
     7
 10
78.5914476229
 20
113.7765550651
 30
0.0
  0
VERTEX
  5
55D
  8
0
  6
CONTINUOUS
 62
     7
 10
78.5856051555
 20
113.7780020186
 30
0.0
  0
VERTEX
  5
55E
  8
0
  6
CONTINUOUS
 62
     7
 10
78.5810587504
 20
113.7791314816
 30
0.0
  0
SEQEND
  5
60E
  8
0
  6
CONTINUOUS
 62
     7
  0
LINE
  5
326
  8
0
  6
CONTINUOUS
 62
     7
 10
78.5875248773
 20
113.8476513917
 30
0.0
 11
78.577495321
 21
113.8471257649
 31
0.0
  0
LINE
  5
327
  8
0
  6
CONTINUOUS
 62
     7
 10
78.5914476229
 20
113.7765550651
 30
0.0
 11
78.5875248773
 21
113.8476513917
 31
0.0
  0
LINE
  5
328
  8
0
  6
CONTINUOUS
 62
     7
 10
78.3969877255
 20
117.4873034142
 30
0.0
 11
78.4312278648
 21
117.5065487762
 31
0.0
  0
POLYLINE
  5
329
  8
0
  6
CONTINUOUS
 62
     7
 66
     1
 10
0.0
 20
0.0
 30
0.0
 70
   128
  0
VERTEX
  5
55F
  8
0
  6
CONTINUOUS
 62
     7
 10
78.4312278648
 20
117.5065487762
 30
0.0
  0
VERTEX
  5
560
  8
0
  6
CONTINUOUS
 62
     7
 10
78.530300389
 20
117.5275590703
 30
0.0
  0
VERTEX
  5
561
  8
0
  6
CONTINUOUS
 62
     7
 10
78.6477587061
 20
117.5726343136
 30
0.0
  0
SEQEND
  5
60F
  8
0
  6
CONTINUOUS
 62
     7
  0
POLYLINE
  5
32A
  8
0
  6
CONTINUOUS
 62
     7
 66
     1
 10
0.0
 20
0.0
 30
0.0
 70
   128
  0
VERTEX
  5
562
  8
0
  6
CONTINUOUS
 62
     7
 10
78.8412775037
 20
113.8800764162
 30
0.0
  0
VERTEX
  5
563
  8
0
  6
CONTINUOUS
 62
     7
 10
78.7272697217
 20
113.8735658977
 30
0.0
  0
VERTEX
  5
564
  8
0
  6
CONTINUOUS
 62
     7
 10
78.6443995012
 20
113.8579536932
 30
0.0
  0
SEQEND
  5
610
  8
0
  6
CONTINUOUS
 62
     7
  0
LINE
  5
32B
  8
0
  6
CONTINUOUS
 62
     7
 10
78.6443995012
 20
113.8579536932
 30
0.0
 11
78.5875248773
 21
113.8476513917
 31
0.0
  0
LINE
  5
32C
  8
0
  6
CONTINUOUS
 62
     7
 10
78.3969877255
 20
117.4873034142
 30
0.0
 11
78.3870148633
 21
117.4817094148
 31
0.0
  0
LINE
  5
32D
  8
0
  6
CONTINUOUS
 62
     7
 10
78.4273540904
 20
113.5922395347
 30
0.0
 11
78.4466074685
 21
113.5579853383
 31
0.0
  0
POLYLINE
  5
32E
  8
0
  6
CONTINUOUS
 62
     7
 66
     1
 10
0.0
 20
0.0
 30
0.0
 70
   128
  0
VERTEX
  5
565
  8
0
  6
CONTINUOUS
 62
     7
 10
78.4466074685
 20
113.5579853383
 30
0.0
  0
VERTEX
  5
566
  8
0
  6
CONTINUOUS
 62
     7
 10
78.4676833861
 20
113.4587961528
 30
0.0
  0
VERTEX
  5
567
  8
0
  6
CONTINUOUS
 62
     7
 10
78.5126855298
 20
113.341467844
 30
0.0
  0
SEQEND
  5
611
  8
0
  6
CONTINUOUS
 62
     7
  0
POLYLINE
  5
32F
  8
0
  6
CONTINUOUS
 62
     7
 66
     1
 10
0.0
 20
0.0
 30
0.0
 70
   128
  0
VERTEX
  5
568
  8
0
  6
CONTINUOUS
 62
     7
 10
74.8201270924
 20
113.1479497566
 30
0.0
  0
VERTEX
  5
569
  8
0
  6
CONTINUOUS
 62
     7
 10
74.8136165738
 20
113.2619575386
 30
0.0
  0
VERTEX
  5
56A
  8
0
  6
CONTINUOUS
 62
     7
 10
74.7980043693
 20
113.344827759
 30
0.0
  0
SEQEND
  5
612
  8
0
  6
CONTINUOUS
 62
     7
  0
LINE
  5
330
  8
0
  6
CONTINUOUS
 62
     7
 10
74.7980043693
 20
113.344827759
 30
0.0
 11
74.7877020679
 21
113.4017023829
 31
0.0
  0
LINE
  5
331
  8
0
  6
CONTINUOUS
 62
     7
 10
74.7877020679
 20
113.4017023829
 30
0.0
 11
74.7871764411
 21
113.4117319392
 31
0.0
  0
LINE
  5
332
  8
0
  6
CONTINUOUS
 62
     7
 10
78.4273540904
 20
113.5922395347
 30
0.0
 11
78.4217600909
 21
113.6022123969
 31
0.0
  0
POLYLINE
  5
333
  8
0
  6
CONTINUOUS
 62
     7
 66
     1
 10
0.0
 20
0.0
 30
0.0
 70
   128
  0
VERTEX
  5
56B
  8
0
  6
CONTINUOUS
 62
     7
 10
78.109150844
 20
117.9012268275
 30
0.0
  0
VERTEX
  5
56C
  8
0
  6
CONTINUOUS
 62
     7
 10
78.1156613625
 20
117.7872190455
 30
0.0
  0
VERTEX
  5
56D
  8
0
  6
CONTINUOUS
 62
     7
 10
78.1312735671
 20
117.7043488251
 30
0.0
  0
SEQEND
  5
613
  8
0
  6
CONTINUOUS
 62
     7
  0
LINE
  5
334
  8
0
  6
CONTINUOUS
 62
     7
 10
78.1312735671
 20
117.7043488251
 30
0.0
 11
78.1415758685
 21
117.6474742011
 31
0.0
  0
LINE
  5
335
  8
0
  6
CONTINUOUS
 62
     7
 10
78.1415758685
 20
117.6474742011
 30
0.0
 11
78.1421014953
 21
117.6374446449
 31
0.0
  0
LINE
  5
336
  8
0
  6
CONTINUOUS
 62
     7
 10
74.501923846
 20
117.4569370494
 30
0.0
 11
74.5075178454
 21
117.4469641872
 31
0.0
  0
LINE
  5
337
  8
0
  6
CONTINUOUS
 62
     7
 10
74.501923846
 20
117.4569370494
 30
0.0
 11
74.4827355725
 21
117.4910770791
 31
0.0
  0
POLYLINE
  5
338
  8
0
  6
CONTINUOUS
 62
     7
 66
     1
 10
0.0
 20
0.0
 30
0.0
 70
   128
  0
VERTEX
  5
56E
  8
0
  6
CONTINUOUS
 62
     7
 10
74.4827355725
 20
117.4910770791
 30
0.0
  0
VERTEX
  5
56F
  8
0
  6
CONTINUOUS
 62
     7
 10
74.4616576876
 20
117.5902496164
 30
0.0
  0
VERTEX
  5
570
  8
0
  6
CONTINUOUS
 62
     7
 10
74.4165924266
 20
117.7077087136
 30
0.0
  0
SEQEND
  5
614
  8
0
  6
CONTINUOUS
 62
     7
  0
POLYLINE
  5
339
  8
0
  6
CONTINUOUS
 62
     7
 66
     1
 10
0.0
 20
0.0
 30
0.0
 70
   128
  0
VERTEX
  5
571
  8
0
  6
CONTINUOUS
 62
     7
 10
74.7166057412
 20
113.3977796373
 30
0.0
  0
VERTEX
  5
572
  8
0
  6
CONTINUOUS
 62
     7
 10
74.7180526947
 20
113.4036221048
 30
0.0
  0
VERTEX
  5
573
  8
0
  6
CONTINUOUS
 62
     7
 10
74.7191821578
 20
113.4081685098
 30
0.0
  0
SEQEND
  5
615
  8
0
  6
CONTINUOUS
 62
     7
  0
LINE
  5
33A
  8
0
  6
CONTINUOUS
 62
     7
 10
74.7166057412
 20
113.3977796373
 30
0.0
 11
74.7877020679
 21
113.4017023829
 31
0.0
  0
POLYLINE
  5
33B
  8
0
  6
CONTINUOUS
 62
     7
 66
     1
 10
0.0
 20
0.0
 30
0.0
 70
   128
  0
VERTEX
  5
574
  8
0
  6
CONTINUOUS
 62
     7
 10
78.2126721951
 20
117.6513969468
 30
0.0
  0
VERTEX
  5
575
  8
0
  6
CONTINUOUS
 62
     7
 10
78.2112252416
 20
117.6455544793
 30
0.0
  0
VERTEX
  5
576
  8
0
  6
CONTINUOUS
 62
     7
 10
78.2100957786
 20
117.6410080743
 30
0.0
  0
SEQEND
  5
616
  8
0
  6
CONTINUOUS
 62
     7
  0
LINE
  5
33C
  8
0
  6
CONTINUOUS
 62
     7
 10
78.2126721951
 20
117.6513969468
 30
0.0
 11
78.1415758685
 21
117.6474742011
 31
0.0
  0
POLYLINE
  5
33D
  8
0
  6
CONTINUOUS
 62
     7
 66
     1
 10
0.0
 20
0.0
 30
0.0
 70
   128
  0
VERTEX
  5
577
  8
0
  6
CONTINUOUS
 62
     7
 10
78.2494049976
 20
117.651108493
 30
0.0
  0
VERTEX
  5
578
  8
0
  6
CONTINUOUS
 62
     7
 10
78.299103709
 20
117.6376686402
 30
0.0
  0
VERTEX
  5
579
  8
0
  6
CONTINUOUS
 62
     7
 10
78.3420568438
 20
117.6096718423
 30
0.0
  0
SEQEND
  5
617
  8
0
  6
CONTINUOUS
 62
     7
  0
LINE
  5
33E
  8
0
  6
CONTINUOUS
 62
     7
 10
78.3336643438
 20
117.6003512647
 30
0.0
 11
78.3420565999
 21
117.6096718094
 31
0.0
  0
LINE
  5
33F
  8
0
  6
CONTINUOUS
 62
     7
 10
78.2494049976
 20
117.651108493
 30
0.0
 11
78.2452163045
 21
117.6404949278
 31
0.0
  0
POLYLINE
  5
340
  8
0
  6
CONTINUOUS
 62
     7
 66
     1
 10
0.0
 20
0.0
 30
0.0
 70
   128
  0
VERTEX
  5
57A
  8
0
  6
CONTINUOUS
 62
     7
 10
78.5911591692
 20
113.7398222626
 30
0.0
  0
VERTEX
  5
57B
  8
0
  6
CONTINUOUS
 62
     7
 10
78.5777193164
 20
113.6901235512
 30
0.0
  0
VERTEX
  5
57C
  8
0
  6
CONTINUOUS
 62
     7
 10
78.5497225185
 20
113.6471704164
 30
0.0
  0
SEQEND
  5
618
  8
0
  6
CONTINUOUS
 62
     7
  0
LINE
  5
341
  8
0
  6
CONTINUOUS
 62
     7
 10
78.5404019409
 20
113.6555629164
 30
0.0
 11
78.5497224855
 21
113.6471706603
 31
0.0
  0
LINE
  5
342
  8
0
  6
CONTINUOUS
 62
     7
 10
78.5911591692
 20
113.7398222626
 30
0.0
 11
78.580545604
 21
113.7440109558
 31
0.0
  0
POLYLINE
  5
343
  8
0
  6
CONTINUOUS
 62
     7
 66
     1
 10
0.0
 20
0.0
 30
0.0
 70
   128
  0
VERTEX
  5
57D
  8
0
  6
CONTINUOUS
 62
     7
 10
74.3381187672
 20
117.3093543215
 30
0.0
  0
VERTEX
  5
57E
  8
0
  6
CONTINUOUS
 62
     7
 10
74.35155862
 20
117.3590530328
 30
0.0
  0
VERTEX
  5
57F
  8
0
  6
CONTINUOUS
 62
     7
 10
74.3795554179
 20
117.4020061676
 30
0.0
  0
SEQEND
  5
619
  8
0
  6
CONTINUOUS
 62
     7
  0
LINE
  5
344
  8
0
  6
CONTINUOUS
 62
     7
 10
74.3888759955
 20
117.3936136677
 30
0.0
 11
74.3795554508
 21
117.4020059238
 31
0.0
  0
LINE
  5
345
  8
0
  6
CONTINUOUS
 62
     7
 10
74.3381187672
 20
117.3093543215
 30
0.0
 11
74.3487323324
 21
117.3051656283
 31
0.0
  0
ARC
  5
346
  8
0
  6
CONTINUOUS
 62
     7
 10
78.4259441126
 20
113.7591442373
 30
0.0
 40
0.1669106578125937
 50
270.4840118498
 51
317.866520011
  0
POLYLINE
  5
347
  8
0
  6
CONTINUOUS
 62
     7
 66
     1
 10
0.0
 20
0.0
 30
0.0
 70
   128
  0
VERTEX
  5
580
  8
0
  6
CONTINUOUS
 62
     7
 10
74.6798729387
 20
113.398068091
 30
0.0
  0
VERTEX
  5
581
  8
0
  6
CONTINUOUS
 62
     7
 10
74.6301742274
 20
113.4115079438
 30
0.0
  0
VERTEX
  5
582
  8
0
  6
CONTINUOUS
 62
     7
 10
74.5872210926
 20
113.4395047417
 30
0.0
  0
SEQEND
  5
61A
  8
0
  6
CONTINUOUS
 62
     7
  0
LINE
  5
348
  8
0
  6
CONTINUOUS
 62
     7
 10
74.5956135925
 20
113.4488253193
 30
0.0
 11
74.5872213365
 21
113.4395047747
 31
0.0
  0
LINE
  5
349
  8
0
  6
CONTINUOUS
 62
     7
 10
74.6798729388
 20
113.3980680911
 30
0.0
 11
74.6840616319
 21
113.4086816562
 31
0.0
  0
ARC
  5
34A
  8
0
  6
CONTINUOUS
 62
     7
 10
78.2300830228
 20
117.4858934364
 30
0.0
 40
0.1669106578235372
 50
0.484011824
 51
47.8665200003
  0
ARC
  5
34B
  8
0
  6
CONTINUOUS
 62
     7
 10
74.5033338238
 20
117.2900323467
 30
0.0
 40
0.1669106578123293
 50
90.4840118498
 51
137.866520011
  0
ARC
  5
34C
  8
0
  6
CONTINUOUS
 62
     7
 10
74.6991949135
 20
113.5632831476
 30
0.0
 40
0.1669106578268747
 50
180.4840118245
 51
227.8665199997
  0
LINE
  5
34D
  8
0
  6
CONTINUOUS
 62
     7
 10
74.7166057412
 20
113.3977796373
 30
0.0
 11
74.6798729388
 21
113.3980680911
 31
0.0
  0
LINE
  5
34E
  8
0
  6
CONTINUOUS
 62
     7
 10
78.2126721951
 20
117.6513969468
 30
0.0
 11
78.2494049976
 21
117.651108493
 31
0.0
  0
LINE
  5
34F
  8
0
  6
CONTINUOUS
 62
     7
 10
78.5914476229
 20
113.7765550651
 30
0.0
 11
78.5911591692
 21
113.7398222626
 31
0.0
  0
LINE
  5
350
  8
0
  6
CONTINUOUS
 62
     7
 10
74.3378303134
 20
117.272621519
 30
0.0
 11
74.3381187672
 21
117.3093543215
 31
0.0
  0
LINE
  5
351
  8
0
  6
CONTINUOUS
 62
     7
 10
74.2757359737
 20
113.3710594608
 30
0.0
 11
74.264235783
 21
113.3616369056
 31
0.0
  0
LINE
  5
352
  8
0
  6
CONTINUOUS
 62
     7
 10
74.3248849915
 20
113.2805896474
 30
0.0
 11
74.2757437449
 21
113.3710618412
 31
0.0
  0
LINE
  5
353
  8
0
  6
CONTINUOUS
 62
     7
 10
78.6535419626
 20
117.6781171233
 30
0.0
 11
78.6650421534
 21
117.6875396785
 31
0.0
  0
LINE
  5
354
  8
0
  6
CONTINUOUS
 62
     7
 10
78.6043929449
 20
117.7685869367
 30
0.0
 11
78.6535341915
 21
117.6781147429
 31
0.0
  0
LINE
  5
355
  8
0
  6
CONTINUOUS
 62
     7
 10
78.6181677994
 20
113.3356852976
 30
0.0
 11
78.6275903546
 21
113.3241851068
 31
0.0
  0
LINE
  5
356
  8
0
  6
CONTINUOUS
 62
     7
 10
78.7086376128
 20
113.3848343153
 30
0.0
 11
78.618165419
 21
113.3356930687
 31
0.0
  0
LINE
  5
357
  8
0
  6
CONTINUOUS
 62
     7
 10
74.311110137
 20
117.7134912865
 30
0.0
 11
74.3016875818
 21
117.7249914772
 31
0.0
  0
LINE
  5
358
  8
0
  6
CONTINUOUS
 62
     7
 10
74.2206403235
 20
117.6643422687
 30
0.0
 11
74.3111125174
 21
117.7134835153
 31
0.0
  0
ARC
  5
359
  8
0
  6
CONTINUOUS
 62
     7
 10
74.7376226664
 20
113.2649975122
 30
0.0
 40
0.3667862717096046
 50
130.8498855129
 51
137.5024811913
  0
POLYLINE
  5
35A
  8
0
  6
CONTINUOUS
 62
     7
 66
     1
 10
0.0
 20
0.0
 30
0.0
 70
   128
  0
VERTEX
  5
583
  8
0
  6
CONTINUOUS
 62
     7
 10
74.5872212458
 20
113.4395049116
 30
0.0
  0
VERTEX
  5
584
  8
0
  6
CONTINUOUS
 62
     7
 10
74.5552427235
 20
113.4126706133
 30
0.0
  0
VERTEX
  5
585
  8
0
  6
CONTINUOUS
 62
     7
 10
74.5191842682
 20
113.387037965
 30
0.0
  0
SEQEND
  5
61B
  8
0
  6
CONTINUOUS
 62
     7
  0
LINE
  5
35B
  8
0
  6
CONTINUOUS
 62
     7
 10
74.2687738801
 20
117.2901764941
 30
0.0
 11
74.3378303134
 21
117.272621519
 31
0.0
  0
LINE
  5
35C
  8
0
  6
CONTINUOUS
 62
     7
 10
74.274761422
 20
117.2074450255
 30
0.0
 11
74.3417530591
 21
117.2015251924
 31
0.0
  0
LINE
  5
35D
  8
0
  6
CONTINUOUS
 62
     7
 10
74.274761422
 20
117.2074450255
 30
0.0
 11
74.2687738811
 21
117.2901764938
 31
0.0
  0
LINE
  5
35E
  8
0
  6
CONTINUOUS
 62
     7
 10
74.6990507662
 20
113.328723204
 30
0.0
 11
74.7166057412
 21
113.3977796373
 31
0.0
  0
LINE
  5
35F
  8
0
  6
CONTINUOUS
 62
     7
 10
74.7817822348
 20
113.3347107459
 30
0.0
 11
74.7877020679
 21
113.4017023829
 31
0.0
  0
LINE
  5
360
  8
0
  6
CONTINUOUS
 62
     7
 10
74.7817822348
 20
113.3347107459
 30
0.0
 11
74.6990507664
 21
113.328723205
 31
0.0
  0
LINE
  5
361
  8
0
  6
CONTINUOUS
 62
     7
 10
78.6605040562
 20
113.75900009
 30
0.0
 11
78.5914476229
 21
113.7765550651
 31
0.0
  0
LINE
  5
362
  8
0
  6
CONTINUOUS
 62
     7
 10
78.6545165143
 20
113.8417315586
 30
0.0
 11
78.5875248773
 21
113.8476513917
 31
0.0
  0
LINE
  5
363
  8
0
  6
CONTINUOUS
 62
     7
 10
78.6545165143
 20
113.8417315586
 30
0.0
 11
78.6605040553
 21
113.7590000903
 31
0.0
  0
LINE
  5
364
  8
0
  6
CONTINUOUS
 62
     7
 10
78.2302271702
 20
117.7204533801
 30
0.0
 11
78.2126721951
 21
117.6513969468
 31
0.0
  0
LINE
  5
365
  8
0
  6
CONTINUOUS
 62
     7
 10
78.1474957016
 20
117.7144658382
 30
0.0
 11
78.1415758685
 21
117.6474742011
 31
0.0
  0
LINE
  5
366
  8
0
  6
CONTINUOUS
 62
     7
 10
78.1474957016
 20
117.7144658382
 30
0.0
 11
78.23022717
 21
117.7204533791
 31
0.0
  0
POLYLINE
  5
367
  8
0
  6
CONTINUOUS
 62
     7
 66
     1
 10
0.0
 20
0.0
 30
0.0
 70
   128
  0
VERTEX
  5
586
  8
0
  6
CONTINUOUS
 62
     7
 10
78.4620902293
 20
117.5363933201
 30
0.0
  0
VERTEX
  5
587
  8
0
  6
CONTINUOUS
 62
     7
 10
78.4459343238
 20
117.5179554731
 30
0.0
  0
VERTEX
  5
588
  8
0
  6
CONTINUOUS
 62
     7
 10
78.4312468582
 20
117.5065496033
 30
0.0
  0
SEQEND
  5
61C
  8
0
  6
CONTINUOUS
 62
     7
  0
POLYLINE
  5
368
  8
0
  6
CONTINUOUS
 62
     7
 66
     1
 10
0.0
 20
0.0
 30
0.0
 70
   128
  0
VERTEX
  5
589
  8
0
  6
CONTINUOUS
 62
     7
 10
78.3420566906
 20
117.6096716725
 30
0.0
  0
VERTEX
  5
58A
  8
0
  6
CONTINUOUS
 62
     7
 10
78.3740352128
 20
117.6365059708
 30
0.0
  0
VERTEX
  5
58B
  8
0
  6
CONTINUOUS
 62
     7
 10
78.4100936682
 20
117.6621386191
 30
0.0
  0
SEQEND
  5
61D
  8
0
  6
CONTINUOUS
 62
     7
  0
POLYLINE
  5
369
  8
0
  6
CONTINUOUS
 62
     7
 66
     1
 10
0.0
 20
0.0
 30
0.0
 70
   128
  0
VERTEX
  5
58C
  8
0
  6
CONTINUOUS
 62
     7
 10
78.4764439773
 20
113.5271369534
 30
0.0
  0
VERTEX
  5
58D
  8
0
  6
CONTINUOUS
 62
     7
 10
78.4580759809
 20
113.5431627252
 30
0.0
  0
VERTEX
  5
58E
  8
0
  6
CONTINUOUS
 62
     7
 10
78.4466083053
 20
113.5579661449
 30
0.0
  0
SEQEND
  5
61E
  8
0
  6
CONTINUOUS
 62
     7
  0
POLYLINE
  5
36A
  8
0
  6
CONTINUOUS
 62
     7
 66
     1
 10
0.0
 20
0.0
 30
0.0
 70
   128
  0
VERTEX
  5
58F
  8
0
  6
CONTINUOUS
 62
     7
 10
78.5497223486
 20
113.6471705696
 30
0.0
  0
VERTEX
  5
590
  8
0
  6
CONTINUOUS
 62
     7
 10
78.576556647
 20
113.6151920474
 30
0.0
  0
VERTEX
  5
591
  8
0
  6
CONTINUOUS
 62
     7
 10
78.6021892953
 20
113.579133592
 30
0.0
  0
SEQEND
  5
61F
  8
0
  6
CONTINUOUS
 62
     7
  0
POLYLINE
  5
36B
  8
0
  6
CONTINUOUS
 62
     7
 66
     1
 10
0.0
 20
0.0
 30
0.0
 70
   128
  0
VERTEX
  5
592
  8
0
  6
CONTINUOUS
 62
     7
 10
74.4528339628
 20
117.522039646
 30
0.0
  0
VERTEX
  5
593
  8
0
  6
CONTINUOUS
 62
     7
 10
74.471209965
 20
117.5060047472
 30
0.0
  0
VERTEX
  5
594
  8
0
  6
CONTINUOUS
 62
     7
 10
74.4827347102
 20
117.4910966835
 30
0.0
  0
SEQEND
  5
620
  8
0
  6
CONTINUOUS
 62
     7
  0
POLYLINE
  5
36C
  8
0
  6
CONTINUOUS
 62
     7
 66
     1
 10
0.0
 20
0.0
 30
0.0
 70
   128
  0
VERTEX
  5
595
  8
0
  6
CONTINUOUS
 62
     7
 10
74.3795555877
 20
117.4020060145
 30
0.0
  0
VERTEX
  5
596
  8
0
  6
CONTINUOUS
 62
     7
 10
74.3527212894
 20
117.4339845367
 30
0.0
  0
VERTEX
  5
597
  8
0
  6
CONTINUOUS
 62
     7
 10
74.3270886411
 20
117.470042992
 30
0.0
  0
SEQEND
  5
621
  8
0
  6
CONTINUOUS
 62
     7
  0
LINE
  5
36D
  8
0
  6
CONTINUOUS
 62
     7
 10
74.2747614121
 20
117.2074450231
 30
0.0
 11
74.2848784232
 21
117.1912228939
 31
0.0
  0
LINE
  5
36E
  8
0
  6
CONTINUOUS
 62
     7
 10
78.1474956993
 20
117.7144658481
 30
0.0
 11
78.13127357
 21
117.704348837
 31
0.0
  0
LINE
  5
36F
  8
0
  6
CONTINUOUS
 62
     7
 10
78.6545165242
 20
113.841731561
 30
0.0
 11
78.6443995132
 21
113.8579536902
 31
0.0
  0
LINE
  5
370
  8
0
  6
CONTINUOUS
 62
     7
 10
74.7817822371
 20
113.334710736
 30
0.0
 11
74.7980043663
 21
113.344827747
 31
0.0
  0
POLYLINE
  5
371
  8
0
  6
CONTINUOUS
 62
     7
 66
     1
 10
0.0
 20
0.0
 30
0.0
 70
   128
  0
VERTEX
  5
598
  8
0
  6
CONTINUOUS
 62
     7
 10
74.6513891933
 20
113.3273517478
 30
0.0
  0
VERTEX
  5
599
  8
0
  6
CONTINUOUS
 62
     7
 10
74.6659884877
 20
113.3635696963
 30
0.0
  0
VERTEX
  5
59A
  8
0
  6
CONTINUOUS
 62
     7
 10
74.6798729387
 20
113.398068091
 30
0.0
  0
SEQEND
  5
622
  8
0
  6
CONTINUOUS
 62
     7
  0
LINE
  5
372
  8
0
  6
CONTINUOUS
 62
     7
 10
74.5418759826
 20
113.3662877247
 30
0.0
 11
74.5425305692
 21
113.3676471009
 31
0.0
  0
ARC
  5
373
  8
0
  6
CONTINUOUS
 62
     7
 10
74.9862661938
 20
113.1414998722
 30
0.0
 40
0.498040032550684
 50
143.2477837207
 51
152.9946047788
  0
POLYLINE
  5
374
  8
0
  6
CONTINUOUS
 62
     7
 66
     1
 10
0.0
 20
0.0
 30
0.0
 70
   128
  0
VERTEX
  5
59B
  8
0
  6
CONTINUOUS
 62
     7
 10
78.6618755124
 20
113.7113385172
 30
0.0
  0
VERTEX
  5
59C
  8
0
  6
CONTINUOUS
 62
     7
 10
78.6256575639
 20
113.7259378115
 30
0.0
  0
VERTEX
  5
59D
  8
0
  6
CONTINUOUS
 62
     7
 10
78.5911591692
 20
113.7398222626
 30
0.0
  0
SEQEND
  5
623
  8
0
  6
CONTINUOUS
 62
     7
  0
LINE
  5
375
  8
0
  6
CONTINUOUS
 62
     7
 10
78.6229395356
 20
113.6018253064
 30
0.0
 11
78.6215801594
 21
113.602479893
 31
0.0
  0
ARC
  5
376
  8
0
  6
CONTINUOUS
 62
     7
 10
78.847727388
 20
114.0462155176
 30
0.0
 40
0.4980400325486862
 50
233.2477837206
 51
242.9946047788
  0
POLYLINE
  5
377
  8
0
  6
CONTINUOUS
 62
     7
 66
     1
 10
0.0
 20
0.0
 30
0.0
 70
   128
  0
VERTEX
  5
59E
  8
0
  6
CONTINUOUS
 62
     7
 10
74.2674024239
 20
117.3378380669
 30
0.0
  0
VERTEX
  5
59F
  8
0
  6
CONTINUOUS
 62
     7
 10
74.3036203725
 20
117.3232387725
 30
0.0
  0
VERTEX
  5
5A0
  8
0
  6
CONTINUOUS
 62
     7
 10
74.3381187672
 20
117.3093543215
 30
0.0
  0
SEQEND
  5
624
  8
0
  6
CONTINUOUS
 62
     7
  0
LINE
  5
378
  8
0
  6
CONTINUOUS
 62
     7
 10
74.3063384008
 20
117.4473512776
 30
0.0
 11
74.307697777
 21
117.4466966911
 31
0.0
  0
ARC
  5
379
  8
0
  6
CONTINUOUS
 62
     7
 10
74.0815505484
 20
117.0029610665
 30
0.0
 40
0.4980400325498795
 50
53.2477837206
 51
62.9946047788
  0
POLYLINE
  5
37A
  8
0
  6
CONTINUOUS
 62
     7
 66
     1
 10
0.0
 20
0.0
 30
0.0
 70
   128
  0
VERTEX
  5
5A1
  8
0
  6
CONTINUOUS
 62
     7
 10
78.277888743
 20
117.7218248363
 30
0.0
  0
VERTEX
  5
5A2
  8
0
  6
CONTINUOUS
 62
     7
 10
78.2632894487
 20
117.6856068878
 30
0.0
  0
VERTEX
  5
5A3
  8
0
  6
CONTINUOUS
 62
     7
 10
78.2494049976
 20
117.651108493
 30
0.0
  0
SEQEND
  5
625
  8
0
  6
CONTINUOUS
 62
     7
  0
LINE
  5
37B
  8
0
  6
CONTINUOUS
 62
     7
 10
78.3874019538
 20
117.6828888594
 30
0.0
 11
78.3867473672
 21
117.6815294832
 31
0.0
  0
ARC
  5
37C
  8
0
  6
CONTINUOUS
 62
     7
 10
77.9430117426
 20
117.9076767119
 30
0.0
 40
0.4980400325509966
 50
323.2477837207
 51
332.9946047788
  0
LINE
  5
37D
  8
0
  6
CONTINUOUS
 62
     7
 10
78.3867473672
 20
117.6815294832
 30
0.0
 11
78.4100946292
 21
117.6621397505
 31
0.0
  0
LINE
  5
37E
  8
0
  6
CONTINUOUS
 62
     7
 10
78.6215801594
 20
113.602479893
 30
0.0
 11
78.6021904267
 21
113.579132631
 31
0.0
  0
LINE
  5
37F
  8
0
  6
CONTINUOUS
 62
     7
 10
74.307697777
 20
117.4466966911
 30
0.0
 11
74.3270875097
 21
117.4700439531
 31
0.0
  0
LINE
  5
380
  8
0
  6
CONTINUOUS
 62
     7
 10
74.5425305692
 20
113.3676471009
 30
0.0
 11
74.5191833072
 21
113.3870368335
 31
0.0
  0
LINE
  5
381
  8
0
  6
CONTINUOUS
 62
     7
 10
74.6990507662
 20
113.328723204
 30
0.0
 11
74.6513891933
 21
113.3273517478
 31
0.0
  0
LINE
  5
382
  8
0
  6
CONTINUOUS
 62
     7
 10
78.2302271702
 20
117.7204533801
 30
0.0
 11
78.277888743
 21
117.7218248363
 31
0.0
  0
LINE
  5
383
  8
0
  6
CONTINUOUS
 62
     7
 10
78.6605040562
 20
113.75900009
 30
0.0
 11
78.6618755124
 21
113.7113385172
 31
0.0
  0
LINE
  5
384
  8
0
  6
CONTINUOUS
 62
     7
 10
74.2687738801
 20
117.290176494
 30
0.0
 11
74.2674024239
 21
117.3378380669
 31
0.0
  0
LINE
  5
385
  8
0
  6
CONTINUOUS
 62
     7
 10
74.275735983
 20
113.3710592854
 30
0.0
 11
74.2889810276
 21
113.3779256441
 31
0.0
  0
LINE
  5
386
  8
0
  6
CONTINUOUS
 62
     7
 10
78.6535419533
 20
117.6781172986
 30
0.0
 11
78.6402969087
 21
117.6712509399
 31
0.0
  0
LINE
  5
387
  8
0
  6
CONTINUOUS
 62
     7
 10
78.6181679748
 20
113.3356853069
 30
0.0
 11
78.6113016161
 21
113.3489303515
 31
0.0
  0
LINE
  5
388
  8
0
  6
CONTINUOUS
 62
     7
 10
74.3111099616
 20
117.7134912772
 30
0.0
 11
74.3179763203
 21
117.7002462326
 31
0.0
  0
POLYLINE
  5
389
  8
0
  6
CONTINUOUS
 62
     7
 66
     1
 10
0.0
 20
0.0
 30
0.0
 70
   128
  0
VERTEX
  5
5A4
  8
0
  6
CONTINUOUS
 62
     7
 10
78.5743875883
 20
117.6330069624
 30
0.0
  0
VERTEX
  5
5A5
  8
0
  6
CONTINUOUS
 62
     7
 10
78.6111155979
 20
117.6035922468
 30
0.0
  0
VERTEX
  5
5A6
  8
0
  6
CONTINUOUS
 62
     7
 10
78.6477587061
 20
117.5726343136
 30
0.0
  0
SEQEND
  5
626
  8
0
  6
CONTINUOUS
 62
     7
  0
POLYLINE
  5
38A
  8
0
  6
CONTINUOUS
 62
     7
 66
     1
 10
0.0
 20
0.0
 30
0.0
 70
   128
  0
VERTEX
  5
5A7
  8
0
  6
CONTINUOUS
 62
     7
 10
74.3562193536
 20
117.6343377063
 30
0.0
  0
VERTEX
  5
5A8
  8
0
  6
CONTINUOUS
 62
     7
 10
74.3856342768
 20
117.6710656664
 30
0.0
  0
VERTEX
  5
5A9
  8
0
  6
CONTINUOUS
 62
     7
 10
74.4165924266
 20
117.7077087136
 30
0.0
  0
SEQEND
  5
627
  8
0
  6
CONTINUOUS
 62
     7
  0
POLYLINE
  5
38B
  8
0
  6
CONTINUOUS
 62
     7
 66
     1
 10
0.0
 20
0.0
 30
0.0
 70
   128
  0
VERTEX
  5
5AA
  8
0
  6
CONTINUOUS
 62
     7
 10
74.2815197666
 20
113.476542711
 30
0.0
  0
VERTEX
  5
5AB
  8
0
  6
CONTINUOUS
 62
     7
 10
74.3181630114
 20
113.445585085
 30
0.0
  0
VERTEX
  5
5AC
  8
0
  6
CONTINUOUS
 62
     7
 10
74.3548910264
 20
113.4161704318
 30
0.0
  0
SEQEND
  5
628
  8
0
  6
CONTINUOUS
 62
     7
  0
POLYLINE
  5
38C
  8
0
  6
CONTINUOUS
 62
     7
 66
     1
 10
0.0
 20
0.0
 30
0.0
 70
   128
  0
VERTEX
  5
5AD
  8
0
  6
CONTINUOUS
 62
     7
 10
78.5730586193
 20
113.4148388471
 30
0.0
  0
VERTEX
  5
5AE
  8
0
  6
CONTINUOUS
 62
     7
 10
78.543643688
 20
113.3781108888
 30
0.0
  0
VERTEX
  5
5AF
  8
0
  6
CONTINUOUS
 62
     7
 10
78.5126855298
 20
113.341467844
 30
0.0
  0
SEQEND
  5
629
  8
0
  6
CONTINUOUS
 62
     7
  0
LINE
  5
38D
  8
0
  6
CONTINUOUS
 62
     7
 10
74.5704096706
 20
113.0966971783
 30
0.0
 11
74.5778231253
 21
113.1363164269
 31
0.0
  0
LINE
  5
38E
  8
0
  6
CONTINUOUS
 62
     7
 10
78.8925300819
 20
113.6303589944
 30
0.0
 11
78.8529108333
 21
113.6377724492
 31
0.0
  0
LINE
  5
38F
  8
0
  6
CONTINUOUS
 62
     7
 10
74.0367478545
 20
117.4188175896
 30
0.0
 11
74.076367103
 21
117.4114041349
 31
0.0
  0
LINE
  5
390
  8
0
  6
CONTINUOUS
 62
     7
 10
78.3588682658
 20
117.9524794057
 30
0.0
 11
78.3514548111
 21
117.9128601572
 31
0.0
  0
LINE
  5
391
  8
0
  6
CONTINUOUS
 62
     7
 10
74.5965053329
 20
113.1357641074
 30
0.0
 11
74.5778231252
 21
113.1363164207
 31
0.0
  0
LINE
  5
392
  8
0
  6
CONTINUOUS
 62
     7
 10
74.5965052046
 20
113.1357633217
 30
0.0
 11
74.5901693753
 21
113.0984412575
 31
0.0
  0
LINE
  5
393
  8
0
  6
CONTINUOUS
 62
     7
 10
78.8534631528
 20
113.6564546567
 30
0.0
 11
78.8529108395
 21
113.637772449
 31
0.0
  0
LINE
  5
394
  8
0
  6
CONTINUOUS
 62
     7
 10
78.8534639385
 20
113.6564545284
 30
0.0
 11
78.8907860027
 21
113.6501186991
 31
0.0
  0
LINE
  5
395
  8
0
  6
CONTINUOUS
 62
     7
 10
74.0758147836
 20
117.3927219273
 30
0.0
 11
74.0763670969
 21
117.411404135
 31
0.0
  0
LINE
  5
396
  8
0
  6
CONTINUOUS
 62
     7
 10
74.0758139978
 20
117.3927220556
 30
0.0
 11
74.0384919337
 21
117.3990578849
 31
0.0
  0
LINE
  5
397
  8
0
  6
CONTINUOUS
 62
     7
 10
78.3327726035
 20
117.9134124767
 30
0.0
 11
78.3514548112
 21
117.9128601633
 31
0.0
  0
LINE
  5
398
  8
0
  6
CONTINUOUS
 62
     7
 10
78.3327727318
 20
117.9134132624
 30
0.0
 11
78.3391085611
 21
117.9507353265
 31
0.0
  0
LINE
  5
399
  8
0
  6
CONTINUOUS
 62
     7
 10
74.6492075903
 20
113.1339278344
 30
0.0
 11
74.5965052229
 21
113.1357600799
 31
0.0
  0
LINE
  5
39A
  8
0
  6
CONTINUOUS
 62
     7
 10
74.6459089904
 20
113.1052036404
 30
0.0
 11
74.6492075903
 21
113.1339278344
 31
0.0
  0
LINE
  5
39B
  8
0
  6
CONTINUOUS
 62
     7
 10
78.8552994258
 20
113.7091569142
 30
0.0
 11
78.8534671803
 21
113.6564545468
 31
0.0
  0
LINE
  5
39C
  8
0
  6
CONTINUOUS
 62
     7
 10
78.8840236199
 20
113.7058583143
 30
0.0
 11
78.8552994258
 21
113.7091569142
 31
0.0
  0
LINE
  5
39D
  8
0
  6
CONTINUOUS
 62
     7
 10
74.0739785106
 20
117.3400196699
 30
0.0
 11
74.0758107561
 21
117.3927220373
 31
0.0
  0
LINE
  5
39E
  8
0
  6
CONTINUOUS
 62
     7
 10
74.0452543165
 20
117.3433182698
 30
0.0
 11
74.0739785106
 21
117.3400196699
 31
0.0
  0
LINE
  5
39F
  8
0
  6
CONTINUOUS
 62
     7
 10
78.280070346
 20
117.9152487497
 30
0.0
 11
78.3327727135
 21
117.9134165042
 31
0.0
  0
LINE
  5
3A0
  8
0
  6
CONTINUOUS
 62
     7
 10
78.2833689459
 20
117.9439729437
 30
0.0
 11
78.280070346
 21
117.9152487496
 31
0.0
  0
LINE
  5
3A1
  8
0
  6
CONTINUOUS
 62
     7
 10
74.6538034787
 20
113.1384148817
 30
0.0
 11
74.6990507662
 21
113.328723204
 31
0.0
  0
LINE
  5
3A2
  8
0
  6
CONTINUOUS
 62
     7
 10
74.5965053328
 20
113.1357641073
 30
0.0
 11
74.6538034787
 21
113.1384148817
 31
0.0
  0
LINE
  5
3A3
  8
0
  6
CONTINUOUS
 62
     7
 10
78.8508123786
 20
113.7137528025
 30
0.0
 11
78.6605040562
 21
113.75900009
 31
0.0
  0
LINE
  5
3A4
  8
0
  6
CONTINUOUS
 62
     7
 10
78.8534631529
 20
113.6564546566
 30
0.0
 11
78.8508123786
 21
113.7137528025
 31
0.0
  0
LINE
  5
3A5
  8
0
  6
CONTINUOUS
 62
     7
 10
74.0784655578
 20
117.3354237816
 30
0.0
 11
74.2687738801
 21
117.2901764941
 31
0.0
  0
LINE
  5
3A6
  8
0
  6
CONTINUOUS
 62
     7
 10
74.0758147835
 20
117.3927219274
 30
0.0
 11
74.0784655578
 21
117.3354237816
 31
0.0
  0
LINE
  5
3A7
  8
0
  6
CONTINUOUS
 62
     7
 10
78.2754744577
 20
117.9107617024
 30
0.0
 11
78.2302271702
 21
117.7204533801
 31
0.0
  0
LINE
  5
3A8
  8
0
  6
CONTINUOUS
 62
     7
 10
78.3327726036
 20
117.9134124767
 30
0.0
 11
78.2754744577
 21
117.9107617024
 31
0.0
  0
LINE
  5
3A9
  8
0
  6
CONTINUOUS
 62
     7
 10
74.652721683
 20
113.1338690035
 30
0.0
 11
74.6538013421
 21
113.1384154399
 31
0.0
  0
LINE
  5
3AA
  8
0
  6
CONTINUOUS
 62
     7
 10
74.6492075897
 20
113.1339278339
 30
0.0
 11
74.652721683
 21
113.1338690035
 31
0.0
  0
LINE
  5
3AB
  8
0
  6
CONTINUOUS
 62
     7
 10
78.8553582567
 20
113.7126710068
 30
0.0
 11
78.8508118203
 21
113.713750666
 31
0.0
  0
LINE
  5
3AC
  8
0
  6
CONTINUOUS
 62
     7
 10
78.8552994263
 20
113.7091569136
 30
0.0
 11
78.8553582567
 21
113.7126710068
 31
0.0
  0
LINE
  5
3AD
  8
0
  6
CONTINUOUS
 62
     7
 10
74.0739196797
 20
117.3365055773
 30
0.0
 11
74.0784661161
 21
117.3354259181
 31
0.0
  0
LINE
  5
3AE
  8
0
  6
CONTINUOUS
 62
     7
 10
74.0739196795
 20
117.3365055775
 30
0.0
 11
74.07397851
 21
117.3400196705
 31
0.0
  0
LINE
  5
3AF
  8
0
  6
CONTINUOUS
 62
     7
 10
78.2765562534
 20
117.9153075805
 30
0.0
 11
78.2754765943
 21
117.9107611441
 31
0.0
  0
LINE
  5
3B0
  8
0
  6
CONTINUOUS
 62
     7
 10
78.2800703466
 20
117.9152487502
 30
0.0
 11
78.2765562534
 21
117.9153075805
 31
0.0
  0
LINE
  5
3B1
  8
0
  6
CONTINUOUS
 62
     7
 10
74.6492585128
 20
113.1057139995
 30
0.0
 11
74.6527216827
 21
113.1338690033
 31
0.0
  0
LINE
  5
3B2
  8
0
  6
CONTINUOUS
 62
     7
 10
78.8835132607
 20
113.7092078366
 30
0.0
 11
78.8553582569
 21
113.7126710066
 31
0.0
  0
LINE
  5
3B3
  8
0
  6
CONTINUOUS
 62
     7
 10
74.0457646757
 20
117.3399687474
 30
0.0
 11
74.0739196795
 21
117.3365055775
 31
0.0
  0
LINE
  5
3B4
  8
0
  6
CONTINUOUS
 62
     7
 10
78.2800194236
 20
117.9434625845
 30
0.0
 11
78.2765562536
 21
117.9153075807
 31
0.0
  0
LINE
  5
3B5
  8
0
  6
CONTINUOUS
 62
     7
 10
74.783639496
 20
113.1290840919
 30
0.0
 11
74.6527216835
 21
113.133869004
 31
0.0
  0
LINE
  5
3B6
  8
0
  6
CONTINUOUS
 62
     7
 10
74.7838601244
 20
113.1254633892
 30
0.0
 11
74.783639496
 21
113.1290840919
 31
0.0
  0
LINE
  5
3B7
  8
0
  6
CONTINUOUS
 62
     7
 10
78.8601431683
 20
113.8435888199
 30
0.0
 11
78.8553582562
 21
113.7126710073
 31
0.0
  0
LINE
  5
3B8
  8
0
  6
CONTINUOUS
 62
     7
 10
78.863763871
 20
113.8438094483
 30
0.0
 11
78.8601431683
 21
113.8435888199
 31
0.0
  0
LINE
  5
3B9
  8
0
  6
CONTINUOUS
 62
     7
 10
74.069134768
 20
117.2055877642
 30
0.0
 11
74.0739196801
 21
117.3365055768
 31
0.0
  0
LINE
  5
3BA
  8
0
  6
CONTINUOUS
 62
     7
 10
74.0655140654
 20
117.2053671358
 30
0.0
 11
74.069134768
 21
117.2055877642
 31
0.0
  0
LINE
  5
3BB
  8
0
  6
CONTINUOUS
 62
     7
 10
78.1456384404
 20
117.9200924922
 30
0.0
 11
78.2765562529
 21
117.9153075801
 31
0.0
  0
LINE
  5
3BC
  8
0
  6
CONTINUOUS
 62
     7
 10
78.145417812
 20
117.9237131948
 30
0.0
 11
78.1456384404
 21
117.9200924922
 31
0.0
  0
LINE
  5
3BD
  8
0
  6
CONTINUOUS
 62
     7
 10
74.0859141642
 20
117.2069208643
 30
0.0
 11
74.0784655578
 21
117.3354237816
 31
0.0
  0
LINE
  5
3BE
  8
0
  6
CONTINUOUS
 62
     7
 10
74.0691347676
 20
117.2055877646
 30
0.0
 11
74.0859141642
 21
117.2069208643
 31
0.0
  0
LINE
  5
3BF
  8
0
  6
CONTINUOUS
 62
     7
 10
74.6538034787
 20
113.1384148817
 30
0.0
 11
74.782306396
 21
113.1458634881
 31
0.0
  0
LINE
  5
3C0
  8
0
  6
CONTINUOUS
 62
     7
 10
74.7836394956
 20
113.1290840914
 30
0.0
 11
74.782306396
 21
113.1458634881
 31
0.0
  0
LINE
  5
3C1
  8
0
  6
CONTINUOUS
 62
     7
 10
78.8508123786
 20
113.7137528025
 30
0.0
 11
78.8433637721
 21
113.8422557198
 31
0.0
  0
LINE
  5
3C2
  8
0
  6
CONTINUOUS
 62
     7
 10
78.8601431688
 20
113.8435888194
 30
0.0
 11
78.8433637721
 21
113.8422557198
 31
0.0
  0
LINE
  5
3C3
  8
0
  6
CONTINUOUS
 62
     7
 10
78.2754744577
 20
117.9107617024
 30
0.0
 11
78.1469715404
 21
117.903313096
 31
0.0
  0
LINE
  5
3C4
  8
0
  6
CONTINUOUS
 62
     7
 10
78.1456384408
 20
117.9200924927
 30
0.0
 11
78.1469715404
 21
117.903313096
 31
0.0
  0
POLYLINE
  5
3C5
  8
0
  6
CONTINUOUS
 62
     7
 66
     1
 10
0.0
 20
0.0
 30
0.0
 70
   128
  0
VERTEX
  5
5B0
  8
0
  6
CONTINUOUS
 62
     7
 10
74.0903393733
 20
117.2073697244
 30
0.0
  0
VERTEX
  5
5B1
  8
0
  6
CONTINUOUS
 62
     7
 10
74.2028672883
 20
117.2117555123
 30
0.0
  0
VERTEX
  5
5B2
  8
0
  6
CONTINUOUS
 62
     7
 10
74.274761422
 20
117.2074450255
 30
0.0
  0
SEQEND
  5
62A
  8
0
  6
CONTINUOUS
 62
     7
  0
LINE
  5
3C6
  8
0
  6
CONTINUOUS
 62
     7
 10
74.0859141642
 20
117.2069208643
 30
0.0
 11
74.0903393733
 21
117.2073697244
 31
0.0
  0
POLYLINE
  5
3C7
  8
0
  6
CONTINUOUS
 62
     7
 66
     1
 10
0.0
 20
0.0
 30
0.0
 70
   128
  0
VERTEX
  5
5B3
  8
0
  6
CONTINUOUS
 62
     7
 10
74.7818575358
 20
113.1502886972
 30
0.0
  0
VERTEX
  5
5B4
  8
0
  6
CONTINUOUS
 62
     7
 10
74.7774717479
 20
113.2628166121
 30
0.0
  0
VERTEX
  5
5B5
  8
0
  6
CONTINUOUS
 62
     7
 10
74.7817822348
 20
113.3347107459
 30
0.0
  0
SEQEND
  5
62B
  8
0
  6
CONTINUOUS
 62
     7
  0
LINE
  5
3C8
  8
0
  6
CONTINUOUS
 62
     7
 10
74.782306396
 20
113.1458634881
 30
0.0
 11
74.7818575358
 21
113.1502886972
 31
0.0
  0
POLYLINE
  5
3C9
  8
0
  6
CONTINUOUS
 62
     7
 66
     1
 10
0.0
 20
0.0
 30
0.0
 70
   128
  0
VERTEX
  5
5B6
  8
0
  6
CONTINUOUS
 62
     7
 10
78.838938563
 20
113.8418068596
 30
0.0
  0
VERTEX
  5
5B7
  8
0
  6
CONTINUOUS
 62
     7
 10
78.7264106481
 20
113.8374210717
 30
0.0
  0
VERTEX
  5
5B8
  8
0
  6
CONTINUOUS
 62
     7
 10
78.6545165143
 20
113.8417315586
 30
0.0
  0
SEQEND
  5
62C
  8
0
  6
CONTINUOUS
 62
     7
  0
LINE
  5
3CA
  8
0
  6
CONTINUOUS
 62
     7
 10
78.8433637721
 20
113.8422557198
 30
0.0
 11
78.838938563
 21
113.8418068596
 31
0.0
  0
POLYLINE
  5
3CB
  8
0
  6
CONTINUOUS
 62
     7
 66
     1
 10
0.0
 20
0.0
 30
0.0
 70
   128
  0
VERTEX
  5
5B9
  8
0
  6
CONTINUOUS
 62
     7
 10
78.1474204006
 20
117.8988878869
 30
0.0
  0
VERTEX
  5
5BA
  8
0
  6
CONTINUOUS
 62
     7
 10
78.1518061885
 20
117.7863599719
 30
0.0
  0
VERTEX
  5
5BB
  8
0
  6
CONTINUOUS
 62
     7
 10
78.1474957016
 20
117.7144658382
 30
0.0
  0
SEQEND
  5
62D
  8
0
  6
CONTINUOUS
 62
     7
  0
LINE
  5
3CC
  8
0
  6
CONTINUOUS
 62
     7
 10
78.1469715404
 20
117.903313096
 30
0.0
 11
78.1474204006
 21
117.8988878869
 31
0.0
  0
LINE
  5
3CD
  8
0
  6
CONTINUOUS
 62
     7
 10
74.8201270924
 20
113.1479497566
 30
0.0
 11
74.7818575512
 21
113.1502887126
 31
0.0
  0
LINE
  5
3CE
  8
0
  6
CONTINUOUS
 62
     7
 10
78.8412775037
 20
113.8800764162
 30
0.0
 11
78.8389385476
 21
113.841806875
 31
0.0
  0
LINE
  5
3CF
  8
0
  6
CONTINUOUS
 62
     7
 10
74.0903443519
 20
117.2073693892
 30
0.0
 11
74.0880007452
 21
117.1691001843
 31
0.0
  0
LINE
  5
3D0
  8
0
  6
CONTINUOUS
 62
     7
 10
78.109150844
 20
117.9012268275
 30
0.0
 11
78.1474203852
 21
117.8988878715
 31
0.0
  0
LINE
  5
3D1
  8
0
  6
CONTINUOUS
 62
     7
 10
74.2889810628
 20
113.3779250758
 30
0.0
 11
74.2461816593
 21
113.4446899134
 31
0.0
  0
LINE
  5
3D2
  8
0
  6
CONTINUOUS
 62
     7
 10
78.6402968736
 20
117.6712515083
 30
0.0
 11
78.6830962771
 21
117.6044866706
 31
0.0
  0
LINE
  5
3D3
  8
0
  6
CONTINUOUS
 62
     7
 10
78.6113021844
 20
113.3489303866
 30
0.0
 11
78.5445373468
 21
113.3061309831
 31
0.0
  0
LINE
  5
3D4
  8
0
  6
CONTINUOUS
 62
     7
 10
74.3179757519
 20
117.7002461974
 30
0.0
 11
74.3847405896
 21
117.7430456009
 31
0.0
  0
LINE
  5
3D5
  8
0
  6
CONTINUOUS
 62
     7
 10
74.2336749421
 20
113.4369457051
 30
0.0
 11
74.275735983
 21
113.3710592854
 31
0.0
  0
LINE
  5
3D6
  8
0
  6
CONTINUOUS
 62
     7
 10
78.5522790536
 20
113.2936283124
 30
0.0
 11
78.6181650989
 21
113.3356899588
 31
0.0
  0
LINE
  5
3D7
  8
0
  6
CONTINUOUS
 62
     7
 10
74.3769988828
 20
117.7555482717
 30
0.0
 11
74.3111128375
 21
117.7134866253
 31
0.0
  0
LINE
  5
3D8
  8
0
  6
CONTINUOUS
 62
     7
 10
78.6955989478
 20
117.6122283774
 30
0.0
 11
78.6535373014
 21
117.6781144227
 31
0.0
  0
ARC
  5
3D9
  8
0
  6
CONTINUOUS
 62
     7
 10
75.3327158029
 20
117.2020222505
 30
0.0
 40
1.263586070385599
 50
179.8383258695
 51
181.5106116424
  0
ARC
  5
3DA
  8
0
  6
CONTINUOUS
 62
     7
 10
74.7872050098
 20
114.3926651247
 30
0.0
 40
1.263586068327061
 50
269.8383258686
 51
271.5106114602
  0
ARC
  5
3DB
  8
0
  6
CONTINUOUS
 62
     7
 10
77.5965621355
 20
113.8471543336
 30
0.0
 40
1.263586068365203
 50
359.8383258686
 51
1.5106114601
  0
ARC
  5
3DC
  8
0
  6
CONTINUOUS
 62
     7
 10
78.1420729266
 20
116.6565114595
 30
0.0
 40
1.263586068208209
 50
89.8383258685
 51
91.5106114602
  0
ARC
  5
3DD
  8
0
  6
CONTINUOUS
 62
     7
 10
75.3488899627
 20
117.2002209044
 30
0.0
 40
1.262993569659672
 50
179.6960544892
 51
181.4109189615
  0
ARC
  5
3DE
  8
0
  6
CONTINUOUS
 62
     7
 10
74.7890063558
 20
114.4088392885
 30
0.0
 40
1.26299357165843
 50
269.6960544911
 51
271.4109189607
  0
ARC
  5
3DF
  8
0
  6
CONTINUOUS
 62
     7
 10
77.5803879717
 20
113.8489556797
 30
0.0
 40
1.262993571600737
 50
359.6960544911
 51
1.4109189608
  0
ARC
  5
3E0
  8
0
  6
CONTINUOUS
 62
     7
 10
78.1402715806
 20
116.6403372955
 30
0.0
 40
1.262993571719605
 50
89.6960544911
 51
91.4109189607
  0
CIRCLE
  5
3E1
  8
0
  6
CONTINUOUS
 62
     7
 10
76.4646389682
 20
115.524588292
 30
0.0
 40
1.510643428642668
  0
CIRCLE
  5
3E2
  8
0
  6
CONTINUOUS
 62
     7
 10
76.4646389682
 20
115.524588292
 30
0.0
 40
1.420945502432192
  0
LINE
  5
3E3
  8
0
  6
CONTINUOUS
 62
     7
 10
136.703495575
 20
128.2368360064
 30
0.0
 11
136.703495575
 21
130.6580120472
 31
0.0
  0
LINE
  5
3E4
  8
0
  6
CONTINUOUS
 62
     7
 10
136.703495575
 20
112.164000103
 30
0.0
 11
136.703495575
 21
116.9159341564
 31
0.0
  0
LINE
  5
3E5
  8
0
  6
CONTINUOUS
 62
     7
 10
132.3507839451
 20
113.1610060751
 30
0.0
 11
132.3507839451
 21
118.5850785325
 31
0.0
  0
POLYLINE
  5
3E6
  8
0
  6
CONTINUOUS
 62
     7
 66
     1
 10
0.0
 20
0.0
 30
0.0
 70
   128
  0
VERTEX
  5
5BC
  8
0
  6
CONTINUOUS
 62
     7
 10
122.4930438431
 20
121.4319184641
 30
0.0
  0
VERTEX
  5
5BD
  8
0
  6
CONTINUOUS
 62
     7
 10
130.2246103883
 20
120.3762258214
 30
0.0
  0
VERTEX
  5
5BE
  8
0
  6
CONTINUOUS
 62
     7
 10
138.4527839451
 20
118.9257235156
 30
0.0
  0
SEQEND
  5
62E
  8
0
  6
CONTINUOUS
 62
     7
  0
ARC
  5
3E7
  8
0
  6
CONTINUOUS
 62
     7
 10
118.850764189
 20
14.3338623228
 30
0.0
 40
108.9808412432686
 50
80.1306080005
 51
91.3949563784
  0
LINE
  5
3E8
  8
0
  6
CONTINUOUS
 62
     7
 10
132.3507839451
 20
128.3615518813
 30
0.0
 11
132.3507839451
 21
129.6610060751
 31
0.0
  0
LINE
  5
3E9
  8
0
  6
CONTINUOUS
 62
     7
 10
82.3527839451
 20
118.2110060751
 30
0.0
 11
85.5510629638
 21
118.1909744534
 31
0.0
  0
LINE
  5
3EA
  8
0
  6
CONTINUOUS
 62
     7
 10
75.1792156381
 20
118.2110060751
 30
0.0
 11
73.9139590491
 21
118.2110060751
 31
0.0
  0
POLYLINE
  5
3EB
  8
0
  6
CONTINUOUS
 62
     7
 66
     1
 10
0.0
 20
0.0
 30
0.0
 70
   128
  0
VERTEX
  5
5BF
  8
0
  6
CONTINUOUS
 62
     7
 10
74.0618104337
 20
126.3551697222
 30
0.0
  0
VERTEX
  5
5C0
  8
0
  6
CONTINUOUS
 62
     7
 10
74.0987273722
 20
126.2875086
 30
0.0
  0
VERTEX
  5
5C1
  8
0
  6
CONTINUOUS
 62
     7
 10
74.1226908433
 20
126.274759165
 30
0.0
  0
SEQEND
  5
62F
  8
0
  6
CONTINUOUS
 62
     7
  0
LINE
  5
3EC
  8
0
  6
CONTINUOUS
 62
     7
 10
73.8060343956
 20
122.1119827606
 30
0.0
 11
73.8527839451
 21
122.644299194
 31
0.0
  0
LINE
  5
3ED
  8
0
  6
CONTINUOUS
 62
     7
 10
73.7273599768
 20
121.1528127591
 30
0.0
 11
73.8527839451
 21
121.1822272858
 31
0.0
  0
LINE
  5
3EE
  8
0
  6
CONTINUOUS
 62
     7
 10
73.8527839451
 20
121.0913389456
 30
0.0
 11
73.835481594
 21
121.0872811847
 31
0.0
  0
LINE
  5
3EF
  8
0
  6
CONTINUOUS
 62
     7
 10
73.8527839451
 20
121.0857731855
 30
0.0
 11
73.835481594
 21
121.0872811847
 31
0.0
  0
POLYLINE
  5
3F0
  8
0
  6
CONTINUOUS
 62
     7
 66
     1
 10
0.0
 20
0.0
 30
0.0
 70
   128
  0
VERTEX
  5
5C2
  8
0
  6
CONTINUOUS
 62
     7
 10
74.1564262317
 20
126.4119764207
 30
0.0
  0
VERTEX
  5
5C3
  8
0
  6
CONTINUOUS
 62
     7
 10
74.0683357138
 20
126.4181177863
 30
0.0
  0
VERTEX
  5
5C4
  8
0
  6
CONTINUOUS
 62
     7
 10
73.9908590191
 20
126.4064433377
 30
0.0
  0
SEQEND
  5
630
  8
0
  6
CONTINUOUS
 62
     7
  0
LINE
  5
3F1
  8
0
  6
CONTINUOUS
 62
     7
 10
73.7228387805
 20
126.12983019
 30
0.0
 11
73.7060788136
 21
126.0355347323
 31
0.0
  0
ARC
  5
3F2
  8
0
  6
CONTINUOUS
 62
     7
 10
73.8350201048
 20
121.0857175815
 30
0.0
 40
0.0001930544859214
 50
309.796354594
 51
0.266084817
  0
LINE
  5
3F3
  8
0
  6
CONTINUOUS
 62
     7
 10
73.7110517951
 20
121.061160178
 30
0.0
 11
73.7551947037
 21
121.0868430112
 31
0.0
  0
LINE
  5
3F4
  8
0
  6
CONTINUOUS
 62
     7
 10
73.8527839451
 20
121.0463565515
 30
0.0
 11
73.7531105917
 21
121.0550436567
 31
0.0
  0
LINE
  5
3F5
  8
0
  6
CONTINUOUS
 62
     7
 10
73.3079022164
 20
121.5017072333
 30
0.0
 11
73.3090863883
 21
121.4212326547
 31
0.0
  0
LINE
  5
3F6
  8
0
  6
CONTINUOUS
 62
     7
 10
73.7515631379
 20
121.0424141861
 30
0.0
 11
73.8527839451
 21
121.0335922115
 31
0.0
  0
LINE
  5
3F7
  8
0
  6
CONTINUOUS
 62
     7
 10
73.6016000758
 20
117.6232324324
 30
0.0
 11
73.6016000758
 21
108.650189939
 31
0.0
  0
LINE
  5
3F8
  8
0
  6
CONTINUOUS
 62
     7
 10
74.393852699
 20
112.6622788789
 30
0.0
 11
72.1546350349
 21
112.6622788789
 31
0.0
  0
LINE
  5
3F9
  8
0
  6
CONTINUOUS
 62
     7
 10
73.6016000758
 20
130.1622788789
 30
0.0
 11
70.9735134999
 21
130.1622788789
 31
0.0
  0
LINE
  5
3FA
  8
0
  6
CONTINUOUS
 62
     7
 10
127.6016000758
 20
113.1610060751
 30
0.0
 11
127.6016000758
 21
107.3026260974
 31
0.0
  0
DIMENSION
  5
3FB
  8
0
  6
CONTINUOUS
 62
     7
  2
_D
 10
67.1223474126
 20
112.6622788789
 30
0.0
 11
67.1223474126
 21
120.3309788553
 31
0.0
 70
   160
  1
%%c<>
  3
SLDDIMSTYLE0
 13
70.9735134999
 23
130.1622788789
 33
0.0
 14
72.1546350349
 24
112.6622788789
 34
0.0
 50
90.0
  0
DIMENSION
  5
407
  8
0
  6
CONTINUOUS
 62
     7
  2
_D_1
 10
154.6027839451
 20
89.1569891047
 30
0.0
 11
109.0483712727
 21
89.1569891047
 31
0.0
 70
   160
  1
<>
  3
SLDDIMSTYLE1
 13
73.6016000758
 23
108.650189939
 33
0.0
 14
154.6027839451
 24
106.9110060751
 34
0.0
  0
DIMENSION
  5
412
  8
0
  6
CONTINUOUS
 62
     7
  2
_D_2
 10
204.6027839451
 20
76.1427057973
 30
0.0
 11
142.7460613436
 21
76.1427057973
 31
0.0
 70
   160
  1
<>
  3
SLDDIMSTYLE1
 13
73.6016000758
 23
108.650189939
 33
0.0
 14
204.6027839451
 24
115.3315324137
 34
0.0
 50
0.0
  0
DIMENSION
  5
41C
  8
0
  6
CONTINUOUS
 62
     7
  2
_D_3
 10
127.6016000758
 20
101.9947867043
 30
0.0
 11
103.3464521705
 21
101.9947867043
 31
0.0
 70
   160
  1
<>
  3
SLDDIMSTYLE2
 13
73.6016000758
 23
108.650189939
 33
0.0
 14
127.6016000758
 24
107.3026260974
 34
0.0
  0
DIMENSION
  5
427
  8
0
  6
CONTINUOUS
 62
     7
  2
_D_4
 10
204.6027839451
 20
89.1569891047
 30
0.0
 11
171.5350729749
 21
89.1569891047
 31
0.0
 70
   160
  1
<>
  3
SLDDIMSTYLE2
 13
154.6027839451
 23
106.9110060751
 33
0.0
 14
204.6027839451
 24
115.3315324137
 34
0.0
  0
DIMENSION
  5
431
  8
0
  6
CONTINUOUS
 62
     7
  2
_D_5
 10
224.0482337206
 20
106.4110060751
 30
0.0
 11
224.0482337206
 21
122.159758223
 31
0.0
 70
   160
  1
%%c<>
  3
SLDDIMSTYLE2
 13
154.1027839451
 23
136.4110060751
 33
0.0
 14
154.1027839451
 24
106.4110060751
 34
0.0
 50
90.0
  0
DIMENSION
  5
43C
  8
0
  6
CONTINUOUS
 62
     7
  2
_D_6
 10
212.9842367248
 20
131.4110060751
 30
0.0
 11
212.9842367248
 21
122.159758223
 31
0.0
 70
   160
  1
%%c<>h6
  3
SLDDIMSTYLE2
 13
202.3527839451
 23
111.4110060751
 33
0.0
 14
202.3527839451
 24
131.4110060751
 34
0.0
 50
90.0
  0
LINE
  5
448
  8
0
  6
CENTERX2
 62
     7
 10
72.3379808992
 20
121.4110060751
 30
0.0
 11
204.3527839451
 21
121.4110060751
 31
0.0
  0
ENDSEC
  0
EOF
