  0
SECTION
  2
HEADER
  9
$ACADVER
  1
AC1009
  9
$DWGCODEPAGE
  3
ansi_1252
  9
$INSBASE
 10
0.0
 20
0.0
 30
0.0
  9
$EXTMIN
 10
0.0
 20
0.0
 30
0.0
  9
$EXTMAX
 10
297.0
 20
210.0
 30
0.0
  9
$LIMMIN
 10
0.0
 20
0.0
  9
$LIMMAX
 10
297.0
 20
210.0
  9
$ORTHOMODE
 70
     0
  9
$REGENMODE
 70
     1
  9
$FILLMODE
 70
     1
  9
$QTEXTMODE
 70
     0
  9
$MIRRTEXT
 70
     1
  9
$DRAGMODE
 70
     2
  9
$LTSCALE
 40
1.0
  9
$OSMODE
 70
    37
  9
$ATTMODE
 70
     1
  9
$TEXTSIZE
 40
3.5
  9
$TRACEWID
 40
1.0
  9
$TEXTSTYLE
  7
STANDARD
  9
$CLAYER
  8
0
  9
$CELTYPE
  6
BYLAYER
  9
$CECOLOR
 62
   256
  9
$DIMSCALE
 40
1.0
  9
$DIMASZ
 40
4.0
  9
$DIMEXO
 40
1.0
  9
$DIMDLI
 40
3.75
  9
$DIMRND
 40
0.0
  9
$DIMDLE
 40
0.0
  9
$DIMEXE
 40
1.0
  9
$DIMTP
 40
0.0
  9
$DIMTM
 40
0.0
  9
$DIMTXT
 40
3.8805555556
  9
$DIMCEN
 40
2.5
  9
$DIMTSZ
 40
0.0
  9
$DIMTOL
 70
     0
  9
$DIMLIM
 70
     0
  9
$DIMTIH
 70
     1
  9
$DIMTOH
 70
     1
  9
$DIMSE1
 70
     0
  9
$DIMSE2
 70
     0
  9
$DIMTAD
 70
     1
  9
$DIMZIN
 70
     0
  9
$DIMBLK
  1

  9
$DIMASO
 70
     1
  9
$DIMSHO
 70
     1
  9
$DIMPOST
  1

  9
$DIMAPOST
  1

  9
$DIMALT
 70
     0
  9
$DIMALTD
 70
     3
  9
$DIMALTF
 40
0.0393700787
  9
$DIMLFAC
 40
0.6666666667
  9
$DIMTOFL
 70
     1
  9
$DIMTVP
 40
0.0
  9
$DIMTIX
 70
     0
  9
$DIMSOXD
 70
     0
  9
$DIMSAH
 70
     0
  9
$DIMBLK1
  1

  9
$DIMBLK2
  1

  9
$DIMSTYLE
  2
ISO-25
  9
$DIMCLRD
 70
     0
  9
$DIMCLRE
 70
     0
  9
$DIMCLRT
 70
     0
  9
$DIMTFAC
 40
1.0
  9
$DIMGAP
 40
1.524
  9
$LUNITS
 70
     2
  9
$LUPREC
 70
     3
  9
$SKETCHINC
 40
1.0
  9
$FILLETRAD
 40
10.0
  9
$AUNITS
 70
     0
  9
$AUPREC
 70
     3
  9
$MENU
  1
.
  9
$ELEVATION
 40
0.0
  9
$PELEVATION
 40
0.0
  9
$THICKNESS
 40
0.0
  9
$LIMCHECK
 70
     0
  9
$CHAMFERA
 40
0.0
  9
$CHAMFERB
 40
0.0
  9
$SKPOLY
 70
     0
  9
$TDCREATE
 40
2457379.363843449
  9
$TDUPDATE
 40
2457379.363849584
  9
$TDINDWG
 40
0.0000000116
  9
$TDUSRTIMER
 40
0.0000000116
  9
$USRTIMER
 70
     1
  9
$ANGBASE
 50
0.0
  9
$ANGDIR
 70
     0
  9
$PDMODE
 70
     0
  9
$PDSIZE
 40
-1.0
  9
$PLINEWID
 40
0.0
  9
$COORDS
 70
     1
  9
$SPLFRAME
 70
     0
  9
$SPLINETYPE
 70
     6
  9
$SPLINESEGS
 70
     8
  9
$ATTDIA
 70
     0
  9
$ATTREQ
 70
     1
  9
$HANDLING
 70
     1
  9
$HANDSEED
  5
879
  9
$SURFTAB1
 70
     6
  9
$SURFTAB2
 70
     6
  9
$SURFTYPE
 70
     6
  9
$SURFU
 70
     6
  9
$SURFV
 70
     6
  9
$UCSNAME
  2

  9
$UCSORG
 10
0.0
 20
0.0
 30
0.0
  9
$UCSXDIR
 10
1.0
 20
0.0
 30
0.0
  9
$UCSYDIR
 10
0.0
 20
1.0
 30
0.0
  9
$PUCSNAME
  2

  9
$PUCSORG
 10
0.0
 20
0.0
 30
0.0
  9
$PUCSXDIR
 10
1.0
 20
0.0
 30
0.0
  9
$PUCSYDIR
 10
0.0
 20
1.0
 30
0.0
  9
$USERI1
 70
     0
  9
$USERI2
 70
     0
  9
$USERI3
 70
     0
  9
$USERI4
 70
     0
  9
$USERI5
 70
     0
  9
$USERR1
 40
0.0
  9
$USERR2
 40
0.0
  9
$USERR3
 40
0.0
  9
$USERR4
 40
0.0
  9
$USERR5
 40
0.0
  9
$WORLDVIEW
 70
     1
  9
$SHADEDGE
 70
     3
  9
$SHADEDIF
 70
    70
  9
$TILEMODE
 70
     1
  9
$MAXACTVP
 70
    64
  9
$PLIMCHECK
 70
     0
  9
$PEXTMIN
 10
1.0000000000E+20
 20
1.0000000000E+20
 30
1.0000000000E+20
  9
$PEXTMAX
 10
-1.0000000000E+20
 20
-1.0000000000E+20
 30
-1.0000000000E+20
  9
$PLIMMIN
 10
0.0
 20
0.0
  9
$PLIMMAX
 10
420.0
 20
297.0
  9
$UNITMODE
 70
     0
  9
$VISRETAIN
 70
     1
  9
$PLINEGEN
 70
     0
  9
$PSLTSCALE
 70
     1
  0
ENDSEC
  0
SECTION
  2
TABLES
  0
TABLE
  2
VPORT
 70
     1
  0
VPORT
  2
*ACTIVE
 70
     0
 10
0.0
 20
0.0
 11
1.0
 21
1.0
 12
148.5
 22
105.0
 13
0.0
 23
0.0
 14
10.0
 24
10.0
 15
10.0
 25
10.0
 16
0.0
 26
0.0
 36
1.0
 17
0.0
 27
0.0
 37
0.0
 40
210.0
 41
1.4142857143
 42
50.0
 43
0.0
 44
0.0
 50
0.0
 51
0.0
 71
     0
 72
  2000
 73
     1
 74
     3
 75
     0
 76
     0
 77
     0
 78
     0
  0
ENDTAB
  0
TABLE
  2
LTYPE
 70
     6
  0
LTYPE
  2
CONTINUOUS
 70
     0
  3
Solid line
 72
    65
 73
     0
 40
0.0
  0
LTYPE
  2
HIDDEN
 70
     0
  3
Hidden __ __ __ __ __ __ __ __ __ __ __ __ __ __
 72
    65
 73
     2
 40
1.905
 49
1.27
 49
-0.635
  0
LTYPE
  2
PHANTOM
 70
     0
  3
Phantom ______  __  __  ______  __  __  ______
 72
    65
 73
     6
 40
12.7
 49
6.35
 49
-1.27
 49
1.27
 49
-1.27
 49
1.27
 49
-1.27
  0
LTYPE
  2
CENTER
 70
     0
  3
Center ____ _ ____ _ ____ _ ____ _ ____ _ ____
 72
    65
 73
     4
 40
10.16
 49
6.35
 49
-1.27
 49
1.27
 49
-1.27
  0
LTYPE
  2
CENTERX2
 70
     0
  3
Center (2x) ________  __  ________  __  _____
 72
    65
 73
     4
 40
20.32
 49
12.7
 49
-2.54
 49
2.54
 49
-2.54
  0
LTYPE
  2
DOT2
 70
     0
  3
Dot (.5x) ........................................
 72
    65
 73
     2
 40
0.635
 49
0.0
 49
-0.635
  0
ENDTAB
  0
TABLE
  2
LAYER
 70
     1
  0
LAYER
  2
0
 70
     0
 62
     7
  6
CONTINUOUS
  0
ENDTAB
  0
TABLE
  2
STYLE
 70
     1
  0
STYLE
  2
STANDARD
 70
     0
 40
0.0
 41
1.0
 50
0.0
 71
     0
 42
3.5
  3
txt
  4

  0
ENDTAB
  0
TABLE
  2
VIEW
 70
     0
  0
ENDTAB
  0
TABLE
  2
UCS
 70
     0
  0
ENDTAB
  0
TABLE
  2
APPID
 70
     1
  0
APPID
  2
ACAD
 70
     0
  0
ENDTAB
  0
TABLE
  2
DIMSTYLE
 70
     2
  0
DIMSTYLE
  2
ISO-25
 70
     0
  3

  4

  5

  6

  7

 40
1.0
 41
2.5
 42
0.625
 43
3.75
 44
1.25
 45
0.0
 46
0.0
 47
0.0
 48
0.0
140
2.5
141
2.5
142
0.0
143
0.0393700787
144
1.0
145
0.0
146
1.0
147
0.625
 71
     0
 72
     0
 73
     0
 74
     0
 75
     0
 76
     0
 77
     1
 78
     8
170
     0
171
     3
172
     1
173
     0
174
     0
175
     0
176
     0
177
     0
178
     0
  0
DIMSTYLE
  2
SLDDIMSTYLE0
 70
     0
  3

  4

  5

  6

  7

 40
1.0
 41
4.0
 42
0.0625
 43
0.38
 44
0.0
 45
0.000000001
 46
0.0
 47
0.0
 48
0.0
140
2.9104166667
141
0.09
142
0.0
143
25.4
144
1.0
145
0.0
146
1.0
147
0.7276041667
 71
     0
 72
     0
 73
     0
 74
     0
 75
     0
 76
     0
 77
     1
 78
    12
170
     0
171
     2
172
     0
173
     1
174
     0
175
     0
176
     0
177
     0
178
     0
  0
ENDTAB
  0
ENDSEC
  0
SECTION
  2
BLOCKS
  0
BLOCK
  8
0
  2
$MODEL_SPACE
 70
     0
 10
0.0
 20
0.0
 30
0.0
  3
$MODEL_SPACE
  1

  0
ENDBLK
  5
21
  8
0
  0
BLOCK
 67
     1
  8
0
  2
$PAPER_SPACE
 70
     0
 10
0.0
 20
0.0
 30
0.0
  3
$PAPER_SPACE
  1

  0
ENDBLK
  5
1D
 67
     1
  8
0
  0
BLOCK
  8
0
  2
SW_NOTE_0
 70
     0
 10
0.0
 20
0.0
 30
0.0
  3
SW_NOTE_0
  1

  0
TEXT
  5
76
  8
0
  6
CONTINUOUS
 62
     0
 10
0.0
 20
1.6824010449
 30
0.0
 40
4.7625
  1
Wendeplatte BP0402
 41
0.7
 11
0.0
 21
0.0
 31
0.0
 73
     1
  0
TEXT
  5
77
  8
0
  6
CONTINUOUS
 62
     0
 10
0.0
 20
-5.6675990423
 30
0.0
 40
4.7625
  1
Spannschraube SS1,8-1
 41
0.7
 11
0.0
 21
-7.3500000872
 31
0.0
 73
     1
  0
ENDBLK
  5
75
  8
0
  0
BLOCK
  8
0
  2
SW_NOTE_1
 70
     0
 10
0.0
 20
0.0
 30
0.0
  3
SW_NOTE_1
  1

  0
TEXT
  5
7C
  8
0
  6
CONTINUOUS
 62
     0
 10
-0.9346672472
 20
0.0
 30
0.0
 40
2.6458333333
  1
Z=2
 50
90.0
 41
0.7
 11
0.0
 21
0.0
 31
0.0
 73
     1
  0
TEXT
  5
7D
  8
0
  6
CONTINUOUS
 62
     0
 10
3.5931106519
 20
0.0
 30
0.0
 40
2.6458333333
  1
Zeff=1
 50
90.0
 41
0.7
 11
4.5277778991
 21
0.0
 31
0.0
 73
     1
  0
ENDBLK
  5
7B
  8
0
  0
BLOCK
  8
0
  2
_D
 70
     0
 10
0.0
 20
0.0
 30
0.0
  3
_D
  1

  0
SOLID
  5
3F2
  8
0
  6
CONTINUOUS
 62
     7
 10
72.4270864556
 20
127.3560436922
 30
0.0
 11
71.6770864556
 21
123.3560436922
 31
0.0
 12
73.1770864556
 22
123.3560436922
 32
0.0
 13
73.1770864556
 23
123.3560436922
 33
0.0
  0
SOLID
  5
3F3
  8
0
  6
CONTINUOUS
 62
     7
 10
72.4270864556
 20
113.3560436922
 30
0.0
 11
73.1770864556
 21
117.3560436922
 31
0.0
 12
71.6770864556
 22
117.3560436922
 32
0.0
 13
71.6770864556
 23
117.3560436922
 33
0.0
  0
LINE
  5
3F4
  8
0
  6
CONTINUOUS
 62
     7
 10
75.6249078052
 20
127.3560436922
 30
0.0
 11
71.4270864556
 21
127.3560436922
 31
0.0
  0
LINE
  5
3F5
  8
0
  6
CONTINUOUS
 62
     7
 10
75.9704579178
 20
113.3560436922
 30
0.0
 11
71.4270864556
 21
113.3560436922
 31
0.0
  0
LINE
  5
3F6
  8
0
  6
CONTINUOUS
 62
     7
 10
72.4270864556
 20
127.3560436922
 30
0.0
 11
72.4270864556
 21
113.3560436922
 31
0.0
  0
TEXT
  5
3F7
  8
0
  6
CONTINUOUS
 62
     7
 10
71.3989522509
 20
114.6760022434
 30
0.0
 40
2.9104166667
  1
%%c
 50
90.0
 41
0.7
 11
72.4270862228
 21
114.6760022434
 31
0.0
 73
     1
  0
TEXT
  5
3F8
  8
0
  6
CONTINUOUS
 62
     7
 10
71.3989522509
 20
119.0691146235
 30
0.0
 40
2.9104166667
  1
14
 50
90.0
 41
0.7
 11
72.4270862228
 21
119.0691146235
 31
0.0
 73
     1
  0
ENDBLK
  5
3F1
  8
0
  0
BLOCK
  8
0
  2
_D_1
 70
     0
 10
0.0
 20
0.0
 30
0.0
  3
_D_1
  1

  0
SOLID
  5
3FD
  8
0
  6
CONTINUOUS
 62
     7
 10
78.9204846893
 20
89.5573433435
 30
0.0
 11
82.9204846893
 21
88.8073433435
 31
0.0
 12
82.9204846893
 22
90.3073433435
 32
0.0
 13
82.9204846893
 23
90.3073433435
 33
0.0
  0
SOLID
  5
3FE
  8
0
  6
CONTINUOUS
 62
     7
 10
147.9206857675
 20
89.5573433435
 30
0.0
 11
143.9206857675
 21
90.3073433435
 31
0.0
 12
143.9206857675
 22
88.8073433435
 32
0.0
 13
143.9206857675
 23
88.8073433435
 33
0.0
  0
LINE
  5
3FF
  8
0
  6
CONTINUOUS
 62
     7
 10
78.9204846893
 20
107.3396230111
 30
0.0
 11
78.9204846893
 21
88.5573433435
 31
0.0
  0
LINE
  5
400
  8
0
  6
CONTINUOUS
 62
     7
 10
147.9206857675
 20
104.8527178511
 30
0.0
 11
147.9206857675
 21
88.5573433435
 31
0.0
  0
LINE
  5
401
  8
0
  6
CONTINUOUS
 62
     7
 10
78.9204846893
 20
89.5573433435
 30
0.0
 11
147.9206857675
 21
89.5573433435
 31
0.0
  0
TEXT
  5
402
  8
0
  6
CONTINUOUS
 62
     7
 10
109.4614375652
 20
90.5854773153
 30
0.0
 40
2.9104166667
  1
69
 50
360.0
 41
0.7
 11
109.4614375652
 21
89.5573433435
 31
0.0
 73
     1
  0
ENDBLK
  5
3FC
  8
0
  0
BLOCK
  8
0
  2
_D_2
 70
     0
 10
0.0
 20
0.0
 30
0.0
  3
_D_2
  1

  0
SOLID
  5
407
  8
0
  6
CONTINUOUS
 62
     7
 10
78.9204846893
 20
76.2294175733
 30
0.0
 11
82.9204846893
 21
75.4794175733
 31
0.0
 12
82.9204846893
 22
76.9794175733
 32
0.0
 13
82.9204846893
 23
76.9794175733
 33
0.0
  0
SOLID
  5
408
  8
0
  6
CONTINUOUS
 62
     7
 10
197.9206857675
 20
76.2294175733
 30
0.0
 11
193.9206857675
 21
76.9794175733
 31
0.0
 12
193.9206857675
 22
75.4794175733
 32
0.0
 13
193.9206857675
 23
75.4794175733
 33
0.0
  0
LINE
  5
409
  8
0
  6
CONTINUOUS
 62
     7
 10
78.9204846893
 20
107.3396230111
 30
0.0
 11
78.9204846893
 21
75.2294175733
 31
0.0
  0
LINE
  5
40A
  8
0
  6
CONTINUOUS
 62
     7
 10
197.9206857675
 20
113.2732441897
 30
0.0
 11
197.9206857675
 21
75.2294175733
 31
0.0
  0
LINE
  5
40B
  8
0
  6
CONTINUOUS
 62
     7
 10
78.9204846893
 20
76.2294175733
 30
0.0
 11
197.9206857675
 21
76.2294175733
 31
0.0
  0
TEXT
  5
40C
  8
0
  6
CONTINUOUS
 62
     7
 10
131.2457308028
 20
77.2575515452
 30
0.0
 40
2.9104166667
  1
119
 50
360.0
 41
0.7
 11
131.2457308028
 21
76.2294175733
 31
0.0
 73
     1
  0
ENDBLK
  5
406
  8
0
  0
BLOCK
  8
0
  2
_D_3
 70
     0
 10
0.0
 20
0.0
 30
0.0
  3
_D_3
  1

  0
SOLID
  5
411
  8
0
  6
CONTINUOUS
 62
     7
 10
120.9204846893
 20
101.9028236837
 30
0.0
 11
116.9204846893
 21
102.6528236837
 31
0.0
 12
116.9204846893
 22
101.1528236837
 32
0.0
 13
116.9204846893
 23
101.1528236837
 33
0.0
  0
SOLID
  5
412
  8
0
  6
CONTINUOUS
 62
     7
 10
78.9204846893
 20
101.9028236837
 30
0.0
 11
82.9204846893
 21
101.1528236837
 31
0.0
 12
82.9204846893
 22
102.6528236837
 32
0.0
 13
82.9204846893
 23
102.6528236837
 33
0.0
  0
LINE
  5
413
  8
0
  6
CONTINUOUS
 62
     7
 10
120.9204846893
 20
109.4256057795
 30
0.0
 11
120.9204846893
 21
100.9028236837
 31
0.0
  0
LINE
  5
414
  8
0
  6
CONTINUOUS
 62
     7
 10
78.9204846893
 20
107.3396230111
 30
0.0
 11
78.9204846893
 21
100.9028236837
 31
0.0
  0
LINE
  5
415
  8
0
  6
CONTINUOUS
 62
     7
 10
120.9204846893
 20
101.9028236837
 30
0.0
 11
78.9204846893
 21
101.9028236837
 31
0.0
  0
TEXT
  5
416
  8
0
  6
CONTINUOUS
 62
     7
 10
99.2025108755
 20
102.9309576556
 30
0.0
 40
2.9104166667
  1
42
 50
0.0
 41
0.7
 11
99.2025108755
 21
101.9028236837
 31
0.0
 73
     1
  0
ENDBLK
  5
410
  8
0
  0
BLOCK
  8
0
  2
_D_4
 70
     0
 10
0.0
 20
0.0
 30
0.0
  3
_D_4
  1

  0
SOLID
  5
41B
  8
0
  6
CONTINUOUS
 62
     7
 10
222.2310137949
 20
135.3527178511
 30
0.0
 11
221.4810137949
 21
131.3527178511
 31
0.0
 12
222.9810137949
 22
131.3527178511
 32
0.0
 13
222.9810137949
 23
131.3527178511
 33
0.0
  0
SOLID
  5
41C
  8
0
  6
CONTINUOUS
 62
     7
 10
222.2310137949
 20
105.3527178511
 30
0.0
 11
222.9810137949
 21
109.3527178511
 31
0.0
 12
221.4810137949
 22
109.3527178511
 32
0.0
 13
221.4810137949
 23
109.3527178511
 33
0.0
  0
LINE
  5
41D
  8
0
  6
CONTINUOUS
 62
     7
 10
148.4206857675
 20
135.3527178511
 30
0.0
 11
223.2310137949
 21
135.3527178511
 31
0.0
  0
LINE
  5
41E
  8
0
  6
CONTINUOUS
 62
     7
 10
148.4206857675
 20
105.3527178511
 30
0.0
 11
223.2310137949
 21
105.3527178511
 31
0.0
  0
LINE
  5
41F
  8
0
  6
CONTINUOUS
 62
     7
 10
222.2310137949
 20
135.3527178511
 30
0.0
 11
222.2310137949
 21
105.3527178511
 31
0.0
  0
TEXT
  5
420
  8
0
  6
CONTINUOUS
 62
     7
 10
221.2028795902
 20
115.4851632734
 30
6.0090621718
 40
2.9104166667
  1
%%c
 50
90.0
 41
0.7
 11
222.231013562
 21
115.4851632734
 31
6.0090621718
 73
     1
  0
TEXT
  5
421
  8
0
  6
CONTINUOUS
 62
     7
 10
221.2028795902
 20
119.8782756534
 30
6.0090621718
 40
2.9104166667
  1
30
 50
90.0
 41
0.7
 11
222.231013562
 21
119.8782756534
 31
6.0090621718
 73
     1
  0
ENDBLK
  5
41A
  8
0
  0
BLOCK
  8
0
  2
_D_5
 70
     0
 10
0.0
 20
0.0
 30
0.0
  3
_D_5
  1

  0
SOLID
  5
426
  8
0
  6
CONTINUOUS
 62
     7
 10
205.799760743
 20
110.3527178511
 30
0.0
 11
206.549760743
 21
114.3527178511
 31
0.0
 12
205.049760743
 22
114.3527178511
 32
0.0
 13
205.049760743
 23
114.3527178511
 33
0.0
  0
SOLID
  5
427
  8
0
  6
CONTINUOUS
 62
     7
 10
205.799760743
 20
130.3527178511
 30
0.0
 11
205.049760743
 21
126.3527178511
 31
0.0
 12
206.549760743
 22
126.3527178511
 32
0.0
 13
206.549760743
 23
126.3527178511
 33
0.0
  0
LINE
  5
428
  8
0
  6
CONTINUOUS
 62
     7
 10
196.6706857675
 20
110.3527178511
 30
0.0
 11
206.799760743
 21
110.3527178511
 31
0.0
  0
LINE
  5
429
  8
0
  6
CONTINUOUS
 62
     7
 10
196.6706857675
 20
130.3527178511
 30
0.0
 11
206.799760743
 21
130.3527178511
 31
0.0
  0
LINE
  5
42A
  8
0
  6
CONTINUOUS
 62
     7
 10
205.799760743
 20
110.3527178511
 30
0.0
 11
205.799760743
 21
130.3527178511
 31
0.0
  0
TEXT
  5
42B
  8
0
  6
CONTINUOUS
 62
     7
 10
204.7716265383
 20
113.2268960197
 30
6.0090621718
 40
2.9104166667
  1
%%c
 50
90.0
 41
0.7
 11
205.7997605102
 21
113.2268960197
 31
6.0090621718
 73
     1
  0
TEXT
  5
42C
  8
0
  6
CONTINUOUS
 62
     7
 10
204.7716265383
 20
117.6200083998
 30
6.0090621718
 40
2.9104166667
  1
20
 50
90.0
 41
0.7
 11
205.7997605102
 21
117.6200083998
 31
6.0090621718
 73
     1
  0
TEXT
  5
42D
  8
0
  6
CONTINUOUS
 62
     7
 10
204.7716265383
 20
121.9209580292
 30
6.0090621718
 40
2.9104166667
  1
h6
 50
90.0
 41
0.7
 11
205.7997605102
 21
121.9209580292
 31
6.0090621718
 73
     1
  0
ENDBLK
  5
425
  8
0
  0
BLOCK
  8
0
  2
_D_6
 70
     0
 10
0.0
 20
0.0
 30
0.0
  3
_D_6
  1

  0
SOLID
  5
432
  8
0
  6
CONTINUOUS
 62
     7
 10
147.9206857675
 20
89.5573433435
 30
0.0
 11
151.9206857675
 21
88.8073433435
 31
0.0
 12
151.9206857675
 22
90.3073433435
 32
0.0
 13
151.9206857675
 23
90.3073433435
 33
0.0
  0
SOLID
  5
433
  8
0
  6
CONTINUOUS
 62
     7
 10
197.9206857675
 20
89.5573433435
 30
0.0
 11
193.9206857675
 21
90.3073433435
 31
0.0
 12
193.9206857675
 22
88.8073433435
 32
0.0
 13
193.9206857675
 23
88.8073433435
 33
0.0
  0
LINE
  5
434
  8
0
  6
CONTINUOUS
 62
     7
 10
147.9206857675
 20
104.8527178511
 30
0.0
 11
147.9206857675
 21
88.5573433435
 31
0.0
  0
LINE
  5
435
  8
0
  6
CONTINUOUS
 62
     7
 10
197.9206857675
 20
110.4527178511
 30
0.0
 11
197.9206857675
 21
88.5573433435
 31
0.0
  0
LINE
  5
436
  8
0
  6
CONTINUOUS
 62
     7
 10
147.9206857675
 20
89.5573433435
 30
0.0
 11
197.9206857675
 21
89.5573433435
 31
0.0
  0
TEXT
  5
437
  8
0
  6
CONTINUOUS
 62
     7
 10
169.0026789357
 20
90.5854773153
 30
6.0090621718
 40
2.9104166667
  1
50
 41
0.7
 11
169.0026789357
 21
89.5573433435
 31
6.0090621718
 73
     1
  0
ENDBLK
  5
431
  8
0
  0
ENDSEC
  0
SECTION
  2
ENTITIES
  0
INSERT
  5
78
  8
0
  6
CONTINUOUS
 62
     7
  2
SW_NOTE_0
 10
104.8176404494
 20
62.4771911569
 30
0.0
  0
INSERT
  5
7E
  8
0
  6
CONTINUOUS
 62
     7
  2
SW_NOTE_1
 10
61.4082833424
 20
115.7787640449
 30
0.0
  0
LINE
  5
7F
  8
0
  6
CONTINUOUS
 62
     7
 10
141.9206849212
 20
105.3527181864
 30
0.0
 11
147.4206886166
 21
105.3527181864
 31
0.0
  0
LINE
  5
80
  8
0
  6
CONTINUOUS
 62
     7
 10
147.4206886166
 20
135.3527175158
 30
0.0
 11
141.9206849212
 21
135.3527175158
 31
0.0
  0
LINE
  5
81
  8
0
  6
CONTINUOUS
 62
     7
 10
147.4206886166
 20
105.3527181864
 30
0.0
 11
147.9206821793
 21
105.8527182684
 31
0.0
  0
LINE
  5
82
  8
0
  6
CONTINUOUS
 62
     7
 10
147.9206821793
 20
134.8527174339
 30
0.0
 11
147.4206886166
 21
135.3527175158
 31
0.0
  0
LINE
  5
83
  8
0
  6
CONTINUOUS
 62
     7
 10
131.7312634462
 20
112.0203954995
 30
0.0
 11
141.9206849212
 21
105.3527181864
 31
0.0
  0
LINE
  5
84
  8
0
  6
CONTINUOUS
 62
     7
 10
141.9206849212
 20
135.3527175158
 30
0.0
 11
131.7312634462
 21
128.6850402028
 31
0.0
  0
LINE
  5
85
  8
0
  6
CONTINUOUS
 62
     7
 10
149.6502227062
 20
110.3527180746
 30
0.0
 11
195.6706858152
 21
110.3527180746
 31
0.0
  0
LINE
  5
86
  8
0
  6
CONTINUOUS
 62
     7
 10
195.6706858152
 20
130.3527176276
 30
0.0
 11
149.6502227062
 21
130.3527176276
 31
0.0
  0
LINE
  5
87
  8
0
  6
CONTINUOUS
 62
     7
 10
149.6502227062
 20
130.3527176276
 30
0.0
 11
149.179763245
 21
130.2527177975
 31
0.0
  0
LINE
  5
88
  8
0
  6
CONTINUOUS
 62
     7
 10
149.179763245
 20
110.4527179048
 30
0.0
 11
149.6502227062
 21
110.3527180746
 31
0.0
  0
LINE
  5
89
  8
0
  6
CONTINUOUS
 62
     7
 10
149.179763245
 20
130.2527177975
 30
0.0
 11
147.9206821793
 21
130.2527177975
 31
0.0
  0
LINE
  5
8A
  8
0
  6
CONTINUOUS
 62
     7
 10
147.9206821793
 20
110.4527179048
 30
0.0
 11
149.179763245
 21
110.4527179048
 31
0.0
  0
ARC
  5
8B
  8
0
  6
CONTINUOUS
 62
     7
 10
126.2556857675
 20
103.6527178511
 30
0.0
 40
10.0
 50
56.8003633783
 51
90.0
  0
LINE
  5
8C
  8
0
  6
CONTINUOUS
 62
     7
 10
195.6706858152
 20
110.3527180746
 30
0.0
 11
196.9206846231
 21
110.4527179048
 31
0.0
  0
LINE
  5
8D
  8
0
  6
CONTINUOUS
 62
     7
 10
196.9206846231
 20
130.2527177975
 30
0.0
 11
195.6706858152
 21
130.3527176276
 31
0.0
  0
LINE
  5
8E
  8
0
  6
CONTINUOUS
 62
     7
 10
196.9206846231
 20
110.4527179048
 30
0.0
 11
197.9206866497
 21
111.4527180687
 31
0.0
  0
LINE
  5
8F
  8
0
  6
CONTINUOUS
 62
     7
 10
197.9206866497
 20
129.2527176336
 30
0.0
 11
196.9206846231
 21
130.2527177975
 31
0.0
  0
LINE
  5
90
  8
0
  6
CONTINUOUS
 62
     7
 10
118.803973394
 20
113.6527180568
 30
0.0
 11
126.2556864792
 21
113.6527180568
 31
0.0
  0
LINE
  5
91
  8
0
  6
CONTINUOUS
 62
     7
 10
78.9706857438
 20
118.8527178381
 30
0.0
 11
79.0267108502
 21
118.2700570569
 31
0.0
  0
ARC
  5
92
  8
0
  6
CONTINUOUS
 62
     7
 10
126.2556857675
 20
137.0527178511
 30
0.0
 40
10.00000000000001
 50
270.0
 51
303.1996366217
  0
LINE
  5
93
  8
0
  6
CONTINUOUS
 62
     7
 10
126.2556864792
 20
127.0527176455
 30
0.0
 11
124.2150097066
 21
127.0527176455
 31
0.0
  0
LINE
  5
94
  8
0
  6
CONTINUOUS
 62
     7
 10
80.6774311611
 20
115.5817311153
 30
0.0
 11
80.9854507358
 21
115.5514407799
 31
0.0
  0
POLYLINE
  5
95
  8
0
  6
CONTINUOUS
 62
     7
 66
     1
 10
0.0
 20
0.0
 30
0.0
 70
   128
  0
VERTEX
  5
439
  8
0
  6
CONTINUOUS
 62
     7
 10
80.9854507358
 20
115.5514407799
 30
0.0
  0
VERTEX
  5
43A
  8
0
  6
CONTINUOUS
 62
     7
 10
80.9852627251
 20
115.5495287746
 30
0.0
  0
VERTEX
  5
43B
  8
0
  6
CONTINUOUS
 62
     7
 10
80.9847057942
 20
115.5438654021
 30
0.0
  0
VERTEX
  5
43C
  8
0
  6
CONTINUOUS
 62
     7
 10
80.98380148
 20
115.5346685916
 30
0.0
  0
VERTEX
  5
43D
  8
0
  6
CONTINUOUS
 62
     7
 10
80.9825843578
 20
115.5222922459
 30
0.0
  0
VERTEX
  5
43E
  8
0
  6
CONTINUOUS
 62
     7
 10
80.981101343
 20
115.5072113395
 30
0.0
  0
VERTEX
  5
43F
  8
0
  6
CONTINUOUS
 62
     7
 10
80.9794093627
 20
115.4900056206
 30
0.0
  0
VERTEX
  5
440
  8
0
  6
CONTINUOUS
 62
     7
 10
80.9775734931
 20
115.4713363283
 30
0.0
  0
VERTEX
  5
441
  8
0
  6
CONTINUOUS
 62
     7
 10
80.9756641654
 20
115.4519210465
 30
0.0
  0
SEQEND
  5
7CC
  8
0
  6
CONTINUOUS
 62
     7
  0
LINE
  5
96
  8
0
  6
CONTINUOUS
 62
     7
 10
80.9756641654
 20
115.4519210465
 30
0.0
 11
80.6676445907
 21
115.4822109163
 31
0.0
  0
POLYLINE
  5
97
  8
0
  6
CONTINUOUS
 62
     7
 66
     1
 10
0.0
 20
0.0
 30
0.0
 70
   128
  0
VERTEX
  5
442
  8
0
  6
CONTINUOUS
 62
     7
 10
80.6774311611
 20
115.5817311153
 30
0.0
  0
VERTEX
  5
443
  8
0
  6
CONTINUOUS
 62
     7
 10
80.6772431504
 20
115.5798186444
 30
0.0
  0
VERTEX
  5
444
  8
0
  6
CONTINUOUS
 62
     7
 10
80.6766862195
 20
115.5741552718
 30
0.0
  0
VERTEX
  5
445
  8
0
  6
CONTINUOUS
 62
     7
 10
80.6757817888
 20
115.5649589271
 30
0.0
  0
VERTEX
  5
446
  8
0
  6
CONTINUOUS
 62
     7
 10
80.6745647831
 20
115.5525821157
 30
0.0
  0
VERTEX
  5
447
  8
0
  6
CONTINUOUS
 62
     7
 10
80.6730817683
 20
115.5375012092
 30
0.0
  0
VERTEX
  5
448
  8
0
  6
CONTINUOUS
 62
     7
 10
80.671389788
 20
115.5202954903
 30
0.0
  0
VERTEX
  5
449
  8
0
  6
CONTINUOUS
 62
     7
 10
80.6695538019
 20
115.501626198
 30
0.0
  0
VERTEX
  5
44A
  8
0
  6
CONTINUOUS
 62
     7
 10
80.6676445907
 20
115.4822109163
 30
0.0
  0
SEQEND
  5
7CD
  8
0
  6
CONTINUOUS
 62
     7
  0
ARC
  5
98
  8
0
  6
CONTINUOUS
 62
     7
 10
80.6847711085
 20
115.6563708548
 30
0.0
 40
0.0750000000000091
 50
130.9861878664
 51
264.3837096094
  0
ARC
  5
99
  8
0
  6
CONTINUOUS
 62
     7
 10
80.6847711085
 20
115.6563708548
 30
0.0
 40
0.1749999999999793
 50
130.9861878664
 51
264.3837096094
  0
POLYLINE
  5
9A
  8
0
  6
CONTINUOUS
 62
     7
 66
     1
 10
0.0
 20
0.0
 30
0.0
 70
   128
  0
VERTEX
  5
44B
  8
0
  6
CONTINUOUS
 62
     7
 10
80.6355803186
 20
115.712986131
 30
0.0
  0
VERTEX
  5
44C
  8
0
  6
CONTINUOUS
 62
     7
 10
80.6343201227
 20
115.7144362003
 30
0.0
  0
VERTEX
  5
44D
  8
0
  6
CONTINUOUS
 62
     7
 10
80.6305877311
 20
115.7187319257
 30
0.0
  0
VERTEX
  5
44E
  8
0
  6
CONTINUOUS
 62
     7
 10
80.6245268002
 20
115.7257075317
 30
0.0
  0
VERTEX
  5
44F
  8
0
  6
CONTINUOUS
 62
     7
 10
80.6163701607
 20
115.735095729
 30
0.0
  0
VERTEX
  5
450
  8
0
  6
CONTINUOUS
 62
     7
 10
80.6064312026
 20
115.7465346985
 30
0.0
  0
VERTEX
  5
451
  8
0
  6
CONTINUOUS
 62
     7
 10
80.595092001
 20
115.7595853217
 30
0.0
  0
VERTEX
  5
452
  8
0
  6
CONTINUOUS
 62
     7
 10
80.582788182
 20
115.7737460815
 30
0.0
  0
VERTEX
  5
453
  8
0
  6
CONTINUOUS
 62
     7
 10
80.5699926247
 20
115.7884726197
 30
0.0
  0
SEQEND
  5
7CE
  8
0
  6
CONTINUOUS
 62
     7
  0
LINE
  5
9B
  8
0
  6
CONTINUOUS
 62
     7
 10
82.0238181302
 20
115.1861439355
 30
0.0
 11
81.7311993712
 21
115.2869796276
 31
0.0
  0
POLYLINE
  5
9C
  8
0
  6
CONTINUOUS
 62
     7
 66
     1
 10
0.0
 20
0.0
 30
0.0
 70
   128
  0
VERTEX
  5
454
  8
0
  6
CONTINUOUS
 62
     7
 10
81.7311993712
 20
115.2869796276
 30
0.0
  0
VERTEX
  5
455
  8
0
  6
CONTINUOUS
 62
     7
 10
81.737555415
 20
115.3054244712
 30
0.0
  0
VERTEX
  5
456
  8
0
  6
CONTINUOUS
 62
     7
 10
81.7436669865
 20
115.3231601127
 30
0.0
  0
VERTEX
  5
457
  8
0
  6
CONTINUOUS
 62
     7
 10
81.7492996255
 20
115.3395052895
 30
0.0
  0
VERTEX
  5
458
  8
0
  6
CONTINUOUS
 62
     7
 10
81.7542365664
 20
115.3538322903
 30
0.0
  0
VERTEX
  5
459
  8
0
  6
CONTINUOUS
 62
     7
 10
81.7582882853
 20
115.3655902378
 30
0.0
  0
VERTEX
  5
45A
  8
0
  6
CONTINUOUS
 62
     7
 10
81.7612990183
 20
115.3743269749
 30
0.0
  0
VERTEX
  5
45B
  8
0
  6
CONTINUOUS
 62
     7
 10
81.7631530488
 20
115.3797072254
 30
0.0
  0
VERTEX
  5
45C
  8
0
  6
CONTINUOUS
 62
     7
 10
81.7637788975
 20
115.3815237701
 30
0.0
  0
SEQEND
  5
7CF
  8
0
  6
CONTINUOUS
 62
     7
  0
LINE
  5
9D
  8
0
  6
CONTINUOUS
 62
     7
 10
81.7637788975
 20
115.3815237701
 30
0.0
 11
82.0563976565
 21
115.280688078
 31
0.0
  0
POLYLINE
  5
9E
  8
0
  6
CONTINUOUS
 62
     7
 66
     1
 10
0.0
 20
0.0
 30
0.0
 70
   128
  0
VERTEX
  5
45D
  8
0
  6
CONTINUOUS
 62
     7
 10
82.0238181302
 20
115.1861439355
 30
0.0
  0
VERTEX
  5
45E
  8
0
  6
CONTINUOUS
 62
     7
 10
82.0301741739
 20
115.2045887791
 30
0.0
  0
VERTEX
  5
45F
  8
0
  6
CONTINUOUS
 62
     7
 10
82.0362857455
 20
115.2223244205
 30
0.0
  0
VERTEX
  5
460
  8
0
  6
CONTINUOUS
 62
     7
 10
82.0419183844
 20
115.238670063
 30
0.0
  0
VERTEX
  5
461
  8
0
  6
CONTINUOUS
 62
     7
 10
82.0468553254
 20
115.2529965982
 30
0.0
  0
VERTEX
  5
462
  8
0
  6
CONTINUOUS
 62
     7
 10
82.0509070443
 20
115.2647545457
 30
0.0
  0
VERTEX
  5
463
  8
0
  6
CONTINUOUS
 62
     7
 10
82.0539177773
 20
115.2734912828
 30
0.0
  0
VERTEX
  5
464
  8
0
  6
CONTINUOUS
 62
     7
 10
82.0557718077
 20
115.2788715333
 30
0.0
  0
VERTEX
  5
465
  8
0
  6
CONTINUOUS
 62
     7
 10
82.0563976565
 20
115.280688078
 30
0.0
  0
SEQEND
  5
7D0
  8
0
  6
CONTINUOUS
 62
     7
  0
ARC
  5
9F
  8
0
  6
CONTINUOUS
 62
     7
 10
82.0808324695
 20
115.3515960589
 30
0.0
 40
0.1750000000000215
 50
250.9861878664
 51
24.3837096094
  0
ARC
  5
A0
  8
0
  6
CONTINUOUS
 62
     7
 10
82.0808324695
 20
115.3515960589
 30
0.0
 40
0.0750000000000109
 50
250.9861878664
 51
24.3837096094
  0
POLYLINE
  5
A1
  8
0
  6
CONTINUOUS
 62
     7
 66
     1
 10
0.0
 20
0.0
 30
0.0
 70
   128
  0
VERTEX
  5
466
  8
0
  6
CONTINUOUS
 62
     7
 10
82.2402225719
 20
115.4238439992
 30
0.0
  0
VERTEX
  5
467
  8
0
  6
CONTINUOUS
 62
     7
 10
82.2224538685
 20
115.4157899216
 30
0.0
  0
VERTEX
  5
468
  8
0
  6
CONTINUOUS
 62
     7
 10
82.2053678246
 20
115.4080450431
 30
0.0
  0
VERTEX
  5
469
  8
0
  6
CONTINUOUS
 62
     7
 10
82.1896212553
 20
115.4009073869
 30
0.0
  0
VERTEX
  5
46A
  8
0
  6
CONTINUOUS
 62
     7
 10
82.1758192876
 20
115.3946512275
 30
0.0
  0
VERTEX
  5
46B
  8
0
  6
CONTINUOUS
 62
     7
 10
82.1644923096
 20
115.3895173118
 30
0.0
  0
VERTEX
  5
46C
  8
0
  6
CONTINUOUS
 62
     7
 10
82.1560757147
 20
115.3857021488
 30
0.0
  0
VERTEX
  5
46D
  8
0
  6
CONTINUOUS
 62
     7
 10
82.1508926717
 20
115.3833528877
 30
0.0
  0
VERTEX
  5
46E
  8
0
  6
CONTINUOUS
 62
     7
 10
82.1491424838
 20
115.3825594008
 30
0.0
  0
SEQEND
  5
7D1
  8
0
  6
CONTINUOUS
 62
     7
  0
LINE
  5
A2
  8
0
  6
CONTINUOUS
 62
     7
 10
81.1777864262
 20
116.4324598283
 30
0.0
 11
80.8851676672
 21
116.5332952876
 31
0.0
  0
POLYLINE
  5
A3
  8
0
  6
CONTINUOUS
 62
     7
 66
     1
 10
0.0
 20
0.0
 30
0.0
 70
   128
  0
VERTEX
  5
46F
  8
0
  6
CONTINUOUS
 62
     7
 10
80.8851676672
 20
116.5332952876
 30
0.0
  0
VERTEX
  5
470
  8
0
  6
CONTINUOUS
 62
     7
 10
80.8857936324
 20
116.5351118323
 30
0.0
  0
VERTEX
  5
471
  8
0
  6
CONTINUOUS
 62
     7
 10
80.8876475464
 20
116.5404920828
 30
0.0
  0
VERTEX
  5
472
  8
0
  6
CONTINUOUS
 62
     7
 10
80.8906582795
 20
116.5492288199
 30
0.0
  0
VERTEX
  5
473
  8
0
  6
CONTINUOUS
 62
     7
 10
80.8947099983
 20
116.5609865345
 30
0.0
  0
VERTEX
  5
474
  8
0
  6
CONTINUOUS
 62
     7
 10
80.8996469393
 20
116.5753135354
 30
0.0
  0
VERTEX
  5
475
  8
0
  6
CONTINUOUS
 62
     7
 10
80.9052795782
 20
116.591658945
 30
0.0
  0
VERTEX
  5
476
  8
0
  6
CONTINUOUS
 62
     7
 10
80.9113912662
 20
116.6093945865
 30
0.0
  0
VERTEX
  5
477
  8
0
  6
CONTINUOUS
 62
     7
 10
80.9177471935
 20
116.6278391972
 30
0.0
  0
SEQEND
  5
7D2
  8
0
  6
CONTINUOUS
 62
     7
  0
LINE
  5
A4
  8
0
  6
CONTINUOUS
 62
     7
 10
80.9177471935
 20
116.6278391972
 30
0.0
 11
81.2103659525
 21
116.5270037379
 31
0.0
  0
POLYLINE
  5
A5
  8
0
  6
CONTINUOUS
 62
     7
 66
     1
 10
0.0
 20
0.0
 30
0.0
 70
   128
  0
VERTEX
  5
478
  8
0
  6
CONTINUOUS
 62
     7
 10
81.1777864262
 20
116.4324598283
 30
0.0
  0
VERTEX
  5
479
  8
0
  6
CONTINUOUS
 62
     7
 10
81.1784123914
 20
116.434276373
 30
0.0
  0
VERTEX
  5
47A
  8
0
  6
CONTINUOUS
 62
     7
 10
81.1802663054
 20
116.4396561578
 30
0.0
  0
VERTEX
  5
47B
  8
0
  6
CONTINUOUS
 62
     7
 10
81.1832770385
 20
116.4483931277
 30
0.0
  0
VERTEX
  5
47C
  8
0
  6
CONTINUOUS
 62
     7
 10
81.1873287573
 20
116.4601508424
 30
0.0
  0
VERTEX
  5
47D
  8
0
  6
CONTINUOUS
 62
     7
 10
81.1922656983
 20
116.4744778432
 30
0.0
  0
VERTEX
  5
47E
  8
0
  6
CONTINUOUS
 62
     7
 10
81.1978983372
 20
116.4908232529
 30
0.0
  0
VERTEX
  5
47F
  8
0
  6
CONTINUOUS
 62
     7
 10
81.2040100252
 20
116.5085591272
 30
0.0
  0
VERTEX
  5
480
  8
0
  6
CONTINUOUS
 62
     7
 10
81.2103659525
 20
116.5270037379
 30
0.0
  0
SEQEND
  5
7D3
  8
0
  6
CONTINUOUS
 62
     7
  0
ARC
  5
A6
  8
0
  6
CONTINUOUS
 62
     7
 10
80.860732919
 20
116.4623872574
 30
0.0
 40
0.0750000000000082
 50
70.9861878664
 51
204.3837096094
  0
POLYLINE
  5
A7
  8
0
  6
CONTINUOUS
 62
     7
 66
     1
 10
0.0
 20
0.0
 30
0.0
 70
   128
  0
VERTEX
  5
481
  8
0
  6
CONTINUOUS
 62
     7
 10
80.79242284
 20
116.4314237319
 30
0.0
  0
VERTEX
  5
482
  8
0
  6
CONTINUOUS
 62
     7
 10
80.7906727684
 20
116.4306307107
 30
0.0
  0
VERTEX
  5
483
  8
0
  6
CONTINUOUS
 62
     7
 10
80.7854897255
 20
116.4282814495
 30
0.0
  0
VERTEX
  5
484
  8
0
  6
CONTINUOUS
 62
     7
 10
80.7770730141
 20
116.4244662866
 30
0.0
  0
VERTEX
  5
485
  8
0
  6
CONTINUOUS
 62
     7
 10
80.7657460361
 20
116.4193319053
 30
0.0
  0
VERTEX
  5
486
  8
0
  6
CONTINUOUS
 62
     7
 10
80.7519441848
 20
116.4130757459
 30
0.0
  0
VERTEX
  5
487
  8
0
  6
CONTINUOUS
 62
     7
 10
80.7361976156
 20
116.4059380897
 30
0.0
  0
VERTEX
  5
488
  8
0
  6
CONTINUOUS
 62
     7
 10
80.7191115716
 20
116.3981936768
 30
0.0
  0
VERTEX
  5
489
  8
0
  6
CONTINUOUS
 62
     7
 10
80.7013427518
 20
116.3901391335
 30
0.0
  0
SEQEND
  5
7D4
  8
0
  6
CONTINUOUS
 62
     7
  0
ARC
  5
A8
  8
0
  6
CONTINUOUS
 62
     7
 10
80.860732919
 20
116.4623872574
 30
0.0
 40
0.1750000000000434
 50
70.9861878664
 51
204.3837096094
  0
LINE
  5
A9
  8
0
  6
CONTINUOUS
 62
     7
 10
81.5857742825
 20
116.7566846486
 30
0.0
 11
81.4055326307
 21
116.5050769121
 31
0.0
  0
POLYLINE
  5
AA
  8
0
  6
CONTINUOUS
 62
     7
 66
     1
 10
0.0
 20
0.0
 30
0.0
 70
   128
  0
VERTEX
  5
48A
  8
0
  6
CONTINUOUS
 62
     7
 10
81.4055326307
 20
116.5050769121
 30
0.0
  0
VERTEX
  5
48B
  8
0
  6
CONTINUOUS
 62
     7
 10
81.4039705699
 20
116.5061958961
 30
0.0
  0
VERTEX
  5
48C
  8
0
  6
CONTINUOUS
 62
     7
 10
81.3993445743
 20
116.5095097747
 30
0.0
  0
VERTEX
  5
48D
  8
0
  6
CONTINUOUS
 62
     7
 10
81.3918321771
 20
116.5148911894
 30
0.0
  0
VERTEX
  5
48E
  8
0
  6
CONTINUOUS
 62
     7
 10
81.3817223213
 20
116.5221336194
 30
0.0
  0
VERTEX
  5
48F
  8
0
  6
CONTINUOUS
 62
     7
 10
81.3694033684
 20
116.5309583664
 30
0.0
  0
VERTEX
  5
490
  8
0
  6
CONTINUOUS
 62
     7
 10
81.3553487794
 20
116.5410264291
 30
0.0
  0
VERTEX
  5
491
  8
0
  6
CONTINUOUS
 62
     7
 10
81.3400987215
 20
116.5519510757
 30
0.0
  0
VERTEX
  5
492
  8
0
  6
CONTINUOUS
 62
     7
 10
81.324239113
 20
116.5633122798
 30
0.0
  0
SEQEND
  5
7D5
  8
0
  6
CONTINUOUS
 62
     7
  0
LINE
  5
AB
  8
0
  6
CONTINUOUS
 62
     7
 10
81.324239113
 20
116.5633122798
 30
0.0
 11
81.5044807648
 21
116.8149200164
 31
0.0
  0
POLYLINE
  5
AC
  8
0
  6
CONTINUOUS
 62
     7
 66
     1
 10
0.0
 20
0.0
 30
0.0
 70
   128
  0
VERTEX
  5
493
  8
0
  6
CONTINUOUS
 62
     7
 10
81.5857742825
 20
116.7566846486
 30
0.0
  0
VERTEX
  5
494
  8
0
  6
CONTINUOUS
 62
     7
 10
81.5842122217
 20
116.7578036327
 30
0.0
  0
VERTEX
  5
495
  8
0
  6
CONTINUOUS
 62
     7
 10
81.5795863425
 20
116.7611175113
 30
0.0
  0
VERTEX
  5
496
  8
0
  6
CONTINUOUS
 62
     7
 10
81.572073829
 20
116.7664991588
 30
0.0
  0
VERTEX
  5
497
  8
0
  6
CONTINUOUS
 62
     7
 10
81.5619640896
 20
116.7737413559
 30
0.0
  0
VERTEX
  5
498
  8
0
  6
CONTINUOUS
 62
     7
 10
81.5496450202
 20
116.782566103
 30
0.0
  0
VERTEX
  5
499
  8
0
  6
CONTINUOUS
 62
     7
 10
81.5355904312
 20
116.7926343985
 30
0.0
  0
VERTEX
  5
49A
  8
0
  6
CONTINUOUS
 62
     7
 10
81.5203404898
 20
116.8035588123
 30
0.0
  0
VERTEX
  5
49B
  8
0
  6
CONTINUOUS
 62
     7
 10
81.5044807648
 20
116.8149200164
 30
0.0
  0
SEQEND
  5
7D6
  8
0
  6
CONTINUOUS
 62
     7
  0
ARC
  5
AD
  8
0
  6
CONTINUOUS
 62
     7
 10
81.2429456003
 20
116.6215476452
 30
0.0
 40
0.200000000000026
 50
250.9861878664
 51
324.3837096094
  0
ARC
  5
AE
  8
0
  6
CONTINUOUS
 62
     7
 10
81.2429456003
 20
116.6215476452
 30
0.0
 40
0.1000000000000278
 50
250.9861878664
 51
324.3837096094
  0
ARC
  5
AF
  8
0
  6
CONTINUOUS
 62
     7
 10
81.2948208837
 20
115.1009752555
 30
0.0
 40
0.1750000000000054
 50
190.9861878664
 51
324.3837096094
  0
POLYLINE
  5
B0
  8
0
  6
CONTINUOUS
 62
     7
 66
     1
 10
0.0
 20
0.0
 30
0.0
 70
   128
  0
VERTEX
  5
49C
  8
0
  6
CONTINUOUS
 62
     7
 10
81.1230280349
 20
115.0676252216
 30
0.0
  0
VERTEX
  5
49D
  8
0
  6
CONTINUOUS
 62
     7
 10
81.1421795195
 20
115.0713430613
 30
0.0
  0
VERTEX
  5
49E
  8
0
  6
CONTINUOUS
 62
     7
 10
81.1605951428
 20
115.0749179431
 30
0.0
  0
VERTEX
  5
49F
  8
0
  6
CONTINUOUS
 62
     7
 10
81.1775668669
 20
115.0782124967
 30
0.0
  0
VERTEX
  5
4A0
  8
0
  6
CONTINUOUS
 62
     7
 10
81.1924428824
 20
115.081100528
 30
0.0
  0
VERTEX
  5
4A1
  8
0
  6
CONTINUOUS
 62
     7
 10
81.2046512408
 20
115.0834707439
 30
0.0
  0
VERTEX
  5
4A2
  8
0
  6
CONTINUOUS
 62
     7
 10
81.2137229047
 20
115.0852318749
 30
0.0
  0
VERTEX
  5
4A3
  8
0
  6
CONTINUOUS
 62
     7
 10
81.219309094
 20
115.0863159344
 30
0.0
  0
VERTEX
  5
4A4
  8
0
  6
CONTINUOUS
 62
     7
 10
81.2211953714
 20
115.0866824098
 30
0.0
  0
SEQEND
  5
7D7
  8
0
  6
CONTINUOUS
 62
     7
  0
ARC
  5
B1
  8
0
  6
CONTINUOUS
 62
     7
 10
81.2948208837
 20
115.1009752555
 30
0.0
 40
0.0750000000000268
 50
190.9861878664
 51
324.3837096094
  0
POLYLINE
  5
B2
  8
0
  6
CONTINUOUS
 62
     7
 66
     1
 10
0.0
 20
0.0
 30
0.0
 70
   128
  0
VERTEX
  5
4A5
  8
0
  6
CONTINUOUS
 62
     7
 10
81.4370844425
 20
114.9990631163
 30
0.0
  0
VERTEX
  5
4A6
  8
0
  6
CONTINUOUS
 62
     7
 10
81.4212249504
 20
115.0104243204
 30
0.0
  0
VERTEX
  5
4A7
  8
0
  6
CONTINUOUS
 62
     7
 10
81.4059748925
 20
115.0213491999
 30
0.0
  0
VERTEX
  5
4A8
  8
0
  6
CONTINUOUS
 62
     7
 10
81.3919203035
 20
115.0314172626
 30
0.0
  0
VERTEX
  5
4A9
  8
0
  6
CONTINUOUS
 62
     7
 10
81.3796013506
 20
115.0402420096
 30
0.0
  0
VERTEX
  5
4AA
  8
0
  6
CONTINUOUS
 62
     7
 10
81.3694914948
 20
115.0474844396
 30
0.0
  0
VERTEX
  5
4AB
  8
0
  6
CONTINUOUS
 62
     7
 10
81.3619790977
 20
115.0528656215
 30
0.0
  0
VERTEX
  5
4AC
  8
0
  6
CONTINUOUS
 62
     7
 10
81.357353102
 20
115.0561797328
 30
0.0
  0
VERTEX
  5
4AD
  8
0
  6
CONTINUOUS
 62
     7
 10
81.3557910412
 20
115.0572987169
 30
0.0
  0
SEQEND
  5
7D8
  8
0
  6
CONTINUOUS
 62
     7
  0
ARC
  5
B3
  8
0
  6
CONTINUOUS
 62
     7
 10
81.6467445047
 20
116.7130080607
 30
0.0
 40
0.0750000000000047
 50
10.9861878664
 51
144.3837096094
  0
ARC
  5
B4
  8
0
  6
CONTINUOUS
 62
     7
 10
81.6467445047
 20
116.7130080607
 30
0.0
 40
0.1750000000000144
 50
10.9861878664
 51
144.3837096094
  0
POLYLINE
  5
B5
  8
0
  6
CONTINUOUS
 62
     7
 66
     1
 10
0.0
 20
0.0
 30
0.0
 70
   128
  0
VERTEX
  5
4AE
  8
0
  6
CONTINUOUS
 62
     7
 10
81.7203699523
 20
116.7273009557
 30
0.0
  0
VERTEX
  5
4AF
  8
0
  6
CONTINUOUS
 62
     7
 10
81.7222563462
 20
116.7276671984
 30
0.0
  0
VERTEX
  5
4B0
  8
0
  6
CONTINUOUS
 62
     7
 10
81.727842419
 20
116.7287517235
 30
0.0
  0
VERTEX
  5
4B1
  8
0
  6
CONTINUOUS
 62
     7
 10
81.7369141994
 20
116.7305126216
 30
0.0
  0
VERTEX
  5
4B2
  8
0
  6
CONTINUOUS
 62
     7
 10
81.7491224413
 20
116.7328828376
 30
0.0
  0
VERTEX
  5
4B3
  8
0
  6
CONTINUOUS
 62
     7
 10
81.7639984568
 20
116.7357706361
 30
0.0
  0
VERTEX
  5
4B4
  8
0
  6
CONTINUOUS
 62
     7
 10
81.7809704138
 20
116.7390654225
 30
0.0
  0
VERTEX
  5
4B5
  8
0
  6
CONTINUOUS
 62
     7
 10
81.7993859207
 20
116.7426403042
 30
0.0
  0
VERTEX
  5
4B6
  8
0
  6
CONTINUOUS
 62
     7
 10
81.8185374053
 20
116.7463581439
 30
0.0
  0
SEQEND
  5
7D9
  8
0
  6
CONTINUOUS
 62
     7
  0
LINE
  5
B6
  8
0
  6
CONTINUOUS
 62
     7
 10
81.6173263272
 20
115.2506710857
 30
0.0
 11
81.4370844425
 21
114.9990631163
 31
0.0
  0
LINE
  5
B7
  8
0
  6
CONTINUOUS
 62
     7
 10
81.3557910412
 20
115.0572987169
 30
0.0
 11
81.5360328095
 21
115.3089066863
 31
0.0
  0
POLYLINE
  5
B8
  8
0
  6
CONTINUOUS
 62
     7
 66
     1
 10
0.0
 20
0.0
 30
0.0
 70
   128
  0
VERTEX
  5
4B7
  8
0
  6
CONTINUOUS
 62
     7
 10
81.6173263272
 20
115.2506710857
 30
0.0
  0
VERTEX
  5
4B8
  8
0
  6
CONTINUOUS
 62
     7
 10
81.6014666022
 20
115.2620322898
 30
0.0
  0
VERTEX
  5
4B9
  8
0
  6
CONTINUOUS
 62
     7
 10
81.5862166607
 20
115.2729567036
 30
0.0
  0
VERTEX
  5
4BA
  8
0
  6
CONTINUOUS
 62
     7
 10
81.5721620718
 20
115.2830247663
 30
0.0
  0
VERTEX
  5
4BB
  8
0
  6
CONTINUOUS
 62
     7
 10
81.5598430024
 20
115.2918495134
 30
0.0
  0
VERTEX
  5
4BC
  8
0
  6
CONTINUOUS
 62
     7
 10
81.549733263
 20
115.2990919434
 30
0.0
  0
VERTEX
  5
4BD
  8
0
  6
CONTINUOUS
 62
     7
 10
81.5422207495
 20
115.3044735909
 30
0.0
  0
VERTEX
  5
4BE
  8
0
  6
CONTINUOUS
 62
     7
 10
81.5375948703
 20
115.3077877023
 30
0.0
  0
VERTEX
  5
4BF
  8
0
  6
CONTINUOUS
 62
     7
 10
81.5360328095
 20
115.3089066863
 30
0.0
  0
SEQEND
  5
7DA
  8
0
  6
CONTINUOUS
 62
     7
  0
LINE
  5
B9
  8
0
  6
CONTINUOUS
 62
     7
 10
82.3715728154
 20
116.0255105131
 30
0.0
 11
82.1379372762
 21
115.8225129254
 31
0.0
  0
POLYLINE
  5
BA
  8
0
  6
CONTINUOUS
 62
     7
 66
     1
 10
0.0
 20
0.0
 30
0.0
 70
   128
  0
VERTEX
  5
4C0
  8
0
  6
CONTINUOUS
 62
     7
 10
82.1379372762
 20
115.8225129254
 30
0.0
  0
VERTEX
  5
4C1
  8
0
  6
CONTINUOUS
 62
     7
 10
82.1251416025
 20
115.8372399293
 30
0.0
  0
VERTEX
  5
4C2
  8
0
  6
CONTINUOUS
 62
     7
 10
82.1128379
 20
115.8514006891
 30
0.0
  0
VERTEX
  5
4C3
  8
0
  6
CONTINUOUS
 62
     7
 10
82.101498582
 20
115.8644513123
 30
0.0
  0
VERTEX
  5
4C4
  8
0
  6
CONTINUOUS
 62
     7
 10
82.0915597403
 20
115.8758902818
 30
0.0
  0
VERTEX
  5
4C5
  8
0
  6
CONTINUOUS
 62
     7
 10
82.0834029844
 20
115.8852780134
 30
0.0
  0
VERTEX
  5
4C6
  8
0
  6
CONTINUOUS
 62
     7
 10
82.0773419371
 20
115.8922536195
 30
0.0
  0
VERTEX
  5
4C7
  8
0
  6
CONTINUOUS
 62
     7
 10
82.0736096618
 20
115.8965493448
 30
0.0
  0
VERTEX
  5
4C8
  8
0
  6
CONTINUOUS
 62
     7
 10
82.0723493496
 20
115.8979998797
 30
0.0
  0
SEQEND
  5
7DB
  8
0
  6
CONTINUOUS
 62
     7
  0
LINE
  5
BB
  8
0
  6
CONTINUOUS
 62
     7
 10
82.0723493496
 20
115.8979998797
 30
0.0
 11
82.3059851216
 21
116.1009974674
 31
0.0
  0
POLYLINE
  5
BC
  8
0
  6
CONTINUOUS
 62
     7
 66
     1
 10
0.0
 20
0.0
 30
0.0
 70
   128
  0
VERTEX
  5
4C9
  8
0
  6
CONTINUOUS
 62
     7
 10
82.3715728154
 20
116.0255105131
 30
0.0
  0
VERTEX
  5
4CA
  8
0
  6
CONTINUOUS
 62
     7
 10
82.3587771417
 20
116.0402375169
 30
0.0
  0
VERTEX
  5
4CB
  8
0
  6
CONTINUOUS
 62
     7
 10
82.3464734392
 20
116.0543982767
 30
0.0
  0
VERTEX
  5
4CC
  8
0
  6
CONTINUOUS
 62
     7
 10
82.3351341212
 20
116.0674488999
 30
0.0
  0
VERTEX
  5
4CD
  8
0
  6
CONTINUOUS
 62
     7
 10
82.3251952795
 20
116.0788878694
 30
0.0
  0
VERTEX
  5
4CE
  8
0
  6
CONTINUOUS
 62
     7
 10
82.3170385236
 20
116.088275601
 30
0.0
  0
VERTEX
  5
4CF
  8
0
  6
CONTINUOUS
 62
     7
 10
82.3109777091
 20
116.0952512071
 30
0.0
  0
VERTEX
  5
4D0
  8
0
  6
CONTINUOUS
 62
     7
 10
82.307245201
 20
116.0995469324
 30
0.0
  0
VERTEX
  5
4D1
  8
0
  6
CONTINUOUS
 62
     7
 10
82.3059851216
 20
116.1009974674
 30
0.0
  0
SEQEND
  5
7DC
  8
0
  6
CONTINUOUS
 62
     7
  0
LINE
  5
BD
  8
0
  6
CONTINUOUS
 62
     7
 10
80.8692159742
 20
115.915983253
 30
0.0
 11
80.6355803186
 21
115.712986131
 31
0.0
  0
LINE
  5
BE
  8
0
  6
CONTINUOUS
 62
     7
 10
80.5699926247
 20
115.7884726197
 30
0.0
 11
80.8036281639
 21
115.9914702073
 31
0.0
  0
POLYLINE
  5
BF
  8
0
  6
CONTINUOUS
 62
     7
 66
     1
 10
0.0
 20
0.0
 30
0.0
 70
   128
  0
VERTEX
  5
4D2
  8
0
  6
CONTINUOUS
 62
     7
 10
80.8692159742
 20
115.915983253
 30
0.0
  0
VERTEX
  5
4D3
  8
0
  6
CONTINUOUS
 62
     7
 10
80.8679556619
 20
115.9174337879
 30
0.0
  0
VERTEX
  5
4D4
  8
0
  6
CONTINUOUS
 62
     7
 10
80.8642233867
 20
115.9217295133
 30
0.0
  0
VERTEX
  5
4D5
  8
0
  6
CONTINUOUS
 62
     7
 10
80.8581624558
 20
115.9287051194
 30
0.0
  0
VERTEX
  5
4D6
  8
0
  6
CONTINUOUS
 62
     7
 10
80.8500056998
 20
115.9380928509
 30
0.0
  0
VERTEX
  5
4D7
  8
0
  6
CONTINUOUS
 62
     7
 10
80.8400667417
 20
115.9495318204
 30
0.0
  0
VERTEX
  5
4D8
  8
0
  6
CONTINUOUS
 62
     7
 10
80.8287275402
 20
115.9625824437
 30
0.0
  0
VERTEX
  5
4D9
  8
0
  6
CONTINUOUS
 62
     7
 10
80.8164237212
 20
115.9767432034
 30
0.0
  0
VERTEX
  5
4DA
  8
0
  6
CONTINUOUS
 62
     7
 10
80.8036281639
 20
115.9914702073
 30
0.0
  0
SEQEND
  5
7DD
  8
0
  6
CONTINUOUS
 62
     7
  0
ARC
  5
C0
  8
0
  6
CONTINUOUS
 62
     7
 10
82.25679428
 20
116.1576124615
 30
0.0
 40
0.1749999999999994
 50
310.9861878664
 51
84.3837096094
  0
ARC
  5
C1
  8
0
  6
CONTINUOUS
 62
     7
 10
82.25679428
 20
116.1576124615
 30
0.0
 40
0.0749999999999783
 50
310.9861878664
 51
84.3837096095
  0
POLYLINE
  5
C2
  8
0
  6
CONTINUOUS
 62
     7
 66
     1
 10
0.0
 20
0.0
 30
0.0
 70
   128
  0
VERTEX
  5
4DB
  8
0
  6
CONTINUOUS
 62
     7
 10
82.2739208495
 20
116.3317722164
 30
0.0
  0
VERTEX
  5
4DC
  8
0
  6
CONTINUOUS
 62
     7
 10
82.2720116382
 20
116.3123569347
 30
0.0
  0
VERTEX
  5
4DD
  8
0
  6
CONTINUOUS
 62
     7
 10
82.2701755358
 20
116.2936876424
 30
0.0
  0
VERTEX
  5
4DE
  8
0
  6
CONTINUOUS
 62
     7
 10
82.2684835555
 20
116.2764819235
 30
0.0
  0
VERTEX
  5
4DF
  8
0
  6
CONTINUOUS
 62
     7
 10
82.2670006571
 20
116.261401017
 30
0.0
  0
VERTEX
  5
4E0
  8
0
  6
CONTINUOUS
 62
     7
 10
82.2657836513
 20
116.2490246713
 30
0.0
  0
VERTEX
  5
4E1
  8
0
  6
CONTINUOUS
 62
     7
 10
82.2648791043
 20
116.2398278609
 30
0.0
  0
VERTEX
  5
4E2
  8
0
  6
CONTINUOUS
 62
     7
 10
82.2643221734
 20
116.2341644883
 30
0.0
  0
VERTEX
  5
4E3
  8
0
  6
CONTINUOUS
 62
     7
 10
82.264134279
 20
116.2322524831
 30
0.0
  0
SEQEND
  5
7DE
  8
0
  6
CONTINUOUS
 62
     7
  0
ARC
  5
C3
  8
0
  6
CONTINUOUS
 62
     7
 10
81.6986197882
 20
115.1924356711
 30
0.0
 40
0.0999999999999856
 50
70.9861878664
 51
144.3837096094
  0
LINE
  5
C4
  8
0
  6
CONTINUOUS
 62
     7
 10
82.1124448819
 20
115.7057418384
 30
0.0
 11
82.2402225719
 21
115.4238439992
 31
0.0
  0
ARC
  5
C5
  8
0
  6
CONTINUOUS
 62
     7
 10
82.2035248784
 20
115.7470263759
 30
0.0
 40
0.1000000000000104
 50
130.9861878664
 51
204.3837096094
  0
LINE
  5
C6
  8
0
  6
CONTINUOUS
 62
     7
 10
81.9659012748
 20
116.3620625518
 30
0.0
 11
82.2739208495
 21
116.3317722164
 31
0.0
  0
ARC
  5
C7
  8
0
  6
CONTINUOUS
 62
     7
 10
81.9756877845
 20
116.4615823629
 30
0.0
 40
0.1000000000000655
 50
190.9861878664
 51
264.3837096094
  0
LINE
  5
C8
  8
0
  6
CONTINUOUS
 62
     7
 10
81.8185374053
 20
116.7463581439
 30
0.0
 11
81.8775203922
 21
116.442525097
 31
0.0
  0
LINE
  5
C9
  8
0
  6
CONTINUOUS
 62
     7
 10
80.8291206747
 20
116.1082412943
 30
0.0
 11
80.7013427518
 21
116.3901391335
 31
0.0
  0
ARC
  5
CA
  8
0
  6
CONTINUOUS
 62
     7
 10
80.73804051
 20
116.0669569404
 30
0.0
 40
0.0999999999999976
 50
310.9861878664
 51
24.3837096094
  0
ARC
  5
CB
  8
0
  6
CONTINUOUS
 62
     7
 10
80.965877604
 20
115.3524009533
 30
0.0
 40
0.0999999999999931
 50
10.9861878664
 51
84.3837096094
  0
LINE
  5
CC
  8
0
  6
CONTINUOUS
 62
     7
 10
81.1230280349
 20
115.0676252216
 30
0.0
 11
81.0640449315
 21
115.3714580357
 31
0.0
  0
CIRCLE
  5
CD
  8
0
  6
CONTINUOUS
 62
     7
 10
81.4707826942
 20
115.9069916581
 30
0.0
 40
1.125000000000042
  0
POLYLINE
  5
CE
  8
0
  6
CONTINUOUS
 62
     7
 66
     1
 10
0.0
 20
0.0
 30
0.0
 70
   128
  0
VERTEX
  5
4E4
  8
0
  6
CONTINUOUS
 62
     7
 10
81.0640449315
 20
115.3714580357
 30
0.0
  0
VERTEX
  5
4E5
  8
0
  6
CONTINUOUS
 62
     7
 10
81.0831964161
 20
115.3751758754
 30
0.0
  0
VERTEX
  5
4E6
  8
0
  6
CONTINUOUS
 62
     7
 10
81.101611923
 20
115.3787512228
 30
0.0
  0
VERTEX
  5
4E7
  8
0
  6
CONTINUOUS
 62
     7
 10
81.1185837635
 20
115.3820457764
 30
0.0
  0
VERTEX
  5
4E8
  8
0
  6
CONTINUOUS
 62
     7
 10
81.1334596626
 20
115.3849338077
 30
0.0
  0
VERTEX
  5
4E9
  8
0
  6
CONTINUOUS
 62
     7
 10
81.145668021
 20
115.387303558
 30
0.0
  0
VERTEX
  5
4EA
  8
0
  6
CONTINUOUS
 62
     7
 10
81.154739685
 20
115.389064689
 30
0.0
  0
VERTEX
  5
4EB
  8
0
  6
CONTINUOUS
 62
     7
 10
81.1603259906
 20
115.3901492141
 30
0.0
  0
VERTEX
  5
4EC
  8
0
  6
CONTINUOUS
 62
     7
 10
81.162212268
 20
115.3905152239
 30
0.0
  0
SEQEND
  5
7DF
  8
0
  6
CONTINUOUS
 62
     7
  0
LINE
  5
CF
  8
0
  6
CONTINUOUS
 62
     7
 10
81.162212268
 20
115.3905152239
 30
0.0
 11
81.2211953714
 21
115.0866824098
 31
0.0
  0
LINE
  5
D0
  8
0
  6
CONTINUOUS
 62
     7
 10
82.1491424838
 20
115.3825594008
 30
0.0
 11
82.0213645609
 21
115.66445724
 31
0.0
  0
POLYLINE
  5
D1
  8
0
  6
CONTINUOUS
 62
     7
 66
     1
 10
0.0
 20
0.0
 30
0.0
 70
   128
  0
VERTEX
  5
4ED
  8
0
  6
CONTINUOUS
 62
     7
 10
82.1124448819
 20
115.7057418384
 30
0.0
  0
VERTEX
  5
4EE
  8
0
  6
CONTINUOUS
 62
     7
 10
82.0946759456
 20
115.6976877608
 30
0.0
  0
VERTEX
  5
4EF
  8
0
  6
CONTINUOUS
 62
     7
 10
82.0775899017
 20
115.6899428822
 30
0.0
  0
VERTEX
  5
4F0
  8
0
  6
CONTINUOUS
 62
     7
 10
82.0618433324
 20
115.682805226
 30
0.0
  0
VERTEX
  5
4F1
  8
0
  6
CONTINUOUS
 62
     7
 10
82.0480413647
 20
115.6765490666
 30
0.0
  0
VERTEX
  5
4F2
  8
0
  6
CONTINUOUS
 62
     7
 10
82.0367143867
 20
115.6714151509
 30
0.0
  0
VERTEX
  5
4F3
  8
0
  6
CONTINUOUS
 62
     7
 10
82.0282977918
 20
115.667599988
 30
0.0
  0
VERTEX
  5
4F4
  8
0
  6
CONTINUOUS
 62
     7
 10
82.0231147488
 20
115.6652507268
 30
0.0
  0
VERTEX
  5
4F5
  8
0
  6
CONTINUOUS
 62
     7
 10
82.0213645609
 20
115.66445724
 30
0.0
  0
SEQEND
  5
7E0
  8
0
  6
CONTINUOUS
 62
     7
  0
ARC
  5
D2
  8
0
  6
CONTINUOUS
 62
     7
 10
80.965877604
 20
115.3524009533
 30
0.0
 40
0.2000000000000446
 50
10.9861878664
 51
84.3837096094
  0
ARC
  5
D3
  8
0
  6
CONTINUOUS
 62
     7
 10
80.73804051
 20
116.0669569404
 30
0.0
 40
0.1999999999999951
 50
310.9861878664
 51
24.3837096094
  0
POLYLINE
  5
D4
  8
0
  6
CONTINUOUS
 62
     7
 66
     1
 10
0.0
 20
0.0
 30
0.0
 70
   128
  0
VERTEX
  5
4F6
  8
0
  6
CONTINUOUS
 62
     7
 10
80.9202007629
 20
116.1495258928
 30
0.0
  0
VERTEX
  5
4F7
  8
0
  6
CONTINUOUS
 62
     7
 10
80.9184506913
 20
116.1487328716
 30
0.0
  0
VERTEX
  5
4F8
  8
0
  6
CONTINUOUS
 62
     7
 10
80.9132676484
 20
116.1463836104
 30
0.0
  0
VERTEX
  5
4F9
  8
0
  6
CONTINUOUS
 62
     7
 10
80.904850937
 20
116.1425684475
 30
0.0
  0
VERTEX
  5
4FA
  8
0
  6
CONTINUOUS
 62
     7
 10
80.893523959
 20
116.1374340661
 30
0.0
  0
VERTEX
  5
4FB
  8
0
  6
CONTINUOUS
 62
     7
 10
80.8797219913
 20
116.1311779067
 30
0.0
  0
VERTEX
  5
4FC
  8
0
  6
CONTINUOUS
 62
     7
 10
80.8639754221
 20
116.1240402505
 30
0.0
  0
VERTEX
  5
4FD
  8
0
  6
CONTINUOUS
 62
     7
 10
80.8468894945
 20
116.1162958376
 30
0.0
  0
VERTEX
  5
4FE
  8
0
  6
CONTINUOUS
 62
     7
 10
80.8291206747
 20
116.1082412943
 30
0.0
  0
SEQEND
  5
7E1
  8
0
  6
CONTINUOUS
 62
     7
  0
LINE
  5
D5
  8
0
  6
CONTINUOUS
 62
     7
 10
80.79242284
 20
116.4314237319
 30
0.0
 11
80.9202007629
 21
116.1495258928
 31
0.0
  0
LINE
  5
D6
  8
0
  6
CONTINUOUS
 62
     7
 10
82.264134279
 20
116.2322524831
 30
0.0
 11
81.9561147043
 21
116.2625423528
 31
0.0
  0
POLYLINE
  5
D7
  8
0
  6
CONTINUOUS
 62
     7
 66
     1
 10
0.0
 20
0.0
 30
0.0
 70
   128
  0
VERTEX
  5
4FF
  8
0
  6
CONTINUOUS
 62
     7
 10
81.9659012748
 20
116.3620625518
 30
0.0
  0
VERTEX
  5
500
  8
0
  6
CONTINUOUS
 62
     7
 10
81.9639918307
 20
116.3426468045
 30
0.0
  0
VERTEX
  5
501
  8
0
  6
CONTINUOUS
 62
     7
 10
81.962155961
 20
116.3239779778
 30
0.0
  0
VERTEX
  5
502
  8
0
  6
CONTINUOUS
 62
     7
 10
81.9604639807
 20
116.3067722589
 30
0.0
  0
VERTEX
  5
503
  8
0
  6
CONTINUOUS
 62
     7
 10
81.9589810824
 20
116.2916913524
 30
0.0
  0
VERTEX
  5
504
  8
0
  6
CONTINUOUS
 62
     7
 10
81.9577638438
 20
116.2793145411
 30
0.0
  0
VERTEX
  5
505
  8
0
  6
CONTINUOUS
 62
     7
 10
81.9568595295
 20
116.2701177307
 30
0.0
  0
VERTEX
  5
506
  8
0
  6
CONTINUOUS
 62
     7
 10
81.9563025986
 20
116.2644548238
 30
0.0
  0
VERTEX
  5
507
  8
0
  6
CONTINUOUS
 62
     7
 10
81.9561147043
 20
116.2625423528
 30
0.0
  0
SEQEND
  5
7E2
  8
0
  6
CONTINUOUS
 62
     7
  0
ARC
  5
D8
  8
0
  6
CONTINUOUS
 62
     7
 10
82.2035248784
 20
115.7470263759
 30
0.0
 40
0.2000000000000094
 50
130.9861878664
 51
204.3837096094
  0
LINE
  5
D9
  8
0
  6
CONTINUOUS
 62
     7
 10
81.7793531721
 20
116.4234679088
 30
0.0
 11
81.7203699523
 21
116.7273009557
 31
0.0
  0
POLYLINE
  5
DA
  8
0
  6
CONTINUOUS
 62
     7
 66
     1
 10
0.0
 20
0.0
 30
0.0
 70
   128
  0
VERTEX
  5
508
  8
0
  6
CONTINUOUS
 62
     7
 10
81.7793531721
 20
116.4234679088
 30
0.0
  0
VERTEX
  5
509
  8
0
  6
CONTINUOUS
 62
     7
 10
81.7812393332
 20
116.4238339186
 30
0.0
  0
VERTEX
  5
50A
  8
0
  6
CONTINUOUS
 62
     7
 10
81.7868256388
 20
116.4249184437
 30
0.0
  0
VERTEX
  5
50B
  8
0
  6
CONTINUOUS
 62
     7
 10
81.7958974192
 20
116.4266795747
 30
0.0
  0
VERTEX
  5
50C
  8
0
  6
CONTINUOUS
 62
     7
 10
81.8081056611
 20
116.4290497907
 30
0.0
  0
VERTEX
  5
50D
  8
0
  6
CONTINUOUS
 62
     7
 10
81.8229816766
 20
116.4319373563
 30
0.0
  0
VERTEX
  5
50E
  8
0
  6
CONTINUOUS
 62
     7
 10
81.8399534007
 20
116.4352323756
 30
0.0
  0
VERTEX
  5
50F
  8
0
  6
CONTINUOUS
 62
     7
 10
81.8583689077
 20
116.4388072573
 30
0.0
  0
VERTEX
  5
510
  8
0
  6
CONTINUOUS
 62
     7
 10
81.8775203922
 20
116.442525097
 30
0.0
  0
SEQEND
  5
7E3
  8
0
  6
CONTINUOUS
 62
     7
  0
CIRCLE
  5
DB
  8
0
  6
CONTINUOUS
 62
     7
 10
81.4707826942
 20
115.9069916581
 30
0.0
 40
1.225000000000042
  0
ARC
  5
DC
  8
0
  6
CONTINUOUS
 62
     7
 10
81.9756877845
 20
116.4615823629
 30
0.0
 40
0.2000000000000167
 50
190.9861878664
 51
264.3837096094
  0
ARC
  5
DD
  8
0
  6
CONTINUOUS
 62
     7
 10
81.6986197882
 20
115.1924356711
 30
0.0
 40
0.2000000000000358
 50
70.9861878664
 51
144.3837096094
  0
LINE
  5
DE
  8
0
  6
CONTINUOUS
 62
     7
 10
82.0808325341
 20
115.3515961848
 30
0.0
 11
82.1491424838
 21
115.3825594008
 31
0.0
  0
LINE
  5
DF
  8
0
  6
CONTINUOUS
 62
     7
 10
81.8316429766
 20
115.5784607761
 30
0.0
 11
82.0808325341
 21
115.3515961848
 31
0.0
  0
LINE
  5
E0
  8
0
  6
CONTINUOUS
 62
     7
 10
81.8316429766
 20
115.5784607761
 30
0.0
 11
82.0213645609
 21
115.66445724
 31
0.0
  0
LINE
  5
E1
  8
0
  6
CONTINUOUS
 62
     7
 10
81.4707827201
 20
115.9069917992
 30
0.0
 11
81.9357289845
 21
116.0552401923
 31
0.0
  0
LINE
  5
E2
  8
0
  6
CONTINUOUS
 62
     7
 10
81.9357289845
 20
116.0552401923
 30
0.0
 11
82.0723493496
 21
115.8979998797
 31
0.0
  0
LINE
  5
E3
  8
0
  6
CONTINUOUS
 62
     7
 10
81.4707827201
 20
115.9069917992
 30
0.0
 11
81.8316429766
 21
115.5784607761
 31
0.0
  0
LINE
  5
E4
  8
0
  6
CONTINUOUS
 62
     7
 10
80.6847711472
 20
115.6563710317
 30
0.0
 11
80.6774311611
 21
115.5817311153
 31
0.0
  0
LINE
  5
E5
  8
0
  6
CONTINUOUS
 62
     7
 10
81.0058364557
 20
115.7587429404
 30
0.0
 11
80.6847711472
 21
115.6563710317
 31
0.0
  0
LINE
  5
E6
  8
0
  6
CONTINUOUS
 62
     7
 10
81.0058364557
 20
115.7587429404
 30
0.0
 11
80.9854507358
 21
115.5514407799
 31
0.0
  0
LINE
  5
E7
  8
0
  6
CONTINUOUS
 62
     7
 10
80.6847711472
 20
115.6563710317
 30
0.0
 11
80.6355803186
 21
115.712986131
 31
0.0
  0
LINE
  5
E8
  8
0
  6
CONTINUOUS
 62
     7
 10
81.574868728
 20
116.3837712154
 30
0.0
 11
81.7793531721
 21
116.4234679088
 31
0.0
  0
LINE
  5
E9
  8
0
  6
CONTINUOUS
 62
     7
 10
81.9357289845
 20
116.0552401923
 30
0.0
 11
81.9561147043
 21
116.2625423528
 31
0.0
  0
POLYLINE
  5
EA
  8
0
  6
CONTINUOUS
 62
     7
 66
     1
 10
0.0
 20
0.0
 30
0.0
 70
   128
  0
VERTEX
  5
511
  8
0
  6
CONTINUOUS
 62
     7
 10
81.574868728
 20
116.3837712154
 30
0.0
  0
VERTEX
  5
512
  8
0
  6
CONTINUOUS
 62
     7
 10
81.4969030587
 20
116.0266397417
 30
0.0
  0
VERTEX
  5
513
  8
0
  6
CONTINUOUS
 62
     7
 10
81.4707827201
 20
115.9069917992
 30
0.0
  0
SEQEND
  5
7E4
  8
0
  6
CONTINUOUS
 62
     7
  0
LINE
  5
EB
  8
0
  6
CONTINUOUS
 62
     7
 10
81.1099224636
 20
116.2355223566
 30
0.0
 11
81.1777864262
 21
116.4324598283
 31
0.0
  0
LINE
  5
EC
  8
0
  6
CONTINUOUS
 62
     7
 10
81.1099224636
 20
116.2355223566
 30
0.0
 11
80.8607329061
 21
116.4623871807
 31
0.0
  0
LINE
  5
ED
  8
0
  6
CONTINUOUS
 62
     7
 10
80.8607329061
 20
116.4623871807
 30
0.0
 11
80.8851676672
 21
116.5332952876
 31
0.0
  0
LINE
  5
EE
  8
0
  6
CONTINUOUS
 62
     7
 10
81.574868728
 20
116.3837712154
 30
0.0
 11
81.646744479
 21
116.7130079482
 31
0.0
  0
LINE
  5
EF
  8
0
  6
CONTINUOUS
 62
     7
 10
81.646744479
 20
116.7130079482
 30
0.0
 11
81.7203699523
 21
116.7273009557
 31
0.0
  0
LINE
  5
F0
  8
0
  6
CONTINUOUS
 62
     7
 10
80.8607329061
 20
116.4623871807
 30
0.0
 11
80.79242284
 21
116.4314237319
 31
0.0
  0
LINE
  5
F1
  8
0
  6
CONTINUOUS
 62
     7
 10
81.4707827201
 20
115.9069917992
 30
0.0
 11
81.3666967122
 21
115.4302119173
 31
0.0
  0
LINE
  5
F2
  8
0
  6
CONTINUOUS
 62
     7
 10
81.3666967122
 20
115.4302119173
 30
0.0
 11
81.162212268
 21
115.3905152239
 31
0.0
  0
LINE
  5
F3
  8
0
  6
CONTINUOUS
 62
     7
 10
81.4707827201
 20
115.9069917992
 30
0.0
 11
81.0058364557
 21
115.7587429404
 31
0.0
  0
LINE
  5
F4
  8
0
  6
CONTINUOUS
 62
     7
 10
82.0808325341
 20
115.3515961848
 30
0.0
 11
82.0563976565
 21
115.280688078
 31
0.0
  0
LINE
  5
F5
  8
0
  6
CONTINUOUS
 62
     7
 10
81.2948208447
 20
115.1009754174
 30
0.0
 11
81.3557910412
 21
115.0572987169
 31
0.0
  0
LINE
  5
F6
  8
0
  6
CONTINUOUS
 62
     7
 10
81.2948208447
 20
115.1009754174
 30
0.0
 11
81.2211953714
 21
115.0866824098
 31
0.0
  0
LINE
  5
F7
  8
0
  6
CONTINUOUS
 62
     7
 10
81.3666967122
 20
115.4302119173
 30
0.0
 11
81.2948208447
 21
115.1009754174
 31
0.0
  0
LINE
  5
F8
  8
0
  6
CONTINUOUS
 62
     7
 10
81.3666967122
 20
115.4302119173
 30
0.0
 11
81.5360328095
 21
115.3089066863
 31
0.0
  0
LINE
  5
F9
  8
0
  6
CONTINUOUS
 62
     7
 10
82.256794293
 20
116.1576125667
 30
0.0
 11
82.264134279
 21
116.2322524831
 31
0.0
  0
LINE
  5
FA
  8
0
  6
CONTINUOUS
 62
     7
 10
81.9357289845
 20
116.0552401923
 30
0.0
 11
82.256794293
 21
116.1576125667
 31
0.0
  0
LINE
  5
FB
  8
0
  6
CONTINUOUS
 62
     7
 10
82.256794293
 20
116.1576125667
 30
0.0
 11
82.3059851216
 21
116.1009974674
 31
0.0
  0
LINE
  5
FC
  8
0
  6
CONTINUOUS
 62
     7
 10
81.8316429766
 20
115.5784607761
 30
0.0
 11
81.7637788975
 21
115.3815237701
 31
0.0
  0
LINE
  5
FD
  8
0
  6
CONTINUOUS
 62
     7
 10
81.0058364557
 20
115.7587429404
 30
0.0
 11
80.8692159742
 21
115.915983253
 31
0.0
  0
LINE
  5
FE
  8
0
  6
CONTINUOUS
 62
     7
 10
81.1099224636
 20
116.2355223566
 30
0.0
 11
80.9202007629
 21
116.1495258928
 31
0.0
  0
LINE
  5
FF
  8
0
  6
CONTINUOUS
 62
     7
 10
81.4707827201
 20
115.9069917992
 30
0.0
 11
81.1099224636
 21
116.2355223566
 31
0.0
  0
LINE
  5
100
  8
0
  6
CONTINUOUS
 62
     7
 10
81.574868728
 20
116.3837712154
 30
0.0
 11
81.4055326307
 21
116.5050769121
 31
0.0
  0
LINE
  5
101
  8
0
  6
CONTINUOUS
 62
     7
 10
81.646744479
 20
116.7130079482
 30
0.0
 11
81.5857742825
 21
116.7566846486
 31
0.0
  0
ARC
  5
102
  8
0
  6
CONTINUOUS
 62
     7
 10
81.2926349107
 20
122.0027964089
 30
0.0
 40
0.8003459061862346
 50
189.5543116203
 51
350.696438664
  0
ARC
  5
103
  8
0
  6
CONTINUOUS
 62
     7
 10
81.4707826942
 20
115.9069916581
 30
0.0
 40
1.600000000000017
 50
248.1737642681
 51
297.8262357319
  0
ARC
  5
104
  8
0
  6
CONTINUOUS
 62
     7
 10
82.2527045961
 20
114.4100359358
 30
0.0
 40
0.0891495486953775
 50
113.1548680329
 51
174.1905862985
  0
ARC
  5
105
  8
0
  6
CONTINUOUS
 62
     7
 10
82.1350081989
 20
114.422693133
 30
0.0
 40
0.0292314159156714
 50
290.8817102416
 51
352.8595938562
  0
ARC
  5
106
  8
0
  6
CONTINUOUS
 62
     7
 10
81.4707826942
 20
115.9069916581
 30
0.0
 40
1.655328000001866
 50
282.006984372
 51
294.0516193426
  0
POLYLINE
  5
107
  8
0
  6
CONTINUOUS
 62
     7
 66
     1
 10
0.0
 20
0.0
 30
0.0
 70
   128
  0
VERTEX
  5
514
  8
0
  6
CONTINUOUS
 62
     7
 10
81.815142036
 20
114.2878786557
 30
0.0
  0
VERTEX
  5
515
  8
0
  6
CONTINUOUS
 62
     7
 10
81.6924926737
 20
114.2677774549
 30
0.0
  0
VERTEX
  5
516
  8
0
  6
CONTINUOUS
 62
     7
 10
81.2975531123
 20
114.2607529544
 30
0.0
  0
SEQEND
  5
7E5
  8
0
  6
CONTINUOUS
 62
     7
  0
ARC
  5
108
  8
0
  6
CONTINUOUS
 62
     7
 10
81.4707826942
 20
115.9069916581
 30
0.0
 40
1.655328000000003
 50
251.948380658
 51
263.9930156262
  0
ARC
  5
109
  8
0
  6
CONTINUOUS
 62
     7
 10
80.9644756213
 20
114.3605480547
 30
0.0
 40
0.0281971464152321
 50
191.8691378567
 51
256.3890526617
  0
ARC
  5
10A
  8
0
  6
CONTINUOUS
 62
     7
 10
80.8484519677
 20
114.3354402458
 30
0.0
 40
0.0905127783791781
 50
12.3170592707
 51
72.3378142176
  0
POLYLINE
  5
10B
  8
0
  6
CONTINUOUS
 62
     7
 66
     1
 10
0.0
 20
0.0
 30
0.0
 70
   128
  0
VERTEX
  5
517
  8
0
  6
CONTINUOUS
 62
     7
 10
82.1959437715
 20
114.3498963572
 30
0.0
  0
VERTEX
  5
518
  8
0
  6
CONTINUOUS
 62
     7
 10
82.1987917559
 20
114.3530591287
 30
0.0
  0
VERTEX
  5
519
  8
0
  6
CONTINUOUS
 62
     7
 10
82.2016064455
 20
114.3561851129
 30
0.0
  0
VERTEX
  5
51A
  8
0
  6
CONTINUOUS
 62
     7
 10
82.2043552441
 20
114.3592379883
 30
0.0
  0
VERTEX
  5
51B
  8
0
  6
CONTINUOUS
 62
     7
 10
82.2070062538
 20
114.3621823646
 30
0.0
  0
VERTEX
  5
51C
  8
0
  6
CONTINUOUS
 62
     7
 10
82.2095285082
 20
114.3649833173
 30
0.0
  0
VERTEX
  5
51D
  8
0
  6
CONTINUOUS
 62
     7
 10
82.2118929034
 20
114.3676091813
 30
0.0
  0
VERTEX
  5
51E
  8
0
  6
CONTINUOUS
 62
     7
 10
82.2140717325
 20
114.370029223
 30
0.0
  0
VERTEX
  5
51F
  8
0
  6
CONTINUOUS
 62
     7
 10
82.2160396171
 20
114.3722145714
 30
0.0
  0
SEQEND
  5
7E6
  8
0
  6
CONTINUOUS
 62
     7
  0
LINE
  5
10C
  8
0
  6
CONTINUOUS
 62
     7
 10
82.145427438
 20
114.3953816861
 30
0.0
 11
82.1959437715
 21
114.3498963572
 31
0.0
  0
LINE
  5
10D
  8
0
  6
CONTINUOUS
 62
     7
 10
82.2160396171
 20
114.3722145714
 30
0.0
 11
82.1640129113
 21
114.4190596312
 31
0.0
  0
ARC
  5
10E
  8
0
  6
CONTINUOUS
 62
     7
 10
81.4707826942
 20
115.9069916581
 30
0.0
 40
1.599999999999998
 50
158.1737642682
 51
207.8262357319
  0
ARC
  5
10F
  8
0
  6
CONTINUOUS
 62
     7
 10
79.9738273454
 20
115.1250702616
 30
0.0
 40
0.0891489662166773
 50
23.1547915482
 51
84.1906383401
  0
ARC
  5
110
  8
0
  6
CONTINUOUS
 62
     7
 10
79.986504321
 20
115.2427921477
 30
0.0
 40
0.0292597545165041
 50
200.9151618676
 51
262.8272367706
  0
ARC
  5
111
  8
0
  6
CONTINUOUS
 62
     7
 10
81.4707826942
 20
115.9069916581
 30
0.0
 40
1.655328000001842
 50
192.0063086257
 51
204.0516193426
  0
POLYLINE
  5
112
  8
0
  6
CONTINUOUS
 62
     7
 66
     1
 10
0.0
 20
0.0
 30
0.0
 70
   128
  0
VERTEX
  5
520
  8
0
  6
CONTINUOUS
 62
     7
 10
79.8516654729
 20
115.5626511097
 30
0.0
  0
VERTEX
  5
521
  8
0
  6
CONTINUOUS
 62
     7
 10
79.8315682011
 20
115.6852825441
 30
0.0
  0
VERTEX
  5
522
  8
0
  6
CONTINUOUS
 62
     7
 10
79.8245418089
 20
116.0802019656
 30
0.0
  0
SEQEND
  5
7E7
  8
0
  6
CONTINUOUS
 62
     7
  0
ARC
  5
113
  8
0
  6
CONTINUOUS
 62
     7
 10
81.4707826942
 20
115.9069916581
 30
0.0
 40
1.655328000024124
 50
161.948380658
 51
173.9936913725
  0
ARC
  5
114
  8
0
  6
CONTINUOUS
 62
     7
 10
79.9243409365
 20
116.4132964756
 30
0.0
 40
0.0281996506720293
 50
101.8717167106
 51
166.3852204498
  0
ARC
  5
115
  8
0
  6
CONTINUOUS
 62
     7
 10
79.8992262484
 20
116.5293279836
 30
0.0
 40
0.0905194055256207
 50
282.3194618368
 51
342.3353868482
  0
POLYLINE
  5
116
  8
0
  6
CONTINUOUS
 62
     7
 66
     1
 10
0.0
 20
0.0
 30
0.0
 70
   128
  0
VERTEX
  5
523
  8
0
  6
CONTINUOUS
 62
     7
 10
79.9360058124
 20
115.1617349021
 30
0.0
  0
VERTEX
  5
524
  8
0
  6
CONTINUOUS
 62
     7
 10
79.933820173
 20
115.1637027867
 30
0.0
  0
VERTEX
  5
525
  8
0
  6
CONTINUOUS
 62
     7
 10
79.9314003641
 20
115.1658816159
 30
0.0
  0
VERTEX
  5
526
  8
0
  6
CONTINUOUS
 62
     7
 10
79.9287745292
 20
115.1682457783
 30
0.0
  0
VERTEX
  5
527
  8
0
  6
CONTINUOUS
 62
     7
 10
79.9259732273
 20
115.1707682654
 30
0.0
  0
VERTEX
  5
528
  8
0
  6
CONTINUOUS
 62
     7
 10
79.9230289965
 20
115.1734192752
 30
0.0
  0
VERTEX
  5
529
  8
0
  6
CONTINUOUS
 62
     7
 10
79.919976092
 20
115.1761680737
 30
0.0
  0
VERTEX
  5
52A
  8
0
  6
CONTINUOUS
 62
     7
 10
79.9168500787
 20
115.1789825306
 30
0.0
  0
VERTEX
  5
52B
  8
0
  6
CONTINUOUS
 62
     7
 10
79.913687249
 20
115.181830515
 30
0.0
  0
SEQEND
  5
7E8
  8
0
  6
CONTINUOUS
 62
     7
  0
LINE
  5
117
  8
0
  6
CONTINUOUS
 62
     7
 10
79.9591724906
 20
115.2323468484
 30
0.0
 11
79.913687249
 21
115.181830515
 31
0.0
  0
LINE
  5
118
  8
0
  6
CONTINUOUS
 62
     7
 10
79.9360058124
 20
115.1617349021
 30
0.0
 11
79.9828509014
 21
115.2137613751
 31
0.0
  0
ARC
  5
119
  8
0
  6
CONTINUOUS
 62
     7
 10
81.4707826942
 20
115.9069916581
 30
0.0
 40
1.600000000000009
 50
338.1737642682
 51
27.8262357319
  0
ARC
  5
11A
  8
0
  6
CONTINUOUS
 62
     7
 10
82.9677382366
 20
116.6889128923
 30
0.0
 40
0.089149013399776
 50
203.1546306142
 51
264.1904745854
  0
ARC
  5
11B
  8
0
  6
CONTINUOUS
 62
     7
 10
82.9550721078
 20
116.5712051332
 30
0.0
 40
0.0292443319274926
 50
20.8970360316
 51
82.8453626066
  0
ARC
  5
11C
  8
0
  6
CONTINUOUS
 62
     7
 10
81.4707826942
 20
115.9069916581
 30
0.0
 40
1.655328000001861
 50
12.0063086257
 51
24.0516193426
  0
POLYLINE
  5
11D
  8
0
  6
CONTINUOUS
 62
     7
 66
     1
 10
0.0
 20
0.0
 30
0.0
 70
   128
  0
VERTEX
  5
52C
  8
0
  6
CONTINUOUS
 62
     7
 10
83.0898998217
 20
116.251332023
 30
0.0
  0
VERTEX
  5
52D
  8
0
  6
CONTINUOUS
 62
     7
 10
83.1099972972
 20
116.1287005887
 30
0.0
  0
VERTEX
  5
52E
  8
0
  6
CONTINUOUS
 62
     7
 10
83.1170236604
 20
115.7337816328
 30
0.0
  0
SEQEND
  5
7E9
  8
0
  6
CONTINUOUS
 62
     7
  0
ARC
  5
11E
  8
0
  6
CONTINUOUS
 62
     7
 10
81.4707826942
 20
115.9069916581
 30
0.0
 40
1.65532800002415
 50
341.948380658
 51
353.9936913725
  0
ARC
  5
11F
  8
0
  6
CONTINUOUS
 62
     7
 10
83.0172239207
 20
115.4006870806
 30
0.0
 40
0.0282001789437418
 50
281.8726408185
 51
346.3855687524
  0
ARC
  5
120
  8
0
  6
CONTINUOUS
 62
     7
 10
83.0423405696
 20
115.2846535407
 30
0.0
 40
0.0905212771423691
 50
102.3201146437
 51
162.3345409867
  0
POLYLINE
  5
121
  8
0
  6
CONTINUOUS
 62
     7
 66
     1
 10
0.0
 20
0.0
 30
0.0
 70
   128
  0
VERTEX
  5
52F
  8
0
  6
CONTINUOUS
 62
     7
 10
83.0055594822
 20
116.6522484634
 30
0.0
  0
VERTEX
  5
530
  8
0
  6
CONTINUOUS
 62
     7
 10
83.0077452963
 20
116.6502805788
 30
0.0
  0
VERTEX
  5
531
  8
0
  6
CONTINUOUS
 62
     7
 10
83.0101651052
 20
116.6481017497
 30
0.0
  0
VERTEX
  5
532
  8
0
  6
CONTINUOUS
 62
     7
 10
83.0127907363
 20
116.6457375873
 30
0.0
  0
VERTEX
  5
533
  8
0
  6
CONTINUOUS
 62
     7
 10
83.0155921546
 20
116.6432151001
 30
0.0
  0
VERTEX
  5
534
  8
0
  6
CONTINUOUS
 62
     7
 10
83.0185362981
 20
116.6405640904
 30
0.0
  0
VERTEX
  5
535
  8
0
  6
CONTINUOUS
 62
     7
 10
83.0215891735
 20
116.6378152918
 30
0.0
  0
VERTEX
  5
536
  8
0
  6
CONTINUOUS
 62
     7
 10
83.0247153906
 20
116.6350006022
 30
0.0
  0
VERTEX
  5
537
  8
0
  6
CONTINUOUS
 62
     7
 10
83.027878162
 20
116.6321528506
 30
0.0
  0
SEQEND
  5
7EA
  8
0
  6
CONTINUOUS
 62
     7
  0
LINE
  5
122
  8
0
  6
CONTINUOUS
 62
     7
 10
82.9823928332
 20
116.5816362843
 30
0.0
 11
83.027878162
 21
116.6321528506
 31
0.0
  0
LINE
  5
123
  8
0
  6
CONTINUOUS
 62
     7
 10
83.0055594822
 20
116.6522484634
 30
0.0
 11
82.9587144224
 21
116.6002217576
 31
0.0
  0
ARC
  5
124
  8
0
  6
CONTINUOUS
 62
     7
 10
81.4707826942
 20
115.9069916581
 30
0.0
 40
1.600000000000011
 50
68.1737642681
 51
117.8262357319
  0
ARC
  5
125
  8
0
  6
CONTINUOUS
 62
     7
 10
80.6888609106
 20
117.4039474096
 30
0.0
 40
0.0891495039650356
 50
293.1548337751
 51
354.1904459907
  0
ARC
  5
126
  8
0
  6
CONTINUOUS
 62
     7
 10
80.8065733936
 20
117.3912778586
 30
0.0
 40
0.0292489539376763
 50
110.9024705475
 51
172.8399280907
  0
ARC
  5
127
  8
0
  6
CONTINUOUS
 62
     7
 10
81.4707826942
 20
115.9069916581
 30
0.0
 40
1.655328000001857
 50
102.006984372
 51
114.0516193426
  0
POLYLINE
  5
128
  8
0
  6
CONTINUOUS
 62
     7
 66
     1
 10
0.0
 20
0.0
 30
0.0
 70
   128
  0
VERTEX
  5
538
  8
0
  6
CONTINUOUS
 62
     7
 10
81.1264232877
 20
117.5261047099
 30
0.0
  0
VERTEX
  5
539
  8
0
  6
CONTINUOUS
 62
     7
 10
81.2490727665
 20
117.5462061435
 30
0.0
  0
VERTEX
  5
53A
  8
0
  6
CONTINUOUS
 62
     7
 10
81.6440122114
 20
117.5532304112
 30
0.0
  0
SEQEND
  5
7EB
  8
0
  6
CONTINUOUS
 62
     7
  0
ARC
  5
129
  8
0
  6
CONTINUOUS
 62
     7
 10
81.4707826942
 20
115.9069916581
 30
0.0
 40
1.655327999999998
 50
71.948380658
 51
83.9930156262
  0
ARC
  5
12A
  8
0
  6
CONTINUOUS
 62
     7
 10
81.977087781
 20
117.4534333965
 30
0.0
 40
0.028199486611483
 50
11.8716296906
 51
76.3859436784
  0
ARC
  5
12B
  8
0
  6
CONTINUOUS
 62
     7
 10
82.0931188739
 20
117.4785478065
 30
0.0
 40
0.0905191050013264
 50
192.3193722419
 51
252.3355012464
  0
POLYLINE
  5
12C
  8
0
  6
CONTINUOUS
 62
     7
 66
     1
 10
0.0
 20
0.0
 30
0.0
 70
   128
  0
VERTEX
  5
53B
  8
0
  6
CONTINUOUS
 62
     7
 10
80.725525823
 20
117.4417685613
 30
0.0
  0
VERTEX
  5
53C
  8
0
  6
CONTINUOUS
 62
     7
 10
80.7274937076
 20
117.4439541426
 30
0.0
  0
VERTEX
  5
53D
  8
0
  6
CONTINUOUS
 62
     7
 10
80.7296725368
 20
117.4463739515
 30
0.0
  0
VERTEX
  5
53E
  8
0
  6
CONTINUOUS
 62
     7
 10
80.7320368156
 20
117.4489998155
 30
0.0
  0
VERTEX
  5
53F
  8
0
  6
CONTINUOUS
 62
     7
 10
80.7345591863
 20
117.4518012338
 30
0.0
  0
VERTEX
  5
540
  8
0
  6
CONTINUOUS
 62
     7
 10
80.737210196
 20
117.4547453772
 30
0.0
  0
VERTEX
  5
541
  8
0
  6
CONTINUOUS
 62
     7
 10
80.7399589946
 20
117.4577982526
 30
0.0
  0
VERTEX
  5
542
  8
0
  6
CONTINUOUS
 62
     7
 10
80.7427736843
 20
117.4609242369
 30
0.0
  0
VERTEX
  5
543
  8
0
  6
CONTINUOUS
 62
     7
 10
80.7456215523
 20
117.4640870083
 30
0.0
  0
SEQEND
  5
7EC
  8
0
  6
CONTINUOUS
 62
     7
  0
LINE
  5
12D
  8
0
  6
CONTINUOUS
 62
     7
 10
80.7961380021
 20
117.4186019123
 30
0.0
 11
80.7456215523
 21
117.4640870083
 31
0.0
  0
LINE
  5
12E
  8
0
  6
CONTINUOUS
 62
     7
 10
80.725525823
 20
117.4417685613
 30
0.0
 11
80.7775525288
 21
117.3949235015
 31
0.0
  0
ARC
  5
12F
  8
0
  6
CONTINUOUS
 62
     7
 10
82.2886002934
 20
114.4518135637
 30
0.0
 40
0.1377401467275134
 50
227.72492098
 51
318.2751124771
  0
LINE
  5
130
  8
0
  6
CONTINUOUS
 62
     7
 10
82.3914025357
 20
114.3601399742
 30
0.0
 11
83.1053916743
 21
115.1531048015
 31
0.0
  0
ARC
  5
131
  8
0
  6
CONTINUOUS
 62
     7
 10
83.0034734905
 20
115.2457615039
 30
0.0
 40
0.13774099125575
 50
317.7251389157
 51
48.2747512797
  0
LINE
  5
132
  8
0
  6
CONTINUOUS
 62
     7
 10
83.0951482901
 20
115.3485637985
 30
0.0
 11
83.0446317238
 21
115.3940491274
 31
0.0
  0
LINE
  5
133
  8
0
  6
CONTINUOUS
 62
     7
 10
83.1170236604
 20
115.7337816328
 30
0.0
 11
83.1867475906
 21
114.4033687085
 31
0.0
  0
ARC
  5
134
  8
0
  6
CONTINUOUS
 62
     7
 10
83.1429098384
 20
114.4014053426
 30
0.0
 40
0.0438816969540038
 50
273.2063964725
 51
2.5643982145
  0
LINE
  5
135
  8
0
  6
CONTINUOUS
 62
     7
 10
83.145364272
 20
114.3575923413
 30
0.0
 11
81.815142036
 21
114.2878786557
 31
0.0
  0
LINE
  5
136
  8
0
  6
CONTINUOUS
 62
     7
 10
83.0830732273
 20
115.17320088
 30
0.0
 11
82.3690840887
 21
114.3802355871
 31
0.0
  0
POLYLINE
  5
137
  8
0
  6
CONTINUOUS
 62
     7
 66
     1
 10
0.0
 20
0.0
 30
0.0
 70
   128
  0
VERTEX
  5
544
  8
0
  6
CONTINUOUS
 62
     7
 10
83.0830732273
 20
115.17320088
 30
0.0
  0
VERTEX
  5
545
  8
0
  6
CONTINUOUS
 62
     7
 10
83.0852588085
 20
115.1712329954
 30
0.0
  0
VERTEX
  5
546
  8
0
  6
CONTINUOUS
 62
     7
 10
83.0876786174
 20
115.1690541662
 30
0.0
  0
VERTEX
  5
547
  8
0
  6
CONTINUOUS
 62
     7
 10
83.0903044814
 20
115.1666895382
 30
0.0
  0
VERTEX
  5
548
  8
0
  6
CONTINUOUS
 62
     7
 10
83.0931056669
 20
115.1641675167
 30
0.0
  0
VERTEX
  5
549
  8
0
  6
CONTINUOUS
 62
     7
 10
83.0960500432
 20
115.161516507
 30
0.0
  0
VERTEX
  5
54A
  8
0
  6
CONTINUOUS
 62
     7
 10
83.0991029186
 20
115.1587677084
 30
0.0
  0
VERTEX
  5
54B
  8
0
  6
CONTINUOUS
 62
     7
 10
83.1022289028
 20
115.1559527859
 30
0.0
  0
VERTEX
  5
54C
  8
0
  6
CONTINUOUS
 62
     7
 10
83.1053916743
 20
115.1531048015
 30
0.0
  0
SEQEND
  5
7ED
  8
0
  6
CONTINUOUS
 62
     7
  0
POLYLINE
  5
138
  8
0
  6
CONTINUOUS
 62
     7
 66
     1
 10
0.0
 20
0.0
 30
0.0
 70
   128
  0
VERTEX
  5
54D
  8
0
  6
CONTINUOUS
 62
     7
 10
82.3690840887
 20
114.3802355871
 30
0.0
  0
VERTEX
  5
54E
  8
0
  6
CONTINUOUS
 62
     7
 10
82.3712696699
 20
114.3782677025
 30
0.0
  0
VERTEX
  5
54F
  8
0
  6
CONTINUOUS
 62
     7
 10
82.3736894788
 20
114.3760888733
 30
0.0
  0
VERTEX
  5
550
  8
0
  6
CONTINUOUS
 62
     7
 10
82.3763153428
 20
114.3737242453
 30
0.0
  0
VERTEX
  5
551
  8
0
  6
CONTINUOUS
 62
     7
 10
82.3791167611
 20
114.3712022238
 30
0.0
  0
VERTEX
  5
552
  8
0
  6
CONTINUOUS
 62
     7
 10
82.3820609046
 20
114.3685512141
 30
0.0
  0
VERTEX
  5
553
  8
0
  6
CONTINUOUS
 62
     7
 10
82.38511378
 20
114.3658024155
 30
0.0
  0
VERTEX
  5
554
  8
0
  6
CONTINUOUS
 62
     7
 10
82.3882397642
 20
114.362987493
 30
0.0
  0
VERTEX
  5
555
  8
0
  6
CONTINUOUS
 62
     7
 10
82.3914025357
 20
114.3601399742
 30
0.0
  0
SEQEND
  5
7EE
  8
0
  6
CONTINUOUS
 62
     7
  0
ARC
  5
139
  8
0
  6
CONTINUOUS
 62
     7
 10
80.652964956
 20
117.3621691376
 30
0.0
 40
0.137740688329489
 50
47.7250839803
 51
138.2748133491
  0
LINE
  5
13A
  8
0
  6
CONTINUOUS
 62
     7
 10
80.5501627881
 20
117.4538436242
 30
0.0
 11
79.8361736495
 21
116.6608783312
 31
0.0
  0
ARC
  5
13B
  8
0
  6
CONTINUOUS
 62
     7
 10
79.9380916846
 20
116.5682218254
 30
0.0
 40
0.1377407490765029
 50
137.7251578396
 51
228.2748415856
  0
LINE
  5
13C
  8
0
  6
CONTINUOUS
 62
     7
 10
79.8464172083
 20
116.465419567
 30
0.0
 11
79.8969336872
 21
116.419934471
 31
0.0
  0
LINE
  5
13D
  8
0
  6
CONTINUOUS
 62
     7
 10
79.8245418089
 20
116.0802019656
 30
0.0
 11
79.7548178204
 21
117.410614657
 31
0.0
  0
ARC
  5
13E
  8
0
  6
CONTINUOUS
 62
     7
 10
79.798655099
 20
117.412578233
 30
0.0
 40
0.0438812331040937
 50
93.2059250694
 51
182.5646999438
  0
LINE
  5
13F
  8
0
  6
CONTINUOUS
 62
     7
 10
79.7962010517
 20
117.4563907914
 30
0.0
 11
81.1264232877
 21
117.5261047099
 31
0.0
  0
CIRCLE
  5
140
  8
0
  6
CONTINUOUS
 62
     7
 10
80.0023285191
 20
117.2291937363
 30
0.0
 40
0.1778400000001074
  0
ARC
  5
141
  8
0
  6
CONTINUOUS
 62
     7
 10
82.9259599637
 20
116.7248093205
 30
0.0
 40
0.1377408456779548
 50
317.7252145256
 51
48.2748189315
  0
LINE
  5
142
  8
0
  6
CONTINUOUS
 62
     7
 10
83.017634545
 20
116.8276116148
 30
0.0
 11
82.2246692521
 21
117.5416007534
 31
0.0
  0
ARC
  5
143
  8
0
  6
CONTINUOUS
 62
     7
 10
82.1320127822
 20
117.4396825551
 30
0.0
 40
0.1377408456779548
 50
47.7252145256
 51
138.2748189315
  0
LINE
  5
144
  8
0
  6
CONTINUOUS
 62
     7
 10
82.0292104879
 20
117.5313571364
 30
0.0
 11
81.9837253919
 21
117.4808405701
 31
0.0
  0
LINE
  5
145
  8
0
  6
CONTINUOUS
 62
     7
 10
81.6440122114
 20
117.5532304112
 30
0.0
 11
82.9742344474
 21
117.6229445625
 31
0.0
  0
ARC
  5
146
  8
0
  6
CONTINUOUS
 62
     7
 10
82.9763738786
 20
117.5791159073
 30
0.0
 40
0.0438808407542589
 50
3.434828461
 51
92.7945908362
  0
LINE
  5
147
  8
0
  6
CONTINUOUS
 62
     7
 10
83.0201758915
 20
117.5817449473
 30
0.0
 11
83.0898998217
 21
116.251332023
 31
0.0
  0
LINE
  5
148
  8
0
  6
CONTINUOUS
 62
     7
 10
79.8584922129
 20
116.6407824855
 30
0.0
 11
80.5724813515
 21
117.4337477785
 31
0.0
  0
POLYLINE
  5
149
  8
0
  6
CONTINUOUS
 62
     7
 66
     1
 10
0.0
 20
0.0
 30
0.0
 70
   128
  0
VERTEX
  5
556
  8
0
  6
CONTINUOUS
 62
     7
 10
79.8584922129
 20
116.6407824855
 30
0.0
  0
VERTEX
  5
557
  8
0
  6
CONTINUOUS
 62
     7
 10
79.8563065734
 20
116.642750603
 30
0.0
  0
VERTEX
  5
558
  8
0
  6
CONTINUOUS
 62
     7
 10
79.8538867646
 20
116.6449294321
 30
0.0
  0
VERTEX
  5
559
  8
0
  6
CONTINUOUS
 62
     7
 10
79.8512609297
 20
116.6472935945
 30
0.0
  0
VERTEX
  5
55A
  8
0
  6
CONTINUOUS
 62
     7
 10
79.8484595987
 20
116.6498158489
 30
0.0
  0
VERTEX
  5
55B
  8
0
  6
CONTINUOUS
 62
     7
 10
79.8455153679
 20
116.6524668586
 30
0.0
  0
VERTEX
  5
55C
  8
0
  6
CONTINUOUS
 62
     7
 10
79.8424624925
 20
116.65521589
 30
0.0
  0
VERTEX
  5
55D
  8
0
  6
CONTINUOUS
 62
     7
 10
79.83933645
 20
116.6580305796
 30
0.0
  0
VERTEX
  5
55E
  8
0
  6
CONTINUOUS
 62
     7
 10
79.8361736495
 20
116.6608783312
 30
0.0
  0
SEQEND
  5
7EF
  8
0
  6
CONTINUOUS
 62
     7
  0
POLYLINE
  5
14A
  8
0
  6
CONTINUOUS
 62
     7
 66
     1
 10
0.0
 20
0.0
 30
0.0
 70
   128
  0
VERTEX
  5
55F
  8
0
  6
CONTINUOUS
 62
     7
 10
80.5724813515
 20
117.4337477785
 30
0.0
  0
VERTEX
  5
560
  8
0
  6
CONTINUOUS
 62
     7
 10
80.5702956538
 20
117.4357156631
 30
0.0
  0
VERTEX
  5
561
  8
0
  6
CONTINUOUS
 62
     7
 10
80.567875845
 20
117.4378944922
 30
0.0
  0
VERTEX
  5
562
  8
0
  6
CONTINUOUS
 62
     7
 10
80.5652500974
 20
117.4402588874
 30
0.0
  0
VERTEX
  5
563
  8
0
  6
CONTINUOUS
 62
     7
 10
80.5624486791
 20
117.4427811418
 30
0.0
  0
VERTEX
  5
564
  8
0
  6
CONTINUOUS
 62
     7
 10
80.5595045356
 20
117.4454321515
 30
0.0
  0
VERTEX
  5
565
  8
0
  6
CONTINUOUS
 62
     7
 10
80.5564516602
 20
117.4481809501
 30
0.0
  0
VERTEX
  5
566
  8
0
  6
CONTINUOUS
 62
     7
 10
80.5533255595
 20
117.4509956397
 30
0.0
  0
VERTEX
  5
567
  8
0
  6
CONTINUOUS
 62
     7
 10
80.5501627881
 20
117.4538436242
 30
0.0
  0
SEQEND
  5
7F0
  8
0
  6
CONTINUOUS
 62
     7
  0
LINE
  5
14B
  8
0
  6
CONTINUOUS
 62
     7
 10
82.2045736393
 20
117.5192820735
 30
0.0
 11
82.9975389322
 21
116.8052929349
 31
0.0
  0
POLYLINE
  5
14C
  8
0
  6
CONTINUOUS
 62
     7
 66
     1
 10
0.0
 20
0.0
 30
0.0
 70
   128
  0
VERTEX
  5
568
  8
0
  6
CONTINUOUS
 62
     7
 10
82.2045736393
 20
117.5192820735
 30
0.0
  0
VERTEX
  5
569
  8
0
  6
CONTINUOUS
 62
     7
 10
82.2065415239
 20
117.5214678876
 30
0.0
  0
VERTEX
  5
56A
  8
0
  6
CONTINUOUS
 62
     7
 10
82.208720353
 20
117.5238876965
 30
0.0
  0
VERTEX
  5
56B
  8
0
  6
CONTINUOUS
 62
     7
 10
82.2110847482
 20
117.5265133277
 30
0.0
  0
VERTEX
  5
56C
  8
0
  6
CONTINUOUS
 62
     7
 10
82.2136070026
 20
117.529314746
 30
0.0
  0
VERTEX
  5
56D
  8
0
  6
CONTINUOUS
 62
     7
 10
82.2162580123
 20
117.5322588895
 30
0.0
  0
VERTEX
  5
56E
  8
0
  6
CONTINUOUS
 62
     7
 10
82.2190068109
 20
117.5353117649
 30
0.0
  0
VERTEX
  5
56F
  8
0
  6
CONTINUOUS
 62
     7
 10
82.2218215005
 20
117.5384379819
 30
0.0
  0
VERTEX
  5
570
  8
0
  6
CONTINUOUS
 62
     7
 10
82.2246692521
 20
117.5416007534
 30
0.0
  0
SEQEND
  5
7F1
  8
0
  6
CONTINUOUS
 62
     7
  0
POLYLINE
  5
14D
  8
0
  6
CONTINUOUS
 62
     7
 66
     1
 10
0.0
 20
0.0
 30
0.0
 70
   128
  0
VERTEX
  5
571
  8
0
  6
CONTINUOUS
 62
     7
 10
82.9975389322
 20
116.8052929349
 30
0.0
  0
VERTEX
  5
572
  8
0
  6
CONTINUOUS
 62
     7
 10
82.9995068168
 20
116.807478749
 30
0.0
  0
VERTEX
  5
573
  8
0
  6
CONTINUOUS
 62
     7
 10
83.001685646
 20
116.8098985579
 30
0.0
  0
VERTEX
  5
574
  8
0
  6
CONTINUOUS
 62
     7
 10
83.0040498083
 20
116.8125241891
 30
0.0
  0
VERTEX
  5
575
  8
0
  6
CONTINUOUS
 62
     7
 10
83.0065722955
 20
116.8153256074
 30
0.0
  0
VERTEX
  5
576
  8
0
  6
CONTINUOUS
 62
     7
 10
83.0092233052
 20
116.8182697509
 30
0.0
  0
VERTEX
  5
577
  8
0
  6
CONTINUOUS
 62
     7
 10
83.0119721038
 20
116.8213226263
 30
0.0
  0
VERTEX
  5
578
  8
0
  6
CONTINUOUS
 62
     7
 10
83.0147867934
 20
116.8244488433
 30
0.0
  0
VERTEX
  5
579
  8
0
  6
CONTINUOUS
 62
     7
 10
83.017634545
 20
116.8276116148
 30
0.0
  0
SEQEND
  5
7F2
  8
0
  6
CONTINUOUS
 62
     7
  0
POLYLINE
  5
14E
  8
0
  6
CONTINUOUS
 62
     7
 66
     1
 10
0.0
 20
0.0
 30
0.0
 70
   128
  0
VERTEX
  5
57A
  8
0
  6
CONTINUOUS
 62
     7
 10
83.0750524444
 20
115.3262451187
 30
0.0
  0
VERTEX
  5
57B
  8
0
  6
CONTINUOUS
 62
     7
 10
83.077020329
 20
115.3284309328
 30
0.0
  0
VERTEX
  5
57C
  8
0
  6
CONTINUOUS
 62
     7
 10
83.0791991582
 20
115.3308505088
 30
0.0
  0
VERTEX
  5
57D
  8
0
  6
CONTINUOUS
 62
     7
 10
83.0815635534
 20
115.3334763728
 30
0.0
  0
VERTEX
  5
57E
  8
0
  6
CONTINUOUS
 62
     7
 10
83.0840858077
 20
115.3362777911
 30
0.0
  0
VERTEX
  5
57F
  8
0
  6
CONTINUOUS
 62
     7
 10
83.0867368174
 20
115.3392221675
 30
0.0
  0
VERTEX
  5
580
  8
0
  6
CONTINUOUS
 62
     7
 10
83.089485616
 20
115.3422750429
 30
0.0
  0
VERTEX
  5
581
  8
0
  6
CONTINUOUS
 62
     7
 10
83.0923003057
 20
115.3454010271
 30
0.0
  0
VERTEX
  5
582
  8
0
  6
CONTINUOUS
 62
     7
 10
83.0951482901
 20
115.3485637985
 30
0.0
  0
SEQEND
  5
7F3
  8
0
  6
CONTINUOUS
 62
     7
  0
LINE
  5
14F
  8
0
  6
CONTINUOUS
 62
     7
 10
83.0230257386
 20
115.3730901785
 30
0.0
 11
83.0750524444
 21
115.3262451187
 31
0.0
  0
POLYLINE
  5
150
  8
0
  6
CONTINUOUS
 62
     7
 66
     1
 10
0.0
 20
0.0
 30
0.0
 70
   128
  0
VERTEX
  5
583
  8
0
  6
CONTINUOUS
 62
     7
 10
79.8665129375
 20
116.487738014
 30
0.0
  0
VERTEX
  5
584
  8
0
  6
CONTINUOUS
 62
     7
 10
79.8645449656
 20
116.4855524328
 30
0.0
  0
VERTEX
  5
585
  8
0
  6
CONTINUOUS
 62
     7
 10
79.8623661656
 20
116.4831326239
 30
0.0
  0
VERTEX
  5
586
  8
0
  6
CONTINUOUS
 62
     7
 10
79.8600018577
 20
116.4805067599
 30
0.0
  0
VERTEX
  5
587
  8
0
  6
CONTINUOUS
 62
     7
 10
79.8574795451
 20
116.4777055744
 30
0.0
  0
VERTEX
  5
588
  8
0
  6
CONTINUOUS
 62
     7
 10
79.8548285354
 20
116.4747611981
 30
0.0
  0
VERTEX
  5
589
  8
0
  6
CONTINUOUS
 62
     7
 10
79.8520797077
 20
116.4717083227
 30
0.0
  0
VERTEX
  5
58A
  8
0
  6
CONTINUOUS
 62
     7
 10
79.8492650181
 20
116.4685823385
 30
0.0
  0
VERTEX
  5
58B
  8
0
  6
CONTINUOUS
 62
     7
 10
79.8464172083
 20
116.465419567
 30
0.0
  0
SEQEND
  5
7F4
  8
0
  6
CONTINUOUS
 62
     7
  0
LINE
  5
151
  8
0
  6
CONTINUOUS
 62
     7
 10
79.9185396725
 20
116.4408929542
 30
0.0
 11
79.8665129375
 21
116.487738014
 31
0.0
  0
POLYLINE
  5
152
  8
0
  6
CONTINUOUS
 62
     7
 66
     1
 10
0.0
 20
0.0
 30
0.0
 70
   128
  0
VERTEX
  5
58C
  8
0
  6
CONTINUOUS
 62
     7
 10
82.0515291677
 20
117.5112615235
 30
0.0
  0
VERTEX
  5
58D
  8
0
  6
CONTINUOUS
 62
     7
 10
82.0493435865
 20
117.5132294081
 30
0.0
  0
VERTEX
  5
58E
  8
0
  6
CONTINUOUS
 62
     7
 10
82.0469237776
 20
117.5154082373
 30
0.0
  0
VERTEX
  5
58F
  8
0
  6
CONTINUOUS
 62
     7
 10
82.0442979136
 20
117.5177723997
 30
0.0
  0
VERTEX
  5
590
  8
0
  6
CONTINUOUS
 62
     7
 10
82.0414964953
 20
117.5202948868
 30
0.0
  0
VERTEX
  5
591
  8
0
  6
CONTINUOUS
 62
     7
 10
82.0385523518
 20
117.5229458966
 30
0.0
  0
VERTEX
  5
592
  8
0
  6
CONTINUOUS
 62
     7
 10
82.0354994764
 20
117.5256946951
 30
0.0
  0
VERTEX
  5
593
  8
0
  6
CONTINUOUS
 62
     7
 10
82.0323734922
 20
117.5285093848
 30
0.0
  0
VERTEX
  5
594
  8
0
  6
CONTINUOUS
 62
     7
 10
82.0292104879
 20
117.5313571364
 30
0.0
  0
SEQEND
  5
7F5
  8
0
  6
CONTINUOUS
 62
     7
  0
LINE
  5
153
  8
0
  6
CONTINUOUS
 62
     7
 10
82.0046841079
 20
117.4592345849
 30
0.0
 11
82.0515291677
 21
117.5112615235
 31
0.0
  0
ARC
  5
154
  8
0
  6
CONTINUOUS
 62
     7
 10
80.0156056179
 20
115.0891739042
 30
0.0
 40
0.1377410666413086
 50
137.7252189226
 51
228.2747733684
  0
LINE
  5
155
  8
0
  6
CONTINUOUS
 62
     7
 10
79.9239308078
 20
114.9863715179
 30
0.0
 11
80.7168960716
 21
114.2723823793
 31
0.0
  0
ARC
  5
156
  8
0
  6
CONTINUOUS
 62
     7
 10
80.8095525255
 20
114.3743008848
 30
0.0
 40
0.1377410621278689
 50
227.7253054295
 51
318.2747280276
  0
LINE
  5
157
  8
0
  6
CONTINUOUS
 62
     7
 10
80.9123548358
 20
114.2826259963
 30
0.0
 11
80.9578400483
 21
114.3331427954
 31
0.0
  0
LINE
  5
158
  8
0
  6
CONTINUOUS
 62
     7
 10
81.2975531123
 20
114.2607529544
 30
0.0
 11
79.9673308763
 21
114.191038803
 31
0.0
  0
ARC
  5
159
  8
0
  6
CONTINUOUS
 62
     7
 10
79.9651914568
 20
114.2348674552
 30
0.0
 40
0.0438808371000437
 50
183.435129263
 51
272.7945758353
  0
LINE
  5
15A
  8
0
  6
CONTINUOUS
 62
     7
 10
79.9213894613
 20
114.2322381854
 30
0.0
 11
79.8516654729
 21
115.5626511097
 31
0.0
  0
LINE
  5
15B
  8
0
  6
CONTINUOUS
 62
     7
 10
80.7369918009
 20
114.2947010592
 30
0.0
 11
79.9440265371
 21
115.0086901978
 31
0.0
  0
POLYLINE
  5
15C
  8
0
  6
CONTINUOUS
 62
     7
 66
     1
 10
0.0
 20
0.0
 30
0.0
 70
   128
  0
VERTEX
  5
595
  8
0
  6
CONTINUOUS
 62
     7
 10
80.7369918009
 20
114.2947010592
 30
0.0
  0
VERTEX
  5
596
  8
0
  6
CONTINUOUS
 62
     7
 10
80.7350237999
 20
114.2925157108
 30
0.0
  0
VERTEX
  5
597
  8
0
  6
CONTINUOUS
 62
     7
 10
80.7328450871
 20
114.2900956691
 30
0.0
  0
VERTEX
  5
598
  8
0
  6
CONTINUOUS
 62
     7
 10
80.7304806919
 20
114.2874698051
 30
0.0
  0
VERTEX
  5
599
  8
0
  6
CONTINUOUS
 62
     7
 10
80.7279584376
 20
114.2846683867
 30
0.0
  0
VERTEX
  5
59A
  8
0
  6
CONTINUOUS
 62
     7
 10
80.7253074279
 20
114.2817244761
 30
0.0
  0
VERTEX
  5
59B
  8
0
  6
CONTINUOUS
 62
     7
 10
80.7225586293
 20
114.2786716007
 30
0.0
  0
VERTEX
  5
59C
  8
0
  6
CONTINUOUS
 62
     7
 10
80.7197438232
 20
114.2755456165
 30
0.0
  0
VERTEX
  5
59D
  8
0
  6
CONTINUOUS
 62
     7
 10
80.7168960716
 20
114.2723823793
 30
0.0
  0
SEQEND
  5
7F6
  8
0
  6
CONTINUOUS
 62
     7
  0
POLYLINE
  5
15D
  8
0
  6
CONTINUOUS
 62
     7
 66
     1
 10
0.0
 20
0.0
 30
0.0
 70
   128
  0
VERTEX
  5
59E
  8
0
  6
CONTINUOUS
 62
     7
 10
79.9440265371
 20
115.0086901978
 30
0.0
  0
VERTEX
  5
59F
  8
0
  6
CONTINUOUS
 62
     7
 10
79.9420585943
 20
115.0065048494
 30
0.0
  0
VERTEX
  5
5A0
  8
0
  6
CONTINUOUS
 62
     7
 10
79.9398797942
 20
115.0040848077
 30
0.0
  0
VERTEX
  5
5A1
  8
0
  6
CONTINUOUS
 62
     7
 10
79.9375154572
 20
115.0014589437
 30
0.0
  0
VERTEX
  5
5A2
  8
0
  6
CONTINUOUS
 62
     7
 10
79.9349931447
 20
114.9986575254
 30
0.0
  0
VERTEX
  5
5A3
  8
0
  6
CONTINUOUS
 62
     7
 10
79.9323421349
 20
114.9957136147
 30
0.0
  0
VERTEX
  5
5A4
  8
0
  6
CONTINUOUS
 62
     7
 10
79.9295933073
 20
114.9926607393
 30
0.0
  0
VERTEX
  5
5A5
  8
0
  6
CONTINUOUS
 62
     7
 10
79.9267786176
 20
114.9895347551
 30
0.0
  0
VERTEX
  5
5A6
  8
0
  6
CONTINUOUS
 62
     7
 10
79.9239308078
 20
114.9863715179
 30
0.0
  0
SEQEND
  5
7F7
  8
0
  6
CONTINUOUS
 62
     7
  0
POLYLINE
  5
15E
  8
0
  6
CONTINUOUS
 62
     7
 66
     1
 10
0.0
 20
0.0
 30
0.0
 70
   128
  0
VERTEX
  5
5A7
  8
0
  6
CONTINUOUS
 62
     7
 10
80.8900362724
 20
114.3027220749
 30
0.0
  0
VERTEX
  5
5A8
  8
0
  6
CONTINUOUS
 62
     7
 10
80.8922218537
 20
114.3007537246
 30
0.0
  0
VERTEX
  5
5A9
  8
0
  6
CONTINUOUS
 62
     7
 10
80.8946416625
 20
114.2985753611
 30
0.0
  0
VERTEX
  5
5AA
  8
0
  6
CONTINUOUS
 62
     7
 10
80.8972675265
 20
114.2962107331
 30
0.0
  0
VERTEX
  5
5AB
  8
0
  6
CONTINUOUS
 62
     7
 10
80.9000688284
 20
114.2936887115
 30
0.0
  0
VERTEX
  5
5AC
  8
0
  6
CONTINUOUS
 62
     7
 10
80.9030130883
 20
114.2910377018
 30
0.0
  0
VERTEX
  5
5AD
  8
0
  6
CONTINUOUS
 62
     7
 10
80.9060659637
 20
114.2882889033
 30
0.0
  0
VERTEX
  5
5AE
  8
0
  6
CONTINUOUS
 62
     7
 10
80.909191948
 20
114.2854739808
 30
0.0
  0
VERTEX
  5
5AF
  8
0
  6
CONTINUOUS
 62
     7
 10
80.9123548358
 20
114.2826259963
 30
0.0
  0
SEQEND
  5
7F8
  8
0
  6
CONTINUOUS
 62
     7
  0
LINE
  5
15F
  8
0
  6
CONTINUOUS
 62
     7
 10
80.9368813323
 20
114.3547485478
 30
0.0
 11
80.8900362724
 21
114.3027220749
 31
0.0
  0
POLYLINE
  5
160
  8
0
  6
CONTINUOUS
 62
     7
 66
     1
 10
0.0
 20
0.0
 30
0.0
 70
   128
  0
VERTEX
  5
5B0
  8
0
  6
CONTINUOUS
 62
     7
 10
79.8759873403
 20
114.2301645957
 30
0.0
  0
VERTEX
  5
5B1
  8
0
  6
CONTINUOUS
 62
     7
 10
79.8975805198
 20
114.2311434157
 30
0.0
  0
VERTEX
  5
5B2
  8
0
  6
CONTINUOUS
 62
     7
 10
79.9213894613
 20
114.2322381854
 30
0.0
  0
SEQEND
  5
7F9
  8
0
  6
CONTINUOUS
 62
     7
  0
LINE
  5
161
  8
0
  6
CONTINUOUS
 62
     7
 10
79.7094476263
 20
117.4079315167
 30
0.0
 11
79.8759873403
 21
114.2301645957
 31
0.0
  0
POLYLINE
  5
162
  8
0
  6
CONTINUOUS
 62
     7
 66
     1
 10
0.0
 20
0.0
 30
0.0
 70
   128
  0
VERTEX
  5
5B3
  8
0
  6
CONTINUOUS
 62
     7
 10
79.7094476263
 20
117.4079315167
 30
0.0
  0
VERTEX
  5
5B4
  8
0
  6
CONTINUOUS
 62
     7
 10
79.7310248279
 20
117.4092151121
 30
0.0
  0
VERTEX
  5
5B5
  8
0
  6
CONTINUOUS
 62
     7
 10
79.7548178204
 20
117.410614657
 30
0.0
  0
SEQEND
  5
7FA
  8
0
  6
CONTINUOUS
 62
     7
  0
POLYLINE
  5
163
  8
0
  6
CONTINUOUS
 62
     7
 66
     1
 10
0.0
 20
0.0
 30
0.0
 70
   128
  0
VERTEX
  5
5B6
  8
0
  6
CONTINUOUS
 62
     7
 10
83.0655780999
 20
117.5838190027
 30
0.0
  0
VERTEX
  5
5B7
  8
0
  6
CONTINUOUS
 62
     7
 10
83.0439849203
 20
117.5828399498
 30
0.0
  0
VERTEX
  5
5B8
  8
0
  6
CONTINUOUS
 62
     7
 10
83.0201758915
 20
117.5817449473
 30
0.0
  0
SEQEND
  5
7FB
  8
0
  6
CONTINUOUS
 62
     7
  0
LINE
  5
164
  8
0
  6
CONTINUOUS
 62
     7
 10
83.2321176683
 20
114.4060518488
 30
0.0
 11
83.0655780999
 21
117.5838190027
 31
0.0
  0
POLYLINE
  5
165
  8
0
  6
CONTINUOUS
 62
     7
 66
     1
 10
0.0
 20
0.0
 30
0.0
 70
   128
  0
VERTEX
  5
5B9
  8
0
  6
CONTINUOUS
 62
     7
 10
83.2321176683
 20
114.4060518488
 30
0.0
  0
VERTEX
  5
5BA
  8
0
  6
CONTINUOUS
 62
     7
 10
83.2105405541
 20
114.4047680207
 30
0.0
  0
VERTEX
  5
5BB
  8
0
  6
CONTINUOUS
 62
     7
 10
83.1867475906
 20
114.4033687085
 30
0.0
  0
SEQEND
  5
7FC
  8
0
  6
CONTINUOUS
 62
     7
  0
POLYLINE
  5
166
  8
0
  6
CONTINUOUS
 62
     7
 66
     1
 10
0.0
 20
0.0
 30
0.0
 70
   128
  0
VERTEX
  5
5BC
  8
0
  6
CONTINUOUS
 62
     7
 10
83.145364272
 20
114.3575923413
 30
0.0
  0
VERTEX
  5
5BD
  8
0
  6
CONTINUOUS
 62
     7
 10
83.1465253984
 20
114.3338049658
 30
0.0
  0
VERTEX
  5
5BE
  8
0
  6
CONTINUOUS
 62
     7
 10
83.1475705752
 20
114.3122280844
 30
0.0
  0
SEQEND
  5
7FD
  8
0
  6
CONTINUOUS
 62
     7
  0
LINE
  5
167
  8
0
  6
CONTINUOUS
 62
     7
 10
79.9698786257
 20
114.1456922412
 30
0.0
 11
83.1475705752
 21
114.3122280844
 31
0.0
  0
POLYLINE
  5
168
  8
0
  6
CONTINUOUS
 62
     7
 66
     1
 10
0.0
 20
0.0
 30
0.0
 70
   128
  0
VERTEX
  5
5BF
  8
0
  6
CONTINUOUS
 62
     7
 10
79.9698786257
 20
114.1456922412
 30
0.0
  0
VERTEX
  5
5C0
  8
0
  6
CONTINUOUS
 62
     7
 10
79.9686626676
 20
114.1672602751
 30
0.0
  0
VERTEX
  5
5C1
  8
0
  6
CONTINUOUS
 62
     7
 10
79.9673308763
 20
114.191038803
 30
0.0
  0
SEQEND
  5
7FE
  8
0
  6
CONTINUOUS
 62
     7
  0
POLYLINE
  5
169
  8
0
  6
CONTINUOUS
 62
     7
 66
     1
 10
0.0
 20
0.0
 30
0.0
 70
   128
  0
VERTEX
  5
5C2
  8
0
  6
CONTINUOUS
 62
     7
 10
79.7939948068
 20
117.5017552812
 30
0.0
  0
VERTEX
  5
5C3
  8
0
  6
CONTINUOUS
 62
     7
 10
79.7950400126
 20
117.4801781669
 30
0.0
  0
VERTEX
  5
5C4
  8
0
  6
CONTINUOUS
 62
     7
 10
79.7962010517
 20
117.4563907914
 30
0.0
  0
SEQEND
  5
7FF
  8
0
  6
CONTINUOUS
 62
     7
  0
LINE
  5
16A
  8
0
  6
CONTINUOUS
 62
     7
 10
82.9716868145
 20
117.6682908915
 30
0.0
 11
79.7939948068
 21
117.5017552812
 31
0.0
  0
POLYLINE
  5
16B
  8
0
  6
CONTINUOUS
 62
     7
 66
     1
 10
0.0
 20
0.0
 30
0.0
 70
   128
  0
VERTEX
  5
5C5
  8
0
  6
CONTINUOUS
 62
     7
 10
82.9716868145
 20
117.6682908915
 30
0.0
  0
VERTEX
  5
5C6
  8
0
  6
CONTINUOUS
 62
     7
 10
82.9729026561
 20
117.6467228577
 30
0.0
  0
VERTEX
  5
5C7
  8
0
  6
CONTINUOUS
 62
     7
 10
82.9742344474
 20
117.6229445625
 30
0.0
  0
SEQEND
  5
800
  8
0
  6
CONTINUOUS
 62
     7
  0
ARC
  5
16C
  8
0
  6
CONTINUOUS
 62
     7
 10
80.809503659
 20
114.3752337569
 30
0.0
 40
0.1083672827829946
 50
227.9999999997
 51
317.9999999997
  0
ARC
  5
16D
  8
0
  6
CONTINUOUS
 62
     7
 10
83.0025405954
 20
115.2457126229
 30
0.0
 40
0.1083672827829946
 50
317.9999999997
 51
47.9999999998
  0
ARC
  5
16E
  8
0
  6
CONTINUOUS
 62
     7
 10
79.939024793
 20
116.5682706934
 30
0.0
 40
0.1083672827829946
 50
137.9999999997
 51
227.9999999997
  0
ARC
  5
16F
  8
0
  6
CONTINUOUS
 62
     7
 10
82.1320617295
 20
117.4387495594
 30
0.0
 40
0.1083672827829946
 50
47.9999999997
 51
137.9999999997
  0
ARC
  5
170
  8
0
  6
CONTINUOUS
 62
     7
 10
80.0165384044
 20
115.0892228791
 30
0.0
 40
0.1083672827828972
 50
138.0000000002
 51
228.0000000003
  0
ARC
  5
171
  8
0
  6
CONTINUOUS
 62
     7
 10
80.6530139152
 20
117.361235948
 30
0.0
 40
0.1083672827828771
 50
48.0000000002
 51
138.0000000003
  0
ARC
  5
172
  8
0
  6
CONTINUOUS
 62
     7
 10
82.2885514732
 20
114.4527473683
 30
0.0
 40
0.1083672827828771
 50
228.0000000001
 51
318.0000000003
  0
ARC
  5
173
  8
0
  6
CONTINUOUS
 62
     7
 10
82.925026984
 20
116.7247604371
 30
0.0
 40
0.1083672827828676
 50
318.0000000002
 51
48.0000000003
  0
ARC
  5
174
  8
0
  6
CONTINUOUS
 62
     7
 10
79.9849489958
 20
114.25686005
 30
0.0
 40
0.1121842055974934
 50
193.7662220873
 51
262.2797480266
  0
ARC
  5
175
  8
0
  6
CONTINUOUS
 62
     7
 10
82.9566151569
 20
117.5571221445
 30
0.0
 40
0.1121857618723761
 50
13.7667655456
 51
82.2792222296
  0
ARC
  5
176
  8
0
  6
CONTINUOUS
 62
     7
 10
83.1209613695
 20
114.4212123252
 30
0.0
 40
0.1121856255082824
 50
283.7206969578
 51
352.2334335315
  0
ARC
  5
177
  8
0
  6
CONTINUOUS
 62
     7
 10
79.8206034243
 20
117.3927714206
 30
0.0
 40
0.1121848904764467
 50
103.7204794233
 51
172.2335783073
  0
CIRCLE
  5
178
  8
0
  6
CONTINUOUS
 62
     7
 10
80.0023285191
 20
117.2291937363
 30
0.0
 40
0.0409387041693682
  0
LINE
  5
179
  8
0
  6
CONTINUOUS
 62
     7
 10
80.7239160319
 20
117.3219792906
 30
0.0
 11
80.6652386352
 21
117.3748127546
 31
0.0
  0
POLYLINE
  5
17A
  8
0
  6
CONTINUOUS
 62
     7
 66
     1
 10
0.0
 20
0.0
 30
0.0
 70
   128
  0
VERTEX
  5
5C8
  8
0
  6
CONTINUOUS
 62
     7
 10
80.725525823
 20
117.4417685613
 30
0.0
  0
VERTEX
  5
5C9
  8
0
  6
CONTINUOUS
 62
     7
 10
80.7196219364
 20
117.4352115847
 30
0.0
  0
VERTEX
  5
5CA
  8
0
  6
CONTINUOUS
 62
     7
 10
80.7130855653
 20
117.4279521581
 30
0.0
  0
VERTEX
  5
5CB
  8
0
  6
CONTINUOUS
 62
     7
 10
80.7059926126
 20
117.4200747989
 30
0.0
  0
VERTEX
  5
5CC
  8
0
  6
CONTINUOUS
 62
     7
 10
80.6984256167
 20
117.4116707768
 30
0.0
  0
VERTEX
  5
5CD
  8
0
  6
CONTINUOUS
 62
     7
 10
80.6904725875
 20
117.4028381136
 30
0.0
  0
VERTEX
  5
5CE
  8
0
  6
CONTINUOUS
 62
     7
 10
80.6822260754
 20
117.3936794874
 30
0.0
  0
VERTEX
  5
5CF
  8
0
  6
CONTINUOUS
 62
     7
 10
80.6737820064
 20
117.3843013019
 30
0.0
  0
VERTEX
  5
5D0
  8
0
  6
CONTINUOUS
 62
     7
 10
80.6652386352
 20
117.3748127546
 30
0.0
  0
SEQEND
  5
801
  8
0
  6
CONTINUOUS
 62
     7
  0
LINE
  5
17B
  8
0
  6
CONTINUOUS
 62
     7
 10
82.2176494082
 20
114.4920040749
 30
0.0
 11
82.2763266885
 21
114.4391706109
 31
0.0
  0
LINE
  5
17C
  8
0
  6
CONTINUOUS
 62
     7
 10
80.0557949958
 20
115.1601251111
 30
0.0
 11
80.0029615318
 21
115.1014475979
 31
0.0
  0
POLYLINE
  5
17D
  8
0
  6
CONTINUOUS
 62
     7
 66
     1
 10
0.0
 20
0.0
 30
0.0
 70
   128
  0
VERTEX
  5
5D1
  8
0
  6
CONTINUOUS
 62
     7
 10
79.9360058124
 20
115.1617349021
 30
0.0
  0
VERTEX
  5
5D2
  8
0
  6
CONTINUOUS
 62
     7
 10
79.9425627308
 20
115.1558307827
 30
0.0
  0
VERTEX
  5
5D3
  8
0
  6
CONTINUOUS
 62
     7
 10
79.9498221283
 20
115.1492942952
 30
0.0
  0
VERTEX
  5
5D4
  8
0
  6
CONTINUOUS
 62
     7
 10
79.9576996621
 20
115.1422013425
 30
0.0
  0
VERTEX
  5
5D5
  8
0
  6
CONTINUOUS
 62
     7
 10
79.966103626
 20
115.1346343465
 30
0.0
  0
VERTEX
  5
5D6
  8
0
  6
CONTINUOUS
 62
     7
 10
79.9749362893
 20
115.1266817831
 30
0.0
  0
VERTEX
  5
5D7
  8
0
  6
CONTINUOUS
 62
     7
 10
79.9840949737
 20
115.1184349217
 30
0.0
  0
VERTEX
  5
5D8
  8
0
  6
CONTINUOUS
 62
     7
 10
79.9934730428
 20
115.1099910855
 30
0.0
  0
VERTEX
  5
5D9
  8
0
  6
CONTINUOUS
 62
     7
 10
80.0029615318
 20
115.1014475979
 30
0.0
  0
SEQEND
  5
802
  8
0
  6
CONTINUOUS
 62
     7
  0
LINE
  5
17E
  8
0
  6
CONTINUOUS
 62
     7
 10
82.8857704444
 20
116.6538582545
 30
0.0
 11
82.9386039084
 21
116.7125357676
 31
0.0
  0
POLYLINE
  5
17F
  8
0
  6
CONTINUOUS
 62
     7
 66
     1
 10
0.0
 20
0.0
 30
0.0
 70
   128
  0
VERTEX
  5
5DA
  8
0
  6
CONTINUOUS
 62
     7
 10
83.0055594822
 20
116.6522484634
 30
0.0
  0
VERTEX
  5
5DB
  8
0
  6
CONTINUOUS
 62
     7
 10
82.9990027385
 20
116.6581523501
 30
0.0
  0
VERTEX
  5
5DC
  8
0
  6
CONTINUOUS
 62
     7
 10
82.9917433118
 20
116.6646888375
 30
0.0
  0
VERTEX
  5
5DD
  8
0
  6
CONTINUOUS
 62
     7
 10
82.9838657198
 20
116.6717817903
 30
0.0
  0
VERTEX
  5
5DE
  8
0
  6
CONTINUOUS
 62
     7
 10
82.9754616977
 20
116.6793487862
 30
0.0
  0
VERTEX
  5
5DF
  8
0
  6
CONTINUOUS
 62
     7
 10
82.9666290344
 20
116.6873018153
 30
0.0
  0
VERTEX
  5
5E0
  8
0
  6
CONTINUOUS
 62
     7
 10
82.9574704082
 20
116.6955482111
 30
0.0
  0
VERTEX
  5
5E1
  8
0
  6
CONTINUOUS
 62
     7
 10
82.9480922227
 20
116.70399228
 30
0.0
  0
VERTEX
  5
5E2
  8
0
  6
CONTINUOUS
 62
     7
 10
82.9386039084
 20
116.7125357676
 30
0.0
  0
SEQEND
  5
803
  8
0
  6
CONTINUOUS
 62
     7
  0
POLYLINE
  5
180
  8
0
  6
CONTINUOUS
 62
     7
 66
     1
 10
0.0
 20
0.0
 30
0.0
 70
   128
  0
VERTEX
  5
5E3
  8
0
  6
CONTINUOUS
 62
     7
 10
80.8900362724
 20
114.3027220749
 30
0.0
  0
VERTEX
  5
5E4
  8
0
  6
CONTINUOUS
 62
     7
 10
80.8834792958
 20
114.3086257287
 30
0.0
  0
VERTEX
  5
5E5
  8
0
  6
CONTINUOUS
 62
     7
 10
80.8762198692
 20
114.3151622161
 30
0.0
  0
VERTEX
  5
5E6
  8
0
  6
CONTINUOUS
 62
     7
 10
80.8683423936
 20
114.3222551689
 30
0.0
  0
VERTEX
  5
5E7
  8
0
  6
CONTINUOUS
 62
     7
 10
80.8599384879
 20
114.3298221648
 30
0.0
  0
VERTEX
  5
5E8
  8
0
  6
CONTINUOUS
 62
     7
 10
80.8511057082
 20
114.3377751939
 30
0.0
  0
VERTEX
  5
5E9
  8
0
  6
CONTINUOUS
 62
     7
 10
80.841947082
 20
114.3460215897
 30
0.0
  0
VERTEX
  5
5EA
  8
0
  6
CONTINUOUS
 62
     7
 10
80.8325690129
 20
114.3544654258
 30
0.0
  0
VERTEX
  5
5EB
  8
0
  6
CONTINUOUS
 62
     7
 10
80.8230805821
 20
114.3630089134
 30
0.0
  0
SEQEND
  5
804
  8
0
  6
CONTINUOUS
 62
     7
  0
POLYLINE
  5
181
  8
0
  6
CONTINUOUS
 62
     7
 66
     1
 10
0.0
 20
0.0
 30
0.0
 70
   128
  0
VERTEX
  5
5EC
  8
0
  6
CONTINUOUS
 62
     7
 10
82.0515291677
 20
117.5112615235
 30
0.0
  0
VERTEX
  5
5ED
  8
0
  6
CONTINUOUS
 62
     7
 10
82.0580861443
 20
117.5053576369
 30
0.0
  0
VERTEX
  5
5EE
  8
0
  6
CONTINUOUS
 62
     7
 10
82.065345571
 20
117.4988211494
 30
0.0
  0
VERTEX
  5
5EF
  8
0
  6
CONTINUOUS
 62
     7
 10
82.0732229301
 20
117.4917281967
 30
0.0
  0
VERTEX
  5
5F0
  8
0
  6
CONTINUOUS
 62
     7
 10
82.0816269522
 20
117.4841612008
 30
0.0
  0
VERTEX
  5
5F1
  8
0
  6
CONTINUOUS
 62
     7
 10
82.0904596155
 20
117.4762081716
 30
0.0
  0
VERTEX
  5
5F2
  8
0
  6
CONTINUOUS
 62
     7
 10
82.0996182417
 20
117.4679617759
 30
0.0
  0
VERTEX
  5
5F3
  8
0
  6
CONTINUOUS
 62
     7
 10
82.1089964272
 20
117.459517707
 30
0.0
  0
VERTEX
  5
5F4
  8
0
  6
CONTINUOUS
 62
     7
 10
82.1184847416
 20
117.4509742193
 30
0.0
  0
SEQEND
  5
805
  8
0
  6
CONTINUOUS
 62
     7
  0
LINE
  5
182
  8
0
  6
CONTINUOUS
 62
     7
 10
82.1184847416
 20
117.4509742193
 30
0.0
 11
82.0656515104
 21
117.3922967062
 31
0.0
  0
POLYLINE
  5
183
  8
0
  6
CONTINUOUS
 62
     7
 66
     1
 10
0.0
 20
0.0
 30
0.0
 70
   128
  0
VERTEX
  5
5F5
  8
0
  6
CONTINUOUS
 62
     7
 10
79.8665129375
 20
116.487738014
 30
0.0
  0
VERTEX
  5
5F6
  8
0
  6
CONTINUOUS
 62
     7
 10
79.8724167951
 20
116.4942949906
 30
0.0
  0
VERTEX
  5
5F7
  8
0
  6
CONTINUOUS
 62
     7
 10
79.8789531952
 20
116.5015544173
 30
0.0
  0
VERTEX
  5
5F8
  8
0
  6
CONTINUOUS
 62
     7
 10
79.886046148
 20
116.5094320093
 30
0.0
  0
VERTEX
  5
5F9
  8
0
  6
CONTINUOUS
 62
     7
 10
79.8936131148
 20
116.5178357985
 30
0.0
  0
VERTEX
  5
5FA
  8
0
  6
CONTINUOUS
 62
     7
 10
79.9015660857
 20
116.5266686946
 30
0.0
  0
VERTEX
  5
5FB
  8
0
  6
CONTINUOUS
 62
     7
 10
79.9098125979
 20
116.5358273208
 30
0.0
  0
VERTEX
  5
5FC
  8
0
  6
CONTINUOUS
 62
     7
 10
79.9182566668
 20
116.5452052735
 30
0.0
  0
VERTEX
  5
5FD
  8
0
  6
CONTINUOUS
 62
     7
 10
79.9268001253
 20
116.5546938207
 30
0.0
  0
SEQEND
  5
806
  8
0
  6
CONTINUOUS
 62
     7
  0
LINE
  5
184
  8
0
  6
CONTINUOUS
 62
     7
 10
79.9268001253
 20
116.5546938207
 30
0.0
 11
79.9854775803
 21
116.5018603567
 31
0.0
  0
POLYLINE
  5
185
  8
0
  6
CONTINUOUS
 62
     7
 66
     1
 10
0.0
 20
0.0
 30
0.0
 70
   128
  0
VERTEX
  5
5FE
  8
0
  6
CONTINUOUS
 62
     7
 10
83.0750524444
 20
115.3262451187
 30
0.0
  0
VERTEX
  5
5FF
  8
0
  6
CONTINUOUS
 62
     7
 10
83.0691485578
 20
115.3196881421
 30
0.0
  0
VERTEX
  5
600
  8
0
  6
CONTINUOUS
 62
     7
 10
83.0626123031
 20
115.3124289483
 30
0.0
  0
VERTEX
  5
601
  8
0
  6
CONTINUOUS
 62
     7
 10
83.0555193504
 20
115.3045513563
 30
0.0
  0
VERTEX
  5
602
  8
0
  6
CONTINUOUS
 62
     7
 10
83.0479523545
 20
115.2961475671
 30
0.0
  0
VERTEX
  5
603
  8
0
  6
CONTINUOUS
 62
     7
 10
83.0399993254
 20
115.2873149038
 30
0.0
  0
VERTEX
  5
604
  8
0
  6
CONTINUOUS
 62
     7
 10
83.0317526968
 20
115.2781562776
 30
0.0
  0
VERTEX
  5
605
  8
0
  6
CONTINUOUS
 62
     7
 10
83.0233086278
 20
115.2687778592
 30
0.0
  0
VERTEX
  5
606
  8
0
  6
CONTINUOUS
 62
     7
 10
83.014765373
 20
115.2592895448
 30
0.0
  0
SEQEND
  5
807
  8
0
  6
CONTINUOUS
 62
     7
  0
LINE
  5
186
  8
0
  6
CONTINUOUS
 62
     7
 10
83.014765373
 20
115.2592895448
 30
0.0
 11
82.9560878599
 21
115.3121230088
 31
0.0
  0
LINE
  5
187
  8
0
  6
CONTINUOUS
 62
     7
 10
79.5850672191
 20
117.4621817552
 30
0.0
 11
79.585524433
 21
117.493473728
 31
0.0
  0
POLYLINE
  5
188
  8
0
  6
CONTINUOUS
 62
     7
 66
     1
 10
0.0
 20
0.0
 30
0.0
 70
   128
  0
VERTEX
  5
607
  8
0
  6
CONTINUOUS
 62
     7
 10
79.585524433
 20
117.493473728
 30
0.0
  0
VERTEX
  5
608
  8
0
  6
CONTINUOUS
 62
     7
 10
79.5973765023
 20
117.5357334212
 30
0.0
  0
VERTEX
  5
609
  8
0
  6
CONTINUOUS
 62
     7
 10
79.621292153
 20
117.5722803816
 30
0.0
  0
SEQEND
  5
808
  8
0
  6
CONTINUOUS
 62
     7
  0
ARC
  5
189
  8
0
  6
CONTINUOUS
 62
     7
 10
79.7284108894
 20
117.4753741179
 30
0.0
 40
0.1444480794403747
 50
90.5591573081
 51
137.8655489781
  0
LINE
  5
18A
  8
0
  6
CONTINUOUS
 62
     7
 10
79.7270012233
 20
117.6198153187
 30
0.0
 11
79.7939948068
 21
117.5017552812
 31
0.0
  0
LINE
  5
18B
  8
0
  6
CONTINUOUS
 62
     7
 10
79.7094475536
 20
117.4079315167
 30
0.0
 11
79.5850672191
 21
117.4621817552
 31
0.0
  0
LINE
  5
18C
  8
0
  6
CONTINUOUS
 62
     7
 10
83.3564981265
 20
114.3518018432
 30
0.0
 11
83.3560408471
 21
114.3205094047
 31
0.0
  0
POLYLINE
  5
18D
  8
0
  6
CONTINUOUS
 62
     7
 66
     1
 10
0.0
 20
0.0
 30
0.0
 70
   128
  0
VERTEX
  5
60A
  8
0
  6
CONTINUOUS
 62
     7
 10
83.3560408471
 20
114.3205094047
 30
0.0
  0
VERTEX
  5
60B
  8
0
  6
CONTINUOUS
 62
     7
 10
83.344188836
 20
114.2782497116
 30
0.0
  0
VERTEX
  5
60C
  8
0
  6
CONTINUOUS
 62
     7
 10
83.3202731708
 20
114.2417027511
 30
0.0
  0
SEQEND
  5
809
  8
0
  6
CONTINUOUS
 62
     7
  0
ARC
  5
18E
  8
0
  6
CONTINUOUS
 62
     7
 10
83.2131549914
 20
114.3386084835
 30
0.0
 40
0.1444473098345387
 50
270.5589393055
 51
317.865557038
  0
LINE
  5
18F
  8
0
  6
CONTINUOUS
 62
     7
 10
83.2145641004
 20
114.1941680469
 30
0.0
 11
83.1475705752
 21
114.3122280844
 31
0.0
  0
LINE
  5
190
  8
0
  6
CONTINUOUS
 62
     7
 10
83.2321179012
 20
114.4060518488
 30
0.0
 11
83.3564981265
 21
114.3518018432
 31
0.0
  0
LINE
  5
191
  8
0
  6
CONTINUOUS
 62
     7
 10
79.7579589969
 20
114.1632104188
 30
0.0
 11
79.8759872821
 21
114.2301645957
 31
0.0
  0
LINE
  5
192
  8
0
  6
CONTINUOUS
 62
     7
 10
79.9155926768
 20
114.0212763928
 30
0.0
 11
79.9698785674
 21
114.1456922412
 31
0.0
  0
LINE
  5
193
  8
0
  6
CONTINUOUS
 62
     7
 10
79.8843005293
 20
114.0217332065
 30
0.0
 11
79.9155926768
 21
114.0212763928
 31
0.0
  0
POLYLINE
  5
194
  8
0
  6
CONTINUOUS
 62
     7
 66
     1
 10
0.0
 20
0.0
 30
0.0
 70
   128
  0
VERTEX
  5
60D
  8
0
  6
CONTINUOUS
 62
     7
 10
79.8054939339
 20
114.0575011157
 30
0.0
  0
VERTEX
  5
60E
  8
0
  6
CONTINUOUS
 62
     7
 10
79.8420409526
 20
114.0335856833
 30
0.0
  0
VERTEX
  5
60F
  8
0
  6
CONTINUOUS
 62
     7
 10
79.8843005293
 20
114.0217332065
 30
0.0
  0
SEQEND
  5
80A
  8
0
  6
CONTINUOUS
 62
     7
  0
ARC
  5
195
  8
0
  6
CONTINUOUS
 62
     7
 10
79.9023992857
 20
114.1646194389
 30
0.0
 40
0.1444471611744241
 50
180.5589045943
 51
227.8657072858
  0
LINE
  5
196
  8
0
  6
CONTINUOUS
 62
     7
 10
83.0655780999
 20
117.5838190027
 30
0.0
 11
83.1836064724
 21
117.6507731796
 31
0.0
  0
LINE
  5
197
  8
0
  6
CONTINUOUS
 62
     7
 10
83.0259726761
 20
117.7927072056
 30
0.0
 11
82.9716868145
 21
117.6682908915
 31
0.0
  0
LINE
  5
198
  8
0
  6
CONTINUOUS
 62
     7
 10
83.0572648817
 20
117.7922499262
 30
0.0
 11
83.0259726761
 21
117.7927072056
 31
0.0
  0
POLYLINE
  5
199
  8
0
  6
CONTINUOUS
 62
     7
 66
     1
 10
0.0
 20
0.0
 30
0.0
 70
   128
  0
VERTEX
  5
610
  8
0
  6
CONTINUOUS
 62
     7
 10
83.1360715354
 20
117.7564822499
 30
0.0
  0
VERTEX
  5
611
  8
0
  6
CONTINUOUS
 62
     7
 10
83.0995243421
 20
117.7803979151
 30
0.0
  0
VERTEX
  5
612
  8
0
  6
CONTINUOUS
 62
     7
 10
83.0572648817
 20
117.7922499262
 30
0.0
  0
SEQEND
  5
80B
  8
0
  6
CONTINUOUS
 62
     7
  0
ARC
  5
19A
  8
0
  6
CONTINUOUS
 62
     7
 10
83.0391652366
 20
117.6493634977
 30
0.0
 40
0.1444481145911885
 50
0.5591634149
 51
47.8655428713
  0
LINE
  5
19B
  8
0
  6
CONTINUOUS
 62
     7
 10
83.0259726761
 20
117.7927072056
 30
0.0
 11
82.9653903754
 21
117.7895320941
 31
0.0
  0
LINE
  5
19C
  8
0
  6
CONTINUOUS
 62
     7
 10
82.9653903754
 20
117.7895320941
 30
0.0
 11
79.7270012233
 21
117.6198153187
 31
0.0
  0
LINE
  5
19D
  8
0
  6
CONTINUOUS
 62
     7
 10
79.976175123
 20
114.0244512715
 30
0.0
 11
83.2145641004
 21
114.1941680469
 31
0.0
  0
LINE
  5
19E
  8
0
  6
CONTINUOUS
 62
     7
 10
79.9155926768
 20
114.0212763928
 30
0.0
 11
79.976175123
 21
114.0244512715
 31
0.0
  0
LINE
  5
19F
  8
0
  6
CONTINUOUS
 62
     7
 10
79.5882422142
 20
117.4015992217
 30
0.0
 11
79.7579589969
 21
114.1632104188
 31
0.0
  0
LINE
  5
1A0
  8
0
  6
CONTINUOUS
 62
     7
 10
79.5850672191
 20
117.4621817552
 30
0.0
 11
79.5882422142
 21
117.4015992217
 31
0.0
  0
LINE
  5
1A1
  8
0
  6
CONTINUOUS
 62
     7
 10
83.1836064724
 20
117.6507731796
 30
0.0
 11
83.3533232478
 21
114.412383911
 31
0.0
  0
LINE
  5
1A2
  8
0
  6
CONTINUOUS
 62
     7
 10
83.3533232478
 20
114.412383911
 30
0.0
 11
83.3564981265
 21
114.3518018432
 31
0.0
  0
POLYLINE
  5
1A3
  8
0
  6
CONTINUOUS
 62
     7
 66
     1
 10
0.0
 20
0.0
 30
0.0
 70
   128
  0
VERTEX
  5
613
  8
0
  6
CONTINUOUS
 62
     7
 10
80.7369918009
 20
114.2947010592
 30
0.0
  0
VERTEX
  5
614
  8
0
  6
CONTINUOUS
 62
     7
 10
80.7428956875
 20
114.3012580358
 30
0.0
  0
VERTEX
  5
615
  8
0
  6
CONTINUOUS
 62
     7
 10
80.7494320586
 20
114.3085176952
 30
0.0
  0
VERTEX
  5
616
  8
0
  6
CONTINUOUS
 62
     7
 10
80.7565250113
 20
114.3163948216
 30
0.0
  0
VERTEX
  5
617
  8
0
  6
CONTINUOUS
 62
     7
 10
80.7640920072
 20
114.3247990765
 30
0.0
  0
VERTEX
  5
618
  8
0
  6
CONTINUOUS
 62
     7
 10
80.77204492
 20
114.3336317398
 30
0.0
  0
VERTEX
  5
619
  8
0
  6
CONTINUOUS
 62
     7
 10
80.7802914321
 20
114.342790366
 30
0.0
  0
VERTEX
  5
61A
  8
0
  6
CONTINUOUS
 62
     7
 10
80.7887355011
 20
114.3521683186
 30
0.0
  0
VERTEX
  5
61B
  8
0
  6
CONTINUOUS
 62
     7
 10
80.7972789887
 20
114.3616570987
 30
0.0
  0
SEQEND
  5
80C
  8
0
  6
CONTINUOUS
 62
     7
  0
ARC
  5
1A4
  8
0
  6
CONTINUOUS
 62
     7
 10
80.809503659
 20
114.3752337569
 30
0.0
 40
0.0182694831207768
 50
227.9999999982
 51
317.999999999
  0
POLYLINE
  5
1A5
  8
0
  6
CONTINUOUS
 62
     7
 66
     1
 10
0.0
 20
0.0
 30
0.0
 70
   128
  0
VERTEX
  5
61C
  8
0
  6
CONTINUOUS
 62
     7
 10
82.3690840887
 20
114.3802355871
 30
0.0
  0
VERTEX
  5
61D
  8
0
  6
CONTINUOUS
 62
     7
 10
82.3625271121
 20
114.3861392409
 30
0.0
  0
VERTEX
  5
61E
  8
0
  6
CONTINUOUS
 62
     7
 10
82.3552676854
 20
114.3926757284
 30
0.0
  0
VERTEX
  5
61F
  8
0
  6
CONTINUOUS
 62
     7
 10
82.3473903263
 20
114.3997686811
 30
0.0
  0
VERTEX
  5
620
  8
0
  6
CONTINUOUS
 62
     7
 10
82.3389863042
 20
114.407335677
 30
0.0
  0
VERTEX
  5
621
  8
0
  6
CONTINUOUS
 62
     7
 10
82.3301536409
 20
114.4152887061
 30
0.0
  0
VERTEX
  5
622
  8
0
  6
CONTINUOUS
 62
     7
 10
82.3209950147
 20
114.4235351019
 30
0.0
  0
VERTEX
  5
623
  8
0
  6
CONTINUOUS
 62
     7
 10
82.3116168292
 20
114.4319794037
 30
0.0
  0
VERTEX
  5
624
  8
0
  6
CONTINUOUS
 62
     7
 10
82.302128282
 20
114.4405228913
 30
0.0
  0
SEQEND
  5
80D
  8
0
  6
CONTINUOUS
 62
     7
  0
LINE
  5
1A6
  8
0
  6
CONTINUOUS
 62
     7
 10
80.4413422854
 20
114.6821438231
 30
0.0
 11
80.7972789887
 21
114.3616570987
 31
0.0
  0
POLYLINE
  5
1A7
  8
0
  6
CONTINUOUS
 62
     7
 66
     1
 10
0.0
 20
0.0
 30
0.0
 70
   128
  0
VERTEX
  5
625
  8
0
  6
CONTINUOUS
 62
     7
 10
79.9440265371
 20
115.0086901978
 30
0.0
  0
VERTEX
  5
626
  8
0
  6
CONTINUOUS
 62
     7
 10
79.9499303946
 20
115.0152471744
 30
0.0
  0
VERTEX
  5
627
  8
0
  6
CONTINUOUS
 62
     7
 10
79.9564668239
 20
115.0225068338
 30
0.0
  0
VERTEX
  5
628
  8
0
  6
CONTINUOUS
 62
     7
 10
79.9635597766
 20
115.0303839602
 30
0.0
  0
VERTEX
  5
629
  8
0
  6
CONTINUOUS
 62
     7
 10
79.9711267143
 20
115.0387882151
 30
0.0
  0
VERTEX
  5
62A
  8
0
  6
CONTINUOUS
 62
     7
 10
79.9790796852
 20
115.0476208784
 30
0.0
  0
VERTEX
  5
62B
  8
0
  6
CONTINUOUS
 62
     7
 10
79.9873261974
 20
115.0567795046
 30
0.0
  0
VERTEX
  5
62C
  8
0
  6
CONTINUOUS
 62
     7
 10
79.9957702663
 20
115.0661574573
 30
0.0
  0
VERTEX
  5
62D
  8
0
  6
CONTINUOUS
 62
     7
 10
80.004313754
 20
115.0756462373
 30
0.0
  0
SEQEND
  5
80E
  8
0
  6
CONTINUOUS
 62
     7
  0
LINE
  5
1A8
  8
0
  6
CONTINUOUS
 62
     7
 10
80.004313754
 20
115.0756462373
 30
0.0
 11
80.360250399
 21
114.7551590473
 31
0.0
  0
LINE
  5
1A9
  8
0
  6
CONTINUOUS
 62
     7
 10
80.360693825
 20
114.7556191206
 30
0.0
 11
80.4417533479
 21
114.6826327674
 31
0.0
  0
LINE
  5
1AA
  8
0
  6
CONTINUOUS
 62
     7
 10
82.6956306962
 20
114.8775511317
 30
0.0
 11
83.0161174206
 21
115.2334881842
 31
0.0
  0
POLYLINE
  5
1AB
  8
0
  6
CONTINUOUS
 62
     7
 66
     1
 10
0.0
 20
0.0
 30
0.0
 70
   128
  0
VERTEX
  5
62E
  8
0
  6
CONTINUOUS
 62
     7
 10
83.0830732273
 20
115.17320088
 30
0.0
  0
VERTEX
  5
62F
  8
0
  6
CONTINUOUS
 62
     7
 10
83.0765162507
 20
115.1791045338
 30
0.0
  0
VERTEX
  5
630
  8
0
  6
CONTINUOUS
 62
     7
 10
83.069256824
 20
115.1856410213
 30
0.0
  0
VERTEX
  5
631
  8
0
  6
CONTINUOUS
 62
     7
 10
83.061379232
 20
115.192733974
 30
0.0
  0
VERTEX
  5
632
  8
0
  6
CONTINUOUS
 62
     7
 10
83.0529754428
 20
115.2003009699
 30
0.0
  0
VERTEX
  5
633
  8
0
  6
CONTINUOUS
 62
     7
 10
83.0441427795
 20
115.2082539991
 30
0.0
  0
VERTEX
  5
634
  8
0
  6
CONTINUOUS
 62
     7
 10
83.0349839205
 20
115.2165003948
 30
0.0
  0
VERTEX
  5
635
  8
0
  6
CONTINUOUS
 62
     7
 10
83.0256059678
 20
115.2249446966
 30
0.0
  0
VERTEX
  5
636
  8
0
  6
CONTINUOUS
 62
     7
 10
83.0161174206
 20
115.2334881842
 30
0.0
  0
SEQEND
  5
80F
  8
0
  6
CONTINUOUS
 62
     7
  0
LINE
  5
1AC
  8
0
  6
CONTINUOUS
 62
     7
 10
82.302128282
 20
114.4405228913
 30
0.0
 11
82.6226152392
 21
114.7964594782
 31
0.0
  0
LINE
  5
1AD
  8
0
  6
CONTINUOUS
 62
     7
 10
82.6221553987
 20
114.7969027877
 30
0.0
 11
82.695141519
 21
114.8779623106
 31
0.0
  0
ARC
  5
1AE
  8
0
  6
CONTINUOUS
 62
     7
 10
80.0165384044
 20
115.0892228791
 30
0.0
 40
0.0182694831207533
 50
138.0000000004
 51
228.000000001
  0
ARC
  5
1AF
  8
0
  6
CONTINUOUS
 62
     7
 10
83.0025405954
 20
115.2457126229
 30
0.0
 40
0.0182694831207863
 50
317.9999999982
 51
47.9999999989
  0
POLYLINE
  5
1B0
  8
0
  6
CONTINUOUS
 62
     7
 66
     1
 10
0.0
 20
0.0
 30
0.0
 70
   128
  0
VERTEX
  5
637
  8
0
  6
CONTINUOUS
 62
     7
 10
79.8584922129
 20
116.6407824855
 30
0.0
  0
VERTEX
  5
638
  8
0
  6
CONTINUOUS
 62
     7
 10
79.8650491022
 20
116.6348785989
 30
0.0
  0
VERTEX
  5
639
  8
0
  6
CONTINUOUS
 62
     7
 10
79.8723085288
 20
116.6283423443
 30
0.0
  0
VERTEX
  5
63A
  8
0
  6
CONTINUOUS
 62
     7
 10
79.8801860335
 20
116.6212493915
 30
0.0
  0
VERTEX
  5
63B
  8
0
  6
CONTINUOUS
 62
     7
 10
79.8885900265
 20
116.6136823956
 30
0.0
  0
VERTEX
  5
63C
  8
0
  6
CONTINUOUS
 62
     7
 10
79.8974226898
 20
116.6057293665
 30
0.0
  0
VERTEX
  5
63D
  8
0
  6
CONTINUOUS
 62
     7
 10
79.9065813451
 20
116.5974829707
 30
0.0
  0
VERTEX
  5
63E
  8
0
  6
CONTINUOUS
 62
     7
 10
79.9159594433
 20
116.5890389018
 30
0.0
  0
VERTEX
  5
63F
  8
0
  6
CONTINUOUS
 62
     7
 10
79.9254479323
 20
116.5804954142
 30
0.0
  0
SEQEND
  5
810
  8
0
  6
CONTINUOUS
 62
     7
  0
ARC
  5
1B1
  8
0
  6
CONTINUOUS
 62
     7
 10
79.939024793
 20
116.5682706934
 30
0.0
 40
0.0182694831207863
 50
137.9999999982
 51
227.9999999989
  0
LINE
  5
1B2
  8
0
  6
CONTINUOUS
 62
     7
 10
80.245934744
 20
116.936432001
 30
0.0
 11
79.9254479323
 21
116.5804954142
 31
0.0
  0
POLYLINE
  5
1B3
  8
0
  6
CONTINUOUS
 62
     7
 66
     1
 10
0.0
 20
0.0
 30
0.0
 70
   128
  0
VERTEX
  5
640
  8
0
  6
CONTINUOUS
 62
     7
 10
80.5724813515
 20
117.4337477785
 30
0.0
  0
VERTEX
  5
641
  8
0
  6
CONTINUOUS
 62
     7
 10
80.5790382117
 20
117.4278438918
 30
0.0
  0
VERTEX
  5
642
  8
0
  6
CONTINUOUS
 62
     7
 10
80.5862976383
 20
117.4213076372
 30
0.0
  0
VERTEX
  5
643
  8
0
  6
CONTINUOUS
 62
     7
 10
80.5941751139
 20
117.4142146845
 30
0.0
  0
VERTEX
  5
644
  8
0
  6
CONTINUOUS
 62
     7
 10
80.602579136
 20
117.4066476885
 30
0.0
  0
VERTEX
  5
645
  8
0
  6
CONTINUOUS
 62
     7
 10
80.6114117993
 20
117.3986946594
 30
0.0
  0
VERTEX
  5
646
  8
0
  6
CONTINUOUS
 62
     7
 10
80.6205704255
 20
117.3904482637
 30
0.0
  0
VERTEX
  5
647
  8
0
  6
CONTINUOUS
 62
     7
 10
80.629948611
 20
117.3820039619
 30
0.0
  0
VERTEX
  5
648
  8
0
  6
CONTINUOUS
 62
     7
 10
80.6394370418
 20
117.3734607071
 30
0.0
  0
SEQEND
  5
811
  8
0
  6
CONTINUOUS
 62
     7
  0
LINE
  5
1B4
  8
0
  6
CONTINUOUS
 62
     7
 10
80.6394370418
 20
117.3734607071
 30
0.0
 11
80.318950201
 21
117.0175238874
 31
0.0
  0
LINE
  5
1B5
  8
0
  6
CONTINUOUS
 62
     7
 10
80.3194100997
 20
117.0170805779
 30
0.0
 11
80.2464238047
 21
116.9360210549
 31
0.0
  0
LINE
  5
1B6
  8
0
  6
CONTINUOUS
 62
     7
 10
82.5002231547
 20
117.1318395425
 30
0.0
 11
82.144286335
 21
117.4523264997
 31
0.0
  0
POLYLINE
  5
1B7
  8
0
  6
CONTINUOUS
 62
     7
 66
     1
 10
0.0
 20
0.0
 30
0.0
 70
   128
  0
VERTEX
  5
649
  8
0
  6
CONTINUOUS
 62
     7
 10
82.2045736393
 20
117.5192820735
 30
0.0
  0
VERTEX
  5
64A
  8
0
  6
CONTINUOUS
 62
     7
 10
82.1986697526
 20
117.5127253298
 30
0.0
  0
VERTEX
  5
64B
  8
0
  6
CONTINUOUS
 62
     7
 10
82.1921332651
 20
117.5054659032
 30
0.0
  0
VERTEX
  5
64C
  8
0
  6
CONTINUOUS
 62
     7
 10
82.1850403124
 20
117.4975883112
 30
0.0
  0
VERTEX
  5
64D
  8
0
  6
CONTINUOUS
 62
     7
 10
82.1774733165
 20
117.4891842891
 30
0.0
  0
VERTEX
  5
64E
  8
0
  6
CONTINUOUS
 62
     7
 10
82.1695205202
 20
117.4803516258
 30
0.0
  0
VERTEX
  5
64F
  8
0
  6
CONTINUOUS
 62
     7
 10
82.1612738916
 20
117.4711929996
 30
0.0
  0
VERTEX
  5
650
  8
0
  6
CONTINUOUS
 62
     7
 10
82.1528298227
 20
117.4618148141
 30
0.0
  0
VERTEX
  5
651
  8
0
  6
CONTINUOUS
 62
     7
 10
82.144286335
 20
117.4523264997
 30
0.0
  0
SEQEND
  5
812
  8
0
  6
CONTINUOUS
 62
     7
  0
POLYLINE
  5
1B8
  8
0
  6
CONTINUOUS
 62
     7
 66
     1
 10
0.0
 20
0.0
 30
0.0
 70
   128
  0
VERTEX
  5
652
  8
0
  6
CONTINUOUS
 62
     7
 10
82.9975389322
 20
116.8052929349
 30
0.0
  0
VERTEX
  5
653
  8
0
  6
CONTINUOUS
 62
     7
 10
82.9916350456
 20
116.7987361912
 30
0.0
  0
VERTEX
  5
654
  8
0
  6
CONTINUOUS
 62
     7
 10
82.9850985581
 20
116.7914767645
 30
0.0
  0
VERTEX
  5
655
  8
0
  6
CONTINUOUS
 62
     7
 10
82.9780056053
 20
116.7835991726
 30
0.0
  0
VERTEX
  5
656
  8
0
  6
CONTINUOUS
 62
     7
 10
82.9704386094
 20
116.7751951505
 30
0.0
  0
VERTEX
  5
657
  8
0
  6
CONTINUOUS
 62
     7
 10
82.9624855803
 20
116.7663624872
 30
0.0
  0
VERTEX
  5
658
  8
0
  6
CONTINUOUS
 62
     7
 10
82.9542391846
 20
116.757203861
 30
0.0
  0
VERTEX
  5
659
  8
0
  6
CONTINUOUS
 62
     7
 10
82.9457951156
 20
116.7478256755
 30
0.0
  0
VERTEX
  5
65A
  8
0
  6
CONTINUOUS
 62
     7
 10
82.937251628
 20
116.7383373611
 30
0.0
  0
SEQEND
  5
813
  8
0
  6
CONTINUOUS
 62
     7
  0
LINE
  5
1B9
  8
0
  6
CONTINUOUS
 62
     7
 10
82.937251628
 20
116.7383373611
 30
0.0
 11
82.5813150411
 21
117.0588240855
 31
0.0
  0
LINE
  5
1BA
  8
0
  6
CONTINUOUS
 62
     7
 10
82.5808714987
 20
117.0583642449
 30
0.0
 11
82.4998119758
 21
117.1313505981
 31
0.0
  0
ARC
  5
1BB
  8
0
  6
CONTINUOUS
 62
     7
 10
82.925026984
 20
116.7247604371
 30
0.0
 40
0.0182694831207723
 50
318.0000000004
 51
48.000000001
  0
ARC
  5
1BC
  8
0
  6
CONTINUOUS
 62
     7
 10
82.1320617295
 20
117.4387495594
 30
0.0
 40
0.0182694831207757
 50
47.9999999982
 51
137.9999999989
  0
ARC
  5
1BD
  8
0
  6
CONTINUOUS
 62
     7
 10
80.6530139152
 20
117.361235948
 30
0.0
 40
0.0182694831207533
 50
48.0000000004
 51
138.000000001
  0
CIRCLE
  5
1BE
  8
0
  6
CONTINUOUS
 62
     7
 10
81.4707826942
 20
115.9069916581
 30
0.0
 40
1.477314948768384
  0
ARC
  5
1BF
  8
0
  6
CONTINUOUS
 62
     7
 10
81.4707826942
 20
115.9069916581
 30
0.0
 40
1.598722349105488
 50
229.9541631385
 51
316.0458368616
  0
ARC
  5
1C0
  8
0
  6
CONTINUOUS
 62
     7
 10
81.4707826942
 20
115.9069916581
 30
0.0
 40
1.598722349105486
 50
139.9541631385
 51
226.0458368615
  0
ARC
  5
1C1
  8
0
  6
CONTINUOUS
 62
     7
 10
81.4707826942
 20
115.9069916581
 30
0.0
 40
1.598722349105486
 50
49.9541631385
 51
136.0458368615
  0
ARC
  5
1C2
  8
0
  6
CONTINUOUS
 62
     7
 10
81.4707826942
 20
115.9069916581
 30
0.0
 40
1.598722349105488
 50
319.9541631385
 51
46.0458368615
  0
ARC
  5
1C3
  8
0
  6
CONTINUOUS
 62
     7
 10
83.5474939039
 20
114.0371099839
 30
0.0
 40
0.4742342631069165
 50
272.999195108
 51
318.0002377506
  0
LINE
  5
1C4
  8
0
  6
CONTINUOUS
 62
     7
 10
83.5723039606
 20
113.5635248281
 30
0.0
 11
83.3979575807
 21
113.9464474179
 31
0.0
  0
LINE
  5
1C5
  8
0
  6
CONTINUOUS
 62
     7
 10
83.3979575807
 20
113.9464474179
 30
0.0
 11
83.499582103
 21
113.9702506259
 31
0.0
  0
LINE
  5
1C6
  8
0
  6
CONTINUOUS
 62
     7
 10
83.4995825687
 20
113.9702506259
 30
0.0
 11
83.5454418236
 21
113.9944999375
 31
0.0
  0
LINE
  5
1C7
  8
0
  6
CONTINUOUS
 62
     7
 10
83.5454418236
 20
113.9944999375
 30
0.0
 11
83.8999199593
 21
113.7197867863
 31
0.0
  0
ARC
  5
1C8
  8
0
  6
CONTINUOUS
 62
     7
 10
79.394071436
 20
117.7768735404
 30
0.0
 40
0.4742341255590444
 50
92.9992445793
 51
138.000248602
  0
LINE
  5
1C9
  8
0
  6
CONTINUOUS
 62
     7
 10
79.369261334
 20
118.2504583046
 30
0.0
 11
79.5436078231
 21
117.8675357148
 31
0.0
  0
LINE
  5
1CA
  8
0
  6
CONTINUOUS
 62
     7
 10
79.5436078813
 20
117.8675357148
 30
0.0
 11
79.4419831807
 21
117.8437327396
 31
0.0
  0
LINE
  5
1CB
  8
0
  6
CONTINUOUS
 62
     7
 10
79.4419827841
 20
117.8437325068
 30
0.0
 11
79.3961236384
 21
117.8194834281
 31
0.0
  0
LINE
  5
1CC
  8
0
  6
CONTINUOUS
 62
     7
 10
79.3961234929
 20
117.8194831953
 30
0.0
 11
79.0416454517
 21
118.0941965793
 31
0.0
  0
ARC
  5
1CD
  8
0
  6
CONTINUOUS
 62
     7
 10
83.3406621218
 20
117.9837010193
 30
0.0
 40
0.47423700855373
 50
2.9994153049
 51
48.0001818889
  0
LINE
  5
1CE
  8
0
  6
CONTINUOUS
 62
     7
 10
83.8142494583
 20
118.0085130397
 30
0.0
 11
83.4313268685
 21
117.834166427
 31
0.0
  0
LINE
  5
1CF
  8
0
  6
CONTINUOUS
 62
     7
 10
83.4313268685
 20
117.834166427
 30
0.0
 11
83.4075236605
 21
117.9357911822
 31
0.0
  0
LINE
  5
1D0
  8
0
  6
CONTINUOUS
 62
     7
 10
83.4075236605
 20
117.9357916478
 30
0.0
 11
83.383274349
 21
117.9816506699
 31
0.0
  0
LINE
  5
1D1
  8
0
  6
CONTINUOUS
 62
     7
 10
83.383274349
 20
117.9816509027
 30
0.0
 11
83.6579875001
 21
118.3361288056
 31
0.0
  0
ARC
  5
1D2
  8
0
  6
CONTINUOUS
 62
     7
 10
79.6009025976
 20
113.8302812447
 30
0.0
 40
0.4742360559058442
 50
182.998950036
 51
228.000152848
  0
LINE
  5
1D3
  8
0
  6
CONTINUOUS
 62
     7
 10
79.1273160109
 20
113.8054703258
 30
0.0
 11
79.5102385971
 21
113.9798167058
 31
0.0
  0
LINE
  5
1D4
  8
0
  6
CONTINUOUS
 62
     7
 10
79.5102385862
 20
113.9798167058
 30
0.0
 11
79.534041656
 21
113.8781921834
 31
0.0
  0
LINE
  5
1D5
  8
0
  6
CONTINUOUS
 62
     7
 10
79.5340418888
 20
113.8781917177
 30
0.0
 11
79.5582909311
 21
113.8323324628
 31
0.0
  0
LINE
  5
1D6
  8
0
  6
CONTINUOUS
 62
     7
 10
79.5582910548
 20
113.8323324628
 30
0.0
 11
79.2835776926
 21
113.4778543271
 31
0.0
  0
LINE
  5
1D7
  8
0
  6
CONTINUOUS
 62
     7
 10
83.5723039606
 20
113.5635248281
 30
0.0
 11
83.3419378293
 21
113.9030473203
 31
0.0
  0
LINE
  5
1D8
  8
0
  6
CONTINUOUS
 62
     7
 10
83.3419357339
 20
113.9030505799
 30
0.0
 11
83.397957115
 21
113.9464469522
 31
0.0
  0
LINE
  5
1D9
  8
0
  6
CONTINUOUS
 62
     7
 10
79.369261334
 20
118.2504583046
 30
0.0
 11
79.5996275526
 21
117.9109358125
 31
0.0
  0
LINE
  5
1DA
  8
0
  6
CONTINUOUS
 62
     7
 10
79.5996297645
 20
117.9109330185
 30
0.0
 11
79.5436084561
 21
117.8675361805
 31
0.0
  0
LINE
  5
1DB
  8
0
  6
CONTINUOUS
 62
     7
 10
83.4747269662
 20
117.7781469085
 30
0.0
 11
83.8142494583
 21
118.0085130397
 31
0.0
  0
LINE
  5
1DC
  8
0
  6
CONTINUOUS
 62
     7
 10
83.4747241722
 20
117.7781445801
 30
0.0
 11
83.4313273342
 21
117.8341659613
 31
0.0
  0
LINE
  5
1DD
  8
0
  6
CONTINUOUS
 62
     7
 10
79.1273160109
 20
113.8054703258
 30
0.0
 11
79.4668385286
 21
114.0358366899
 31
0.0
  0
LINE
  5
1DE
  8
0
  6
CONTINUOUS
 62
     7
 10
79.4668414098
 20
114.0358385526
 30
0.0
 11
79.5102381423
 21
113.9798176371
 31
0.0
  0
LINE
  5
1DF
  8
0
  6
CONTINUOUS
 62
     7
 10
84.0009353967
 20
114.4463240996
 30
0.0
 11
83.6095708334
 21
114.4420926355
 31
0.0
  0
LINE
  5
1E0
  8
0
  6
CONTINUOUS
 62
     7
 10
84.0009353967
 20
114.4463240996
 30
0.0
 11
83.6083866568
 21
114.4094292902
 31
0.0
  0
LINE
  5
1E1
  8
0
  6
CONTINUOUS
 62
     7
 10
83.6083866568
 20
114.4094292902
 30
0.0
 11
83.6095708334
 21
114.4420926355
 31
0.0
  0
LINE
  5
1E2
  8
0
  6
CONTINUOUS
 62
     7
 10
80.0058837892
 20
113.768203453
 30
0.0
 11
80.0101150205
 21
113.3768388897
 31
0.0
  0
LINE
  5
1E3
  8
0
  6
CONTINUOUS
 62
     7
 10
80.0101150205
 20
113.3768388897
 30
0.0
 11
79.9732203275
 21
113.7693880953
 31
0.0
  0
LINE
  5
1E4
  8
0
  6
CONTINUOUS
 62
     7
 10
79.9732202693
 20
113.7693876296
 30
0.0
 11
80.0058837892
 21
113.768203453
 31
0.0
  0
LINE
  5
1E5
  8
0
  6
CONTINUOUS
 62
     7
 10
82.9356816509
 20
118.0457799126
 30
0.0
 11
82.9314504197
 21
118.4371445922
 31
0.0
  0
LINE
  5
1E6
  8
0
  6
CONTINUOUS
 62
     7
 10
82.9314504197
 20
118.4371445922
 30
0.0
 11
82.9683449963
 21
118.0445955031
 31
0.0
  0
LINE
  5
1E7
  8
0
  6
CONTINUOUS
 62
     7
 10
82.9683449963
 20
118.0445957359
 30
0.0
 11
82.9356816509
 21
118.0457796797
 31
0.0
  0
LINE
  5
1E8
  8
0
  6
CONTINUOUS
 62
     7
 10
79.3319945339
 20
117.3718904972
 30
0.0
 11
78.9406297524
 21
117.3676592659
 31
0.0
  0
LINE
  5
1E9
  8
0
  6
CONTINUOUS
 62
     7
 10
78.9406297524
 20
117.3676592659
 30
0.0
 11
79.3331788998
 21
117.4045540754
 31
0.0
  0
LINE
  5
1EA
  8
0
  6
CONTINUOUS
 62
     7
 10
79.3331787106
 20
117.4045540754
 30
0.0
 11
79.3319945631
 21
117.3718904972
 31
0.0
  0
LINE
  5
1EB
  8
0
  6
CONTINUOUS
 62
     7
 10
83.3354988979
 20
118.0284698855
 30
0.0
 11
83.6579875001
 21
118.3361288056
 31
0.0
  0
POLYLINE
  5
1EC
  8
0
  6
CONTINUOUS
 62
     7
 66
     1
 10
0.0
 20
0.0
 30
0.0
 70
   128
  0
VERTEX
  5
65B
  8
0
  6
CONTINUOUS
 62
     7
 10
83.1657537171
 20
118.0707086239
 30
0.0
  0
VERTEX
  5
65C
  8
0
  6
CONTINUOUS
 62
     7
 10
83.2719603466
 20
118.0571625371
 30
0.0
  0
VERTEX
  5
65D
  8
0
  6
CONTINUOUS
 62
     7
 10
83.3354993635
 20
118.0284694199
 30
0.0
  0
SEQEND
  5
814
  8
0
  6
CONTINUOUS
 62
     7
  0
LINE
  5
1ED
  8
0
  6
CONTINUOUS
 62
     7
 10
83.315839144
 20
118.4572896816
 30
0.0
 11
83.1657537171
 21
118.0707086239
 31
0.0
  0
ARC
  5
1EE
  8
0
  6
CONTINUOUS
 62
     7
 10
83.3406611534
 20
117.9837051393
 30
0.0
 40
0.4742345947943401
 50
47.9997618714
 51
93.0003010601
  0
LINE
  5
1EF
  8
0
  6
CONTINUOUS
 62
     7
 10
83.5922608064
 20
114.0422753886
 30
0.0
 11
83.8999199593
 21
113.7197867863
 31
0.0
  0
POLYLINE
  5
1F0
  8
0
  6
CONTINUOUS
 62
     7
 66
     1
 10
0.0
 20
0.0
 30
0.0
 70
   128
  0
VERTEX
  5
65E
  8
0
  6
CONTINUOUS
 62
     7
 10
83.6344995448
 20
114.2120205693
 30
0.0
  0
VERTEX
  5
65F
  8
0
  6
CONTINUOUS
 62
     7
 10
83.620953458
 20
114.1058139399
 30
0.0
  0
VERTEX
  5
660
  8
0
  6
CONTINUOUS
 62
     7
 10
83.5922603408
 20
114.0422749229
 30
0.0
  0
SEQEND
  5
815
  8
0
  6
CONTINUOUS
 62
     7
  0
LINE
  5
1F1
  8
0
  6
CONTINUOUS
 62
     7
 10
84.0210808353
 20
114.0619351424
 30
0.0
 11
83.6344995448
 21
114.2120205693
 31
0.0
  0
ARC
  5
1F2
  8
0
  6
CONTINUOUS
 62
     7
 10
83.5474937687
 20
114.0371140269
 30
0.0
 40
0.4742370688208641
 50
317.999885683
 51
3.0001772485
  0
LINE
  5
1F3
  8
0
  6
CONTINUOUS
 62
     7
 10
79.3493044737
 20
117.771707977
 30
0.0
 11
79.0416454517
 21
118.0941965793
 31
0.0
  0
POLYLINE
  5
1F4
  8
0
  6
CONTINUOUS
 62
     7
 66
     1
 10
0.0
 20
0.0
 30
0.0
 70
   128
  0
VERTEX
  5
661
  8
0
  6
CONTINUOUS
 62
     7
 10
79.3070657062
 20
117.6019627962
 30
0.0
  0
VERTEX
  5
662
  8
0
  6
CONTINUOUS
 62
     7
 10
79.3206118658
 20
117.7081691928
 30
0.0
  0
VERTEX
  5
663
  8
0
  6
CONTINUOUS
 62
     7
 10
79.3493050266
 20
117.7717084427
 30
0.0
  0
SEQEND
  5
816
  8
0
  6
CONTINUOUS
 62
     7
  0
LINE
  5
1F5
  8
0
  6
CONTINUOUS
 62
     7
 10
78.920484663
 20
117.7520479903
 30
0.0
 11
79.3070657062
 21
117.6019627962
 31
0.0
  0
ARC
  5
1F6
  8
0
  6
CONTINUOUS
 62
     7
 10
79.3940706524
 20
117.7768698232
 30
0.0
 40
0.4742360305439969
 50
137.9998515043
 51
183.0002706091
  0
LINE
  5
1F7
  8
0
  6
CONTINUOUS
 62
     7
 10
79.6060664695
 20
113.78551348
 30
0.0
 11
79.2835776926
 21
113.4778543271
 31
0.0
  0
POLYLINE
  5
1F8
  8
0
  6
CONTINUOUS
 62
     7
 66
     1
 10
0.0
 20
0.0
 30
0.0
 70
   128
  0
VERTEX
  5
664
  8
0
  6
CONTINUOUS
 62
     7
 10
79.7758116066
 20
113.7432747416
 30
0.0
  0
VERTEX
  5
665
  8
0
  6
CONTINUOUS
 62
     7
 10
79.6696050791
 20
113.7568208285
 30
0.0
  0
VERTEX
  5
666
  8
0
  6
CONTINUOUS
 62
     7
 10
79.6060659602
 20
113.7855139457
 30
0.0
  0
SEQEND
  5
817
  8
0
  6
CONTINUOUS
 62
     7
  0
LINE
  5
1F9
  8
0
  6
CONTINUOUS
 62
     7
 10
79.6257263689
 20
113.3566934511
 30
0.0
 11
79.7758116066
 21
113.7432747416
 31
0.0
  0
ARC
  5
1FA
  8
0
  6
CONTINUOUS
 62
     7
 10
79.6009063335
 20
113.8302844445
 30
0.0
 40
0.4742409336779509
 50
228.0000761024
 51
273.0000221008
  0
LINE
  5
1FB
  8
0
  6
CONTINUOUS
 62
     7
 10
80.0058802385
 20
113.7730006956
 30
0.0
 11
80.0058837892
 21
113.768203453
 31
0.0
  0
POLYLINE
  5
1FC
  8
0
  6
CONTINUOUS
 62
     7
 66
     1
 10
0.0
 20
0.0
 30
0.0
 70
   128
  0
VERTEX
  5
667
  8
0
  6
CONTINUOUS
 62
     7
 10
80.0055139377
 20
113.7878897496
 30
0.0
  0
VERTEX
  5
668
  8
0
  6
CONTINUOUS
 62
     7
 10
80.0057157437
 20
113.7795520842
 30
0.0
  0
VERTEX
  5
669
  8
0
  6
CONTINUOUS
 62
     7
 10
80.0058802385
 20
113.7730006956
 30
0.0
  0
SEQEND
  5
818
  8
0
  6
CONTINUOUS
 62
     7
  0
LINE
  5
1FD
  8
0
  6
CONTINUOUS
 62
     7
 10
80.005533903
 20
113.7894231722
 30
0.0
 11
80.0055139377
 21
113.7878897496
 31
0.0
  0
LINE
  5
1FE
  8
0
  6
CONTINUOUS
 62
     7
 10
83.2955779886
 20
113.961846371
 30
0.0
 11
80.005533903
 21
113.7894231722
 31
0.0
  0
LINE
  5
1FF
  8
0
  6
CONTINUOUS
 62
     7
 10
83.3239579485
 20
113.9303616144
 30
0.0
 11
83.2955779886
 21
113.961846371
 31
0.0
  0
LINE
  5
200
  8
0
  6
CONTINUOUS
 62
     7
 10
83.3308555564
 20
113.9192215994
 30
0.0
 11
83.3239579485
 21
113.9303616144
 31
0.0
  0
LINE
  5
201
  8
0
  6
CONTINUOUS
 62
     7
 10
83.3419378293
 20
113.9030473203
 30
0.0
 11
83.3308555564
 21
113.9192215994
 31
0.0
  0
LINE
  5
202
  8
0
  6
CONTINUOUS
 62
     7
 10
80.0101150205
 20
113.3768388897
 30
0.0
 11
83.5723039606
 21
113.5635248281
 31
0.0
  0
LINE
  5
203
  8
0
  6
CONTINUOUS
 62
     7
 10
79.3367917183
 20
117.3718942225
 30
0.0
 11
79.3319945339
 21
117.3718904972
 31
0.0
  0
LINE
  5
204
  8
0
  6
CONTINUOUS
 62
     7
 10
79.3516805977
 20
117.3722604651
 30
0.0
 11
79.3367917183
 21
117.3718942225
 31
0.0
  0
LINE
  5
205
  8
0
  6
CONTINUOUS
 62
     7
 10
79.3532141004
 20
117.3722404417
 30
0.0
 11
79.3516805977
 21
117.3722604651
 31
0.0
  0
LINE
  5
206
  8
0
  6
CONTINUOUS
 62
     7
 10
79.5256385434
 20
114.0821969964
 30
0.0
 11
79.3532141004
 21
117.3722404417
 31
0.0
  0
LINE
  5
207
  8
0
  6
CONTINUOUS
 62
     7
 10
79.4941524862
 20
114.0538163379
 30
0.0
 11
79.5256385434
 21
114.0821969964
 31
0.0
  0
LINE
  5
208
  8
0
  6
CONTINUOUS
 62
     7
 10
79.4830126931
 20
114.0469184973
 30
0.0
 11
79.4941524862
 21
114.0538163379
 31
0.0
  0
LINE
  5
209
  8
0
  6
CONTINUOUS
 62
     7
 10
79.4668385286
 20
114.0358366899
 30
0.0
 11
79.4830126931
 21
114.0469184973
 31
0.0
  0
LINE
  5
20A
  8
0
  6
CONTINUOUS
 62
     7
 10
78.9406297524
 20
117.3676592659
 30
0.0
 11
79.1273161856
 21
113.8054703258
 31
0.0
  0
LINE
  5
20B
  8
0
  6
CONTINUOUS
 62
     7
 10
83.458552687
 20
117.7670646355
 30
0.0
 11
83.4747269662
 21
117.7781469085
 31
0.0
  0
LINE
  5
20C
  8
0
  6
CONTINUOUS
 62
     7
 10
83.6095708334
 20
114.4420926355
 30
0.0
 11
83.6047735909
 21
114.4420893759
 31
0.0
  0
POLYLINE
  5
20D
  8
0
  6
CONTINUOUS
 62
     7
 66
     1
 10
0.0
 20
0.0
 30
0.0
 70
   128
  0
VERTEX
  5
66A
  8
0
  6
CONTINUOUS
 62
     7
 10
83.5898850025
 20
114.4417229004
 30
0.0
  0
VERTEX
  5
66B
  8
0
  6
CONTINUOUS
 62
     7
 10
83.5982222022
 20
114.4419245318
 30
0.0
  0
VERTEX
  5
66C
  8
0
  6
CONTINUOUS
 62
     7
 10
83.6047735909
 20
114.4420893759
 30
0.0
  0
SEQEND
  5
819
  8
0
  6
CONTINUOUS
 62
     7
  0
LINE
  5
20E
  8
0
  6
CONTINUOUS
 62
     7
 10
83.5883511142
 20
114.4417429239
 30
0.0
 11
83.5898850025
 21
114.4417229004
 31
0.0
  0
LINE
  5
20F
  8
0
  6
CONTINUOUS
 62
     7
 10
83.4159274498
 20
117.731786602
 30
0.0
 11
83.5883511142
 21
114.4417429239
 31
0.0
  0
LINE
  5
210
  8
0
  6
CONTINUOUS
 62
     7
 10
83.4159274498
 20
117.731786602
 30
0.0
 11
83.447412672
 21
117.7601667948
 31
0.0
  0
LINE
  5
211
  8
0
  6
CONTINUOUS
 62
     7
 10
83.447412672
 20
117.7601667948
 30
0.0
 11
83.458552687
 21
117.7670646355
 31
0.0
  0
LINE
  5
212
  8
0
  6
CONTINUOUS
 62
     7
 10
83.8142489927
 20
118.0085193262
 30
0.0
 11
84.0009358624
 21
114.4463240996
 31
0.0
  0
POLYLINE
  5
213
  8
0
  6
CONTINUOUS
 62
     7
 66
     1
 10
0.0
 20
0.0
 30
0.0
 70
   128
  0
VERTEX
  5
66D
  8
0
  6
CONTINUOUS
 62
     7
 10
83.3354988979
 20
118.0284698855
 30
0.0
  0
VERTEX
  5
66E
  8
0
  6
CONTINUOUS
 62
     7
 10
83.3594920957
 20
118.0048326858
 30
0.0
  0
VERTEX
  5
66F
  8
0
  6
CONTINUOUS
 62
     7
 10
83.383274349
 20
117.9816509027
 30
0.0
  0
SEQEND
  5
81A
  8
0
  6
CONTINUOUS
 62
     7
  0
POLYLINE
  5
214
  8
0
  6
CONTINUOUS
 62
     7
 66
     1
 10
0.0
 20
0.0
 30
0.0
 70
   128
  0
VERTEX
  5
670
  8
0
  6
CONTINUOUS
 62
     7
 10
83.5922608064
 20
114.0422753886
 30
0.0
  0
VERTEX
  5
671
  8
0
  6
CONTINUOUS
 62
     7
 10
83.5686238395
 20
114.0182821907
 30
0.0
  0
VERTEX
  5
672
  8
0
  6
CONTINUOUS
 62
     7
 10
83.5454418236
 20
113.9944999375
 30
0.0
  0
SEQEND
  5
81B
  8
0
  6
CONTINUOUS
 62
     7
  0
POLYLINE
  5
215
  8
0
  6
CONTINUOUS
 62
     7
 66
     1
 10
0.0
 20
0.0
 30
0.0
 70
   128
  0
VERTEX
  5
673
  8
0
  6
CONTINUOUS
 62
     7
 10
79.3493045101
 20
117.7717077442
 30
0.0
  0
VERTEX
  5
674
  8
0
  6
CONTINUOUS
 62
     7
 10
79.3729415934
 20
117.795700942
 30
0.0
  0
VERTEX
  5
675
  8
0
  6
CONTINUOUS
 62
     7
 10
79.3961234929
 20
117.8194831953
 30
0.0
  0
SEQEND
  5
81C
  8
0
  6
CONTINUOUS
 62
     7
  0
POLYLINE
  5
216
  8
0
  6
CONTINUOUS
 62
     7
 66
     1
 10
0.0
 20
0.0
 30
0.0
 70
   128
  0
VERTEX
  5
676
  8
0
  6
CONTINUOUS
 62
     7
 10
79.6060664986
 20
113.78551348
 30
0.0
  0
VERTEX
  5
677
  8
0
  6
CONTINUOUS
 62
     7
 10
79.5820733735
 20
113.809150447
 30
0.0
  0
VERTEX
  5
678
  8
0
  6
CONTINUOUS
 62
     7
 10
79.5582910548
 20
113.8323324628
 30
0.0
  0
SEQEND
  5
81D
  8
0
  6
CONTINUOUS
 62
     7
  0
LINE
  5
217
  8
0
  6
CONTINUOUS
 62
     7
 10
79.6176075353
 20
117.8836217512
 30
0.0
 11
79.6459873061
 21
117.8521369945
 31
0.0
  0
LINE
  5
218
  8
0
  6
CONTINUOUS
 62
     7
 10
79.6107097383
 20
117.8947617661
 30
0.0
 11
79.6176075353
 21
117.8836217512
 31
0.0
  0
LINE
  5
219
  8
0
  6
CONTINUOUS
 62
     7
 10
79.5996275526
 20
117.9109358125
 30
0.0
 11
79.6107097383
 21
117.8947617661
 31
0.0
  0
LINE
  5
21A
  8
0
  6
CONTINUOUS
 62
     7
 10
82.9314504197
 20
118.4371445922
 30
0.0
 11
79.3692613486
 21
118.2504580718
 31
0.0
  0
LINE
  5
21B
  8
0
  6
CONTINUOUS
 62
     7
 10
82.9356851434
 20
118.04098267
 30
0.0
 11
82.9356816509
 21
118.0457799126
 31
0.0
  0
POLYLINE
  5
21C
  8
0
  6
CONTINUOUS
 62
     7
 66
     1
 10
0.0
 20
0.0
 30
0.0
 70
   128
  0
VERTEX
  5
679
  8
0
  6
CONTINUOUS
 62
     7
 10
82.936051386
 20
118.0260938488
 30
0.0
  0
VERTEX
  5
67A
  8
0
  6
CONTINUOUS
 62
     7
 10
82.9358495218
 20
118.0344312813
 30
0.0
  0
VERTEX
  5
67B
  8
0
  6
CONTINUOUS
 62
     7
 10
82.9356851434
 20
118.04098267
 30
0.0
  0
SEQEND
  5
81E
  8
0
  6
CONTINUOUS
 62
     7
  0
LINE
  5
21D
  8
0
  6
CONTINUOUS
 62
     7
 10
82.9360313626
 20
118.0245601934
 30
0.0
 11
82.936051386
 21
118.0260938488
 31
0.0
  0
LINE
  5
21E
  8
0
  6
CONTINUOUS
 62
     7
 10
79.6459873061
 20
117.8521369945
 30
0.0
 11
82.9360313626
 21
118.0245601934
 31
0.0
  0
LINE
  5
21F
  8
0
  6
CONTINUOUS
 62
     7
 10
79.7570449038
 20
113.363575925
 30
0.0
 11
79.8503067897
 21
113.7513367355
 31
0.0
  0
LINE
  5
220
  8
0
  6
CONTINUOUS
 62
     7
 10
79.8532911838
 20
113.7517912209
 30
0.0
 11
79.8503067897
 21
113.7513367355
 31
0.0
  0
LINE
  5
221
  8
0
  6
CONTINUOUS
 62
     7
 10
79.9732203275
 20
113.7693880953
 30
0.0
 11
79.8532911838
 21
113.7517912209
 31
0.0
  0
LINE
  5
222
  8
0
  6
CONTINUOUS
 62
     7
 10
79.7570449038
 20
113.363575925
 30
0.0
 11
80.0101150787
 21
113.3768384241
 31
0.0
  0
LINE
  5
223
  8
0
  6
CONTINUOUS
 62
     7
 10
78.9273668458
 20
117.6207294118
 30
0.0
 11
79.3151276127
 21
117.5274674677
 31
0.0
  0
LINE
  5
224
  8
0
  6
CONTINUOUS
 62
     7
 10
79.315582331
 20
117.5244832773
 30
0.0
 11
79.3151275982
 21
117.5274674677
 31
0.0
  0
LINE
  5
225
  8
0
  6
CONTINUOUS
 62
     7
 10
79.3331788998
 20
117.4045540754
 30
0.0
 11
79.315582331
 21
117.5244832773
 31
0.0
  0
LINE
  5
226
  8
0
  6
CONTINUOUS
 62
     7
 10
78.9273668458
 20
117.6207294118
 30
0.0
 11
78.9406296942
 21
117.3676592659
 31
0.0
  0
LINE
  5
227
  8
0
  6
CONTINUOUS
 62
     7
 10
84.0141983615
 20
114.1932539538
 30
0.0
 11
83.6264375509
 21
114.2865156651
 31
0.0
  0
LINE
  5
228
  8
0
  6
CONTINUOUS
 62
     7
 10
83.6259830655
 20
114.2895000883
 30
0.0
 11
83.6264380166
 21
114.2865156651
 31
0.0
  0
LINE
  5
229
  8
0
  6
CONTINUOUS
 62
     7
 10
83.6083866568
 20
114.4094292902
 30
0.0
 11
83.6259830655
 21
114.2895000883
 31
0.0
  0
LINE
  5
22A
  8
0
  6
CONTINUOUS
 62
     7
 10
84.0009353967
 20
114.4463240996
 30
0.0
 11
84.0141983615
 21
114.1932539538
 31
0.0
  0
LINE
  5
22B
  8
0
  6
CONTINUOUS
 62
     7
 10
83.1845205655
 20
118.4504074406
 30
0.0
 11
83.0912586214
 21
118.0626468629
 31
0.0
  0
LINE
  5
22C
  8
0
  6
CONTINUOUS
 62
     7
 10
83.0882741982
 20
118.0621919118
 30
0.0
 11
83.0912586214
 21
118.0626468629
 31
0.0
  0
LINE
  5
22D
  8
0
  6
CONTINUOUS
 62
     7
 10
82.9683449963
 20
118.0445955031
 30
0.0
 11
83.0882741982
 21
118.0621919118
 31
0.0
  0
LINE
  5
22E
  8
0
  6
CONTINUOUS
 62
     7
 10
82.9314504197
 20
118.4371445922
 30
0.0
 11
83.1845205655
 21
118.4504074406
 31
0.0
  0
LINE
  5
22F
  8
0
  6
CONTINUOUS
 62
     7
 10
79.7830374183
 20
113.7437571667
 30
0.0
 11
79.7758116066
 21
113.7432747416
 31
0.0
  0
LINE
  5
230
  8
0
  6
CONTINUOUS
 62
     7
 10
79.8006431694
 20
113.7453115441
 30
0.0
 11
79.7830374183
 21
113.7437571667
 31
0.0
  0
LINE
  5
231
  8
0
  6
CONTINUOUS
 62
     7
 10
79.8503067897
 20
113.7513367355
 30
0.0
 11
79.8006431694
 21
113.7453115441
 31
0.0
  0
LINE
  5
232
  8
0
  6
CONTINUOUS
 62
     7
 10
79.6257263689
 20
113.3566934511
 30
0.0
 11
79.7570449038
 21
113.363575925
 31
0.0
  0
LINE
  5
233
  8
0
  6
CONTINUOUS
 62
     7
 10
79.3075484078
 20
117.5947368972
 30
0.0
 11
79.3070657062
 21
117.6019627962
 31
0.0
  0
LINE
  5
234
  8
0
  6
CONTINUOUS
 62
     7
 10
79.3091023631
 20
117.5771311753
 30
0.0
 11
79.3075484078
 21
117.5947368972
 31
0.0
  0
LINE
  5
235
  8
0
  6
CONTINUOUS
 62
     7
 10
79.3151276127
 20
117.5274674677
 30
0.0
 11
79.3091023631
 21
117.5771311753
 31
0.0
  0
LINE
  5
236
  8
0
  6
CONTINUOUS
 62
     7
 10
78.920484663
 20
117.7520479903
 30
0.0
 11
78.9273668458
 21
117.6207294118
 31
0.0
  0
LINE
  5
237
  8
0
  6
CONTINUOUS
 62
     7
 10
83.1585280509
 20
118.070225966
 30
0.0
 11
83.1657537171
 21
118.0707086239
 31
0.0
  0
LINE
  5
238
  8
0
  6
CONTINUOUS
 62
     7
 10
83.1409220962
 20
118.0686720543
 30
0.0
 11
83.1585280509
 21
118.070225966
 31
0.0
  0
LINE
  5
239
  8
0
  6
CONTINUOUS
 62
     7
 10
83.0912586214
 20
118.0626468629
 30
0.0
 11
83.1409220962
 21
118.0686720543
 31
0.0
  0
LINE
  5
23A
  8
0
  6
CONTINUOUS
 62
     7
 10
83.1845205655
 20
118.4504074406
 30
0.0
 11
83.315839144
 21
118.4572896816
 31
0.0
  0
LINE
  5
23B
  8
0
  6
CONTINUOUS
 62
     7
 10
83.6340171197
 20
114.2192462355
 30
0.0
 11
83.6344995448
 21
114.2120205693
 31
0.0
  0
LINE
  5
23C
  8
0
  6
CONTINUOUS
 62
     7
 10
83.632463208
 20
114.2368519575
 30
0.0
 11
83.6340171197
 21
114.2192462355
 31
0.0
  0
LINE
  5
23D
  8
0
  6
CONTINUOUS
 62
     7
 10
83.6264375509
 20
114.2865156651
 30
0.0
 11
83.632463208
 21
114.2368519575
 31
0.0
  0
LINE
  5
23E
  8
0
  6
CONTINUOUS
 62
     7
 10
84.0141983615
 20
114.1932539538
 30
0.0
 11
84.0210808353
 21
114.0619351424
 31
0.0
  0
LINE
  5
23F
  8
0
  6
CONTINUOUS
 62
     7
 10
79.3961236384
 20
117.8194834281
 30
0.0
 11
79.4387939975
 21
117.7827623103
 31
0.0
  0
POLYLINE
  5
240
  8
0
  6
CONTINUOUS
 62
     7
 66
     1
 10
0.0
 20
0.0
 30
0.0
 70
   128
  0
VERTEX
  5
67C
  8
0
  6
CONTINUOUS
 62
     7
 10
79.3946057063
 20
117.7288291872
 30
0.0
  0
VERTEX
  5
67D
  8
0
  6
CONTINUOUS
 62
     7
 10
79.4173904876
 20
117.7555292741
 30
0.0
  0
VERTEX
  5
67E
  8
0
  6
CONTINUOUS
 62
     7
 10
79.4387936519
 20
117.7827623103
 30
0.0
  0
SEQEND
  5
81F
  8
0
  6
CONTINUOUS
 62
     7
  0
LINE
  5
241
  8
0
  6
CONTINUOUS
 62
     7
 10
79.3946062374
 20
117.7288287215
 30
0.0
 11
79.3493049975
 21
117.7717084427
 31
0.0
  0
LINE
  5
242
  8
0
  6
CONTINUOUS
 62
     7
 10
83.5454418236
 20
113.9944999375
 30
0.0
 11
83.5027714172
 21
114.0312210553
 31
0.0
  0
POLYLINE
  5
243
  8
0
  6
CONTINUOUS
 62
     7
 66
     1
 10
0.0
 20
0.0
 30
0.0
 70
   128
  0
VERTEX
  5
67F
  8
0
  6
CONTINUOUS
 62
     7
 10
83.5469598794
 20
114.0851539456
 30
0.0
  0
VERTEX
  5
680
  8
0
  6
CONTINUOUS
 62
     7
 10
83.5241750726
 20
114.0584538587
 30
0.0
  0
VERTEX
  5
681
  8
0
  6
CONTINUOUS
 62
     7
 10
83.5027718829
 20
114.0312210553
 30
0.0
  0
SEQEND
  5
820
  8
0
  6
CONTINUOUS
 62
     7
  0
LINE
  5
244
  8
0
  6
CONTINUOUS
 62
     7
 10
83.5469589481
 20
114.0851544112
 30
0.0
 11
83.5922603408
 21
114.0422749229
 31
0.0
  0
LINE
  5
245
  8
0
  6
CONTINUOUS
 62
     7
 10
79.5582909311
 20
113.8323324628
 30
0.0
 11
79.595011947
 21
113.8750028692
 31
0.0
  0
POLYLINE
  5
246
  8
0
  6
CONTINUOUS
 62
     7
 66
     1
 10
0.0
 20
0.0
 30
0.0
 70
   128
  0
VERTEX
  5
682
  8
0
  6
CONTINUOUS
 62
     7
 10
79.6489450556
 20
113.8308148727
 30
0.0
  0
VERTEX
  5
683
  8
0
  6
CONTINUOUS
 62
     7
 10
79.6222450124
 20
113.8535996795
 30
0.0
  0
VERTEX
  5
684
  8
0
  6
CONTINUOUS
 62
     7
 10
79.5950120489
 20
113.8750024036
 30
0.0
  0
SEQEND
  5
821
  8
0
  6
CONTINUOUS
 62
     7
  0
LINE
  5
247
  8
0
  6
CONTINUOUS
 62
     7
 10
79.6489456086
 20
113.8308153384
 30
0.0
 11
79.6060660039
 21
113.7855139457
 31
0.0
  0
LINE
  5
248
  8
0
  6
CONTINUOUS
 62
     7
 10
83.383274349
 20
117.9816506699
 30
0.0
 11
83.346553464
 21
117.9389802635
 31
0.0
  0
POLYLINE
  5
249
  8
0
  6
CONTINUOUS
 62
     7
 66
     1
 10
0.0
 20
0.0
 30
0.0
 70
   128
  0
VERTEX
  5
685
  8
0
  6
CONTINUOUS
 62
     7
 10
83.2926203409
 20
117.9831687257
 30
0.0
  0
VERTEX
  5
686
  8
0
  6
CONTINUOUS
 62
     7
 10
83.3193204278
 20
117.9603839189
 30
0.0
  0
VERTEX
  5
687
  8
0
  6
CONTINUOUS
 62
     7
 10
83.3465532312
 20
117.9389807292
 30
0.0
  0
SEQEND
  5
822
  8
0
  6
CONTINUOUS
 62
     7
  0
LINE
  5
24A
  8
0
  6
CONTINUOUS
 62
     7
 10
83.2926198752
 20
117.9831680272
 30
0.0
 11
83.3354993635
 21
118.0284694199
 31
0.0
  0
POLYLINE
  5
24B
  8
0
  6
CONTINUOUS
 62
     7
 66
     1
 10
0.0
 20
0.0
 30
0.0
 70
   128
  0
VERTEX
  5
688
  8
0
  6
CONTINUOUS
 62
     7
 10
83.1580460915
 20
118.0347020634
 30
0.0
  0
VERTEX
  5
689
  8
0
  6
CONTINUOUS
 62
     7
 10
83.2303895993
 20
118.0195473496
 30
0.0
  0
VERTEX
  5
68A
  8
0
  6
CONTINUOUS
 62
     7
 10
83.2926180126
 20
117.9831659317
 30
0.0
  0
SEQEND
  5
823
  8
0
  6
CONTINUOUS
 62
     7
  0
LINE
  5
24C
  8
0
  6
CONTINUOUS
 62
     7
 10
83.1657537171
 20
118.0707086239
 30
0.0
 11
83.1580458587
 21
118.0347020634
 31
0.0
  0
POLYLINE
  5
24D
  8
0
  6
CONTINUOUS
 62
     7
 66
     1
 10
0.0
 20
0.0
 30
0.0
 70
   128
  0
VERTEX
  5
68B
  8
0
  6
CONTINUOUS
 62
     7
 10
83.5984932171
 20
114.2197281949
 30
0.0
  0
VERTEX
  5
68C
  8
0
  6
CONTINUOUS
 62
     7
 10
83.5833382705
 20
114.14738492
 30
0.0
  0
VERTEX
  5
68D
  8
0
  6
CONTINUOUS
 62
     7
 10
83.5469570854
 20
114.0851562739
 30
0.0
  0
SEQEND
  5
824
  8
0
  6
CONTINUOUS
 62
     7
  0
LINE
  5
24E
  8
0
  6
CONTINUOUS
 62
     7
 10
83.6344995448
 20
114.2120205693
 30
0.0
 11
83.5984932171
 21
114.2197286606
 31
0.0
  0
POLYLINE
  5
24F
  8
0
  6
CONTINUOUS
 62
     7
 66
     1
 10
0.0
 20
0.0
 30
0.0
 70
   128
  0
VERTEX
  5
68E
  8
0
  6
CONTINUOUS
 62
     7
 10
79.3430723977
 20
117.5942549378
 30
0.0
  0
VERTEX
  5
68F
  8
0
  6
CONTINUOUS
 62
     7
 10
79.3582269296
 20
117.6665986784
 30
0.0
  0
VERTEX
  5
690
  8
0
  6
CONTINUOUS
 62
     7
 10
79.3946085002
 20
117.7288270917
 30
0.0
  0
SEQEND
  5
825
  8
0
  6
CONTINUOUS
 62
     7
  0
LINE
  5
250
  8
0
  6
CONTINUOUS
 62
     7
 10
79.3070657062
 20
117.6019627962
 30
0.0
 11
79.3430723395
 21
117.594254705
 31
0.0
  0
POLYLINE
  5
251
  8
0
  6
CONTINUOUS
 62
     7
 66
     1
 10
0.0
 20
0.0
 30
0.0
 70
   128
  0
VERTEX
  5
691
  8
0
  6
CONTINUOUS
 62
     7
 10
79.7835193778
 20
113.779281535
 30
0.0
  0
VERTEX
  5
692
  8
0
  6
CONTINUOUS
 62
     7
 10
79.711175739
 20
113.794436016
 30
0.0
  0
VERTEX
  5
693
  8
0
  6
CONTINUOUS
 62
     7
 10
79.6489473257
 20
113.8308176667
 30
0.0
  0
SEQEND
  5
826
  8
0
  6
CONTINUOUS
 62
     7
  0
LINE
  5
252
  8
0
  6
CONTINUOUS
 62
     7
 10
79.7758116066
 20
113.7432747416
 30
0.0
 11
79.7835196397
 21
113.7792810694
 31
0.0
  0
LINE
  5
253
  8
0
  6
CONTINUOUS
 62
     7
 10
79.5477531399
 20
117.6201620035
 30
0.0
 11
79.5646084414
 21
117.6436129388
 31
0.0
  0
LINE
  5
254
  8
0
  6
CONTINUOUS
 62
     7
 10
79.5477527033
 20
117.6201624692
 30
0.0
 11
79.3946057063
 21
117.7288291872
 31
0.0
  0
LINE
  5
255
  8
0
  6
CONTINUOUS
 62
     7
 10
79.5646086087
 20
117.6436127059
 30
0.0
 11
79.4387936519
 21
117.7827623103
 31
0.0
  0
LINE
  5
256
  8
0
  6
CONTINUOUS
 62
     7
 10
83.3938122639
 20
114.1938211292
 30
0.0
 11
83.3769567223
 21
114.1703704268
 31
0.0
  0
LINE
  5
257
  8
0
  6
CONTINUOUS
 62
     7
 10
83.3938127296
 20
114.1938211292
 30
0.0
 11
83.5469598794
 21
114.0851539456
 31
0.0
  0
LINE
  5
258
  8
0
  6
CONTINUOUS
 62
     7
 10
83.3769567223
 20
114.1703704268
 30
0.0
 11
83.5027718829
 21
114.0312210553
 31
0.0
  0
LINE
  5
259
  8
0
  6
CONTINUOUS
 62
     7
 10
79.7576122829
 20
113.9839620225
 30
0.0
 11
79.7341614641
 21
114.0008175641
 31
0.0
  0
LINE
  5
25A
  8
0
  6
CONTINUOUS
 62
     7
 10
79.7576119628
 20
113.9839615569
 30
0.0
 11
79.6489450556
 21
113.8308148727
 31
0.0
  0
LINE
  5
25B
  8
0
  6
CONTINUOUS
 62
     7
 10
79.7341615805
 20
114.0008175641
 30
0.0
 11
79.5950120489
 21
113.8750024036
 31
0.0
  0
LINE
  5
25C
  8
0
  6
CONTINUOUS
 62
     7
 10
83.1839531572
 20
117.8300211102
 30
0.0
 11
83.2074038597
 21
117.8131658014
 31
0.0
  0
LINE
  5
25D
  8
0
  6
CONTINUOUS
 62
     7
 10
83.1839533901
 20
117.8300215759
 30
0.0
 11
83.2926203409
 21
117.9831687257
 31
0.0
  0
LINE
  5
25E
  8
0
  6
CONTINUOUS
 62
     7
 10
83.2074038597
 20
117.8131658014
 30
0.0
 11
83.3465532312
 21
117.9389807292
 31
0.0
  0
POLYLINE
  5
25F
  8
0
  6
CONTINUOUS
 62
     7
 66
     1
 10
0.0
 20
0.0
 30
0.0
 70
   128
  0
VERTEX
  5
694
  8
0
  6
CONTINUOUS
 62
     7
 10
83.0863756971
 20
117.8647142731
 30
0.0
  0
VERTEX
  5
695
  8
0
  6
CONTINUOUS
 62
     7
 10
83.1379567651
 20
117.8547537781
 30
0.0
  0
VERTEX
  5
696
  8
0
  6
CONTINUOUS
 62
     7
 10
83.1839512946
 20
117.83002274
 30
0.0
  0
SEQEND
  5
827
  8
0
  6
CONTINUOUS
 62
     7
  0
LINE
  5
260
  8
0
  6
CONTINUOUS
 62
     7
 10
83.1519226456
 20
118.0349255808
 30
0.0
 11
83.0863756971
 21
117.8647142731
 31
0.0
  0
LINE
  5
261
  8
0
  6
CONTINUOUS
 62
     7
 10
83.1580460915
 20
118.0347020634
 30
0.0
 11
83.1519226456
 21
118.0349255808
 31
0.0
  0
POLYLINE
  5
262
  8
0
  6
CONTINUOUS
 62
     7
 66
     1
 10
0.0
 20
0.0
 30
0.0
 70
   128
  0
VERTEX
  5
697
  8
0
  6
CONTINUOUS
 62
     7
 10
79.8551896266
 20
113.9492688596
 30
0.0
  0
VERTEX
  5
698
  8
0
  6
CONTINUOUS
 62
     7
 10
79.8036085296
 20
113.9592293546
 30
0.0
  0
VERTEX
  5
699
  8
0
  6
CONTINUOUS
 62
     7
 10
79.7576140874
 20
113.9839606255
 30
0.0
  0
SEQEND
  5
828
  8
0
  6
CONTINUOUS
 62
     7
  0
LINE
  5
263
  8
0
  6
CONTINUOUS
 62
     7
 10
79.7896427655
 20
113.7790580176
 30
0.0
 11
79.8551896266
 21
113.9492688596
 31
0.0
  0
LINE
  5
264
  8
0
  6
CONTINUOUS
 62
     7
 10
79.7835193487
 20
113.779281535
 30
0.0
 11
79.7896427655
 21
113.7790580176
 31
0.0
  0
POLYLINE
  5
265
  8
0
  6
CONTINUOUS
 62
     7
 66
     1
 10
0.0
 20
0.0
 30
0.0
 70
   128
  0
VERTEX
  5
69A
  8
0
  6
CONTINUOUS
 62
     7
 10
83.4285054268
 20
114.2913985893
 30
0.0
  0
VERTEX
  5
69B
  8
0
  6
CONTINUOUS
 62
     7
 10
83.4185449319
 20
114.2398172885
 30
0.0
  0
VERTEX
  5
69C
  8
0
  6
CONTINUOUS
 62
     7
 10
83.3938136609
 20
114.1938229919
 30
0.0
  0
SEQEND
  5
829
  8
0
  6
CONTINUOUS
 62
     7
  0
LINE
  5
266
  8
0
  6
CONTINUOUS
 62
     7
 10
83.5987167345
 20
114.2258516409
 30
0.0
 11
83.4285054268
 21
114.2913985893
 31
0.0
  0
LINE
  5
267
  8
0
  6
CONTINUOUS
 62
     7
 10
83.5984932171
 20
114.2197281949
 30
0.0
 11
83.5987167345
 21
114.2258516409
 31
0.0
  0
POLYLINE
  5
268
  8
0
  6
CONTINUOUS
 62
     7
 66
     1
 10
0.0
 20
0.0
 30
0.0
 70
   128
  0
VERTEX
  5
69D
  8
0
  6
CONTINUOUS
 62
     7
 10
79.5130600425
 20
117.5225847762
 30
0.0
  0
VERTEX
  5
69E
  8
0
  6
CONTINUOUS
 62
     7
 10
79.5230205992
 20
117.5741658442
 30
0.0
  0
VERTEX
  5
69F
  8
0
  6
CONTINUOUS
 62
     7
 10
79.5477517283
 20
117.6201603737
 30
0.0
  0
SEQEND
  5
82A
  8
0
  6
CONTINUOUS
 62
     7
  0
LINE
  5
269
  8
0
  6
CONTINUOUS
 62
     7
 10
79.3428488803
 20
117.5881314919
 30
0.0
 11
79.5130600425
 21
117.5225847762
 31
0.0
  0
LINE
  5
26A
  8
0
  6
CONTINUOUS
 62
     7
 10
79.3430723831
 20
117.5942549378
 30
0.0
 11
79.3428488803
 21
117.5881314919
 31
0.0
  0
LINE
  5
26B
  8
0
  6
CONTINUOUS
 62
     7
 10
79.4387939975
 20
117.7827623103
 30
0.0
 11
79.4713952638
 21
117.8134978179
 31
0.0
  0
LINE
  5
26C
  8
0
  6
CONTINUOUS
 62
     7
 10
79.4713952638
 20
117.8134978179
 30
0.0
 11
79.4419827841
 21
117.8437325068
 31
0.0
  0
LINE
  5
26D
  8
0
  6
CONTINUOUS
 62
     7
 10
83.5027714172
 20
114.0312210553
 30
0.0
 11
83.4701700048
 21
114.0004855477
 31
0.0
  0
LINE
  5
26E
  8
0
  6
CONTINUOUS
 62
     7
 10
83.4701700048
 20
114.0004855477
 30
0.0
 11
83.4995825687
 21
113.9702506259
 31
0.0
  0
LINE
  5
26F
  8
0
  6
CONTINUOUS
 62
     7
 10
79.595011947
 20
113.8750028692
 30
0.0
 11
79.5642766286
 21
113.9076042816
 31
0.0
  0
LINE
  5
270
  8
0
  6
CONTINUOUS
 62
     7
 10
79.5642766286
 20
113.9076042816
 30
0.0
 11
79.5340418888
 21
113.8781917177
 31
0.0
  0
LINE
  5
271
  8
0
  6
CONTINUOUS
 62
     7
 10
83.346553464
 20
117.9389802635
 30
0.0
 11
83.3772887388
 21
117.9063790839
 31
0.0
  0
LINE
  5
272
  8
0
  6
CONTINUOUS
 62
     7
 10
83.3772887388
 20
117.9063790839
 30
0.0
 11
83.4075236605
 21
117.9357916478
 31
0.0
  0
LINE
  5
273
  8
0
  6
CONTINUOUS
 62
     7
 10
79.4713952883
 20
117.8134978179
 30
0.0
 11
79.5581210375
 21
117.845487817
 31
0.0
  0
POLYLINE
  5
274
  8
0
  6
CONTINUOUS
 62
     7
 66
     1
 10
0.0
 20
0.0
 30
0.0
 70
   128
  0
VERTEX
  5
6A0
  8
0
  6
CONTINUOUS
 62
     7
 10
79.5581205282
 20
117.845487817
 30
0.0
  0
VERTEX
  5
6A1
  8
0
  6
CONTINUOUS
 62
     7
 10
79.5695187887
 20
117.8191525758
 30
0.0
  0
VERTEX
  5
6A2
  8
0
  6
CONTINUOUS
 62
     7
 10
79.5921938741
 20
117.7867651347
 30
0.0
  0
SEQEND
  5
82B
  8
0
  6
CONTINUOUS
 62
     7
  0
LINE
  5
275
  8
0
  6
CONTINUOUS
 62
     7
 10
79.5921939177
 20
117.7867651347
 30
0.0
 11
79.6782782679
 21
117.6867070969
 31
0.0
  0
POLYLINE
  5
276
  8
0
  6
CONTINUOUS
 62
     7
 66
     1
 10
0.0
 20
0.0
 30
0.0
 70
   128
  0
VERTEX
  5
6A3
  8
0
  6
CONTINUOUS
 62
     7
 10
79.6782782679
 20
117.6867070969
 30
0.0
  0
VERTEX
  5
6A4
  8
0
  6
CONTINUOUS
 62
     7
 10
79.6178489515
 20
117.6730171208
 30
0.0
  0
VERTEX
  5
6A5
  8
0
  6
CONTINUOUS
 62
     7
 10
79.566240053
 20
117.6403784555
 30
0.0
  0
SEQEND
  5
82C
  8
0
  6
CONTINUOUS
 62
     7
  0
LINE
  5
277
  8
0
  6
CONTINUOUS
 62
     7
 10
79.5662400676
 20
117.6403784555
 30
0.0
 11
79.564608696
 21
117.6436127059
 31
0.0
  0
LINE
  5
278
  8
0
  6
CONTINUOUS
 62
     7
 10
79.5642766213
 20
113.9076042816
 30
0.0
 11
79.532286433
 21
113.9943299711
 31
0.0
  0
POLYLINE
  5
279
  8
0
  6
CONTINUOUS
 62
     7
 66
     1
 10
0.0
 20
0.0
 30
0.0
 70
   128
  0
VERTEX
  5
6A6
  8
0
  6
CONTINUOUS
 62
     7
 10
79.5322864621
 20
113.9943295054
 30
0.0
  0
VERTEX
  5
6A7
  8
0
  6
CONTINUOUS
 62
     7
 10
79.5586217398
 20
114.0057279624
 30
0.0
  0
VERTEX
  5
6A8
  8
0
  6
CONTINUOUS
 62
     7
 10
79.5910092609
 20
114.0284028731
 30
0.0
  0
SEQEND
  5
82D
  8
0
  6
CONTINUOUS
 62
     7
  0
LINE
  5
27A
  8
0
  6
CONTINUOUS
 62
     7
 10
79.5910074855
 20
114.0284047358
 30
0.0
 11
79.6910682663
 21
114.1144868814
 31
0.0
  0
POLYLINE
  5
27B
  8
0
  6
CONTINUOUS
 62
     7
 66
     1
 10
0.0
 20
0.0
 30
0.0
 70
   128
  0
VERTEX
  5
6A9
  8
0
  6
CONTINUOUS
 62
     7
 10
79.6910672768
 20
114.114487347
 30
0.0
  0
VERTEX
  5
6AA
  8
0
  6
CONTINUOUS
 62
     7
 10
79.7047572676
 20
114.0540580161
 30
0.0
  0
VERTEX
  5
6AB
  8
0
  6
CONTINUOUS
 62
     7
 10
79.7373959474
 20
114.0024492413
 30
0.0
  0
SEQEND
  5
82E
  8
0
  6
CONTINUOUS
 62
     7
  0
LINE
  5
27C
  8
0
  6
CONTINUOUS
 62
     7
 10
79.7373959474
 20
114.0024492413
 30
0.0
 11
79.7341615805
 21
114.0008175641
 31
0.0
  0
LINE
  5
27D
  8
0
  6
CONTINUOUS
 62
     7
 10
83.4701700048
 20
114.0004855477
 30
0.0
 11
83.3834443153
 21
113.9684955485
 31
0.0
  0
POLYLINE
  5
27E
  8
0
  6
CONTINUOUS
 62
     7
 66
     1
 10
0.0
 20
0.0
 30
0.0
 70
   128
  0
VERTEX
  5
6AC
  8
0
  6
CONTINUOUS
 62
     7
 10
83.383444781
 20
113.9684955485
 30
0.0
  0
VERTEX
  5
6AD
  8
0
  6
CONTINUOUS
 62
     7
 10
83.3720465569
 20
113.994830557
 30
0.0
  0
VERTEX
  5
6AE
  8
0
  6
CONTINUOUS
 62
     7
 10
83.3493714133
 20
114.0272182308
 30
0.0
  0
SEQEND
  5
82F
  8
0
  6
CONTINUOUS
 62
     7
  0
LINE
  5
27F
  8
0
  6
CONTINUOUS
 62
     7
 10
83.3493714133
 20
114.0272182308
 30
0.0
 11
83.2632871722
 21
114.1272762686
 31
0.0
  0
POLYLINE
  5
280
  8
0
  6
CONTINUOUS
 62
     7
 66
     1
 10
0.0
 20
0.0
 30
0.0
 70
   128
  0
VERTEX
  5
6AF
  8
0
  6
CONTINUOUS
 62
     7
 10
83.2632871722
 20
114.1272762686
 30
0.0
  0
VERTEX
  5
6B0
  8
0
  6
CONTINUOUS
 62
     7
 10
83.3237165032
 20
114.1409662448
 30
0.0
  0
VERTEX
  5
6B1
  8
0
  6
CONTINUOUS
 62
     7
 10
83.375325278
 20
114.1736049101
 30
0.0
  0
SEQEND
  5
830
  8
0
  6
CONTINUOUS
 62
     7
  0
LINE
  5
281
  8
0
  6
CONTINUOUS
 62
     7
 10
83.375325278
 20
114.1736049101
 30
0.0
 11
83.3769567223
 21
114.1703704268
 31
0.0
  0
LINE
  5
282
  8
0
  6
CONTINUOUS
 62
     7
 10
83.3772887388
 20
117.9063790839
 30
0.0
 11
83.4092787379
 21
117.8196533945
 31
0.0
  0
POLYLINE
  5
283
  8
0
  6
CONTINUOUS
 62
     7
 66
     1
 10
0.0
 20
0.0
 30
0.0
 70
   128
  0
VERTEX
  5
6B2
  8
0
  6
CONTINUOUS
 62
     7
 10
83.4092787379
 20
117.8196538601
 30
0.0
  0
VERTEX
  5
6B3
  8
0
  6
CONTINUOUS
 62
     7
 10
83.3829437295
 20
117.808255636
 30
0.0
  0
VERTEX
  5
6B4
  8
0
  6
CONTINUOUS
 62
     7
 10
83.3505560556
 20
117.7855804924
 30
0.0
  0
SEQEND
  5
831
  8
0
  6
CONTINUOUS
 62
     7
  0
LINE
  5
284
  8
0
  6
CONTINUOUS
 62
     7
 10
83.3505562884
 20
117.7855804924
 30
0.0
 11
83.2504980178
 21
117.6994960185
 31
0.0
  0
POLYLINE
  5
285
  8
0
  6
CONTINUOUS
 62
     7
 66
     1
 10
0.0
 20
0.0
 30
0.0
 70
   128
  0
VERTEX
  5
6B5
  8
0
  6
CONTINUOUS
 62
     7
 10
83.2504980178
 20
117.6994960185
 30
0.0
  0
VERTEX
  5
6B6
  8
0
  6
CONTINUOUS
 62
     7
 10
83.2368080416
 20
117.7599253494
 30
0.0
  0
VERTEX
  5
6B7
  8
0
  6
CONTINUOUS
 62
     7
 10
83.2041693763
 20
117.8115343571
 30
0.0
  0
SEQEND
  5
832
  8
0
  6
CONTINUOUS
 62
     7
  0
LINE
  5
286
  8
0
  6
CONTINUOUS
 62
     7
 10
83.2041693763
 20
117.8115343571
 30
0.0
 11
83.2074038597
 21
117.8131655686
 31
0.0
  0
POLYLINE
  5
287
  8
0
  6
CONTINUOUS
 62
     7
 66
     1
 10
0.0
 20
0.0
 30
0.0
 70
   128
  0
VERTEX
  5
6B8
  8
0
  6
CONTINUOUS
 62
     7
 10
79.5850672118
 20
117.4621817552
 30
0.0
  0
VERTEX
  5
6B9
  8
0
  6
CONTINUOUS
 62
     7
 10
79.5799056038
 20
117.4634634879
 30
0.0
  0
VERTEX
  5
6BA
  8
0
  6
CONTINUOUS
 62
     7
 10
79.575810804
 20
117.4644772325
 30
0.0
  0
SEQEND
  5
833
  8
0
  6
CONTINUOUS
 62
     7
  0
POLYLINE
  5
288
  8
0
  6
CONTINUOUS
 62
     7
 66
     1
 10
0.0
 20
0.0
 30
0.0
 70
   128
  0
VERTEX
  5
6BB
  8
0
  6
CONTINUOUS
 62
     7
 10
79.5793059485
 20
117.4011309993
 30
0.0
  0
VERTEX
  5
6BC
  8
0
  6
CONTINUOUS
 62
     7
 10
79.5804341731
 20
117.4011901383
 30
0.0
  0
VERTEX
  5
6BD
  8
0
  6
CONTINUOUS
 62
     7
 10
79.5815592471
 20
117.4012490444
 30
0.0
  0
VERTEX
  5
6BE
  8
0
  6
CONTINUOUS
 62
     7
 10
79.5826811416
 20
117.4013077177
 30
0.0
  0
VERTEX
  5
6BF
  8
0
  6
CONTINUOUS
 62
     7
 10
79.5837998346
 20
117.4013663911
 30
0.0
  0
VERTEX
  5
6C0
  8
0
  6
CONTINUOUS
 62
     7
 10
79.5849153044
 20
117.4014248315
 30
0.0
  0
VERTEX
  5
6C1
  8
0
  6
CONTINUOUS
 62
     7
 10
79.5860275436
 20
117.401483272
 30
0.0
  0
VERTEX
  5
6C2
  8
0
  6
CONTINUOUS
 62
     7
 10
79.587136516
 20
117.4015412469
 30
0.0
  0
VERTEX
  5
6C3
  8
0
  6
CONTINUOUS
 62
     7
 10
79.5882422142
 20
117.4015992217
 30
0.0
  0
SEQEND
  5
834
  8
0
  6
CONTINUOUS
 62
     7
  0
LINE
  5
289
  8
0
  6
CONTINUOUS
 62
     7
 10
79.575810804
 20
117.4644772325
 30
0.0
 11
79.5793059485
 21
117.4011309993
 31
0.0
  0
LINE
  5
28A
  8
0
  6
CONTINUOUS
 62
     7
 10
79.7490732482
 20
114.1582259804
 30
0.0
 11
79.7182794747
 21
114.1409154877
 31
0.0
  0
POLYLINE
  5
28B
  8
0
  6
CONTINUOUS
 62
     7
 66
     1
 10
0.0
 20
0.0
 30
0.0
 70
   128
  0
VERTEX
  5
6C4
  8
0
  6
CONTINUOUS
 62
     7
 10
79.7182794747
 20
114.1409154877
 30
0.0
  0
VERTEX
  5
6C5
  8
0
  6
CONTINUOUS
 62
     7
 10
79.6312460268
 20
114.1227658734
 30
0.0
  0
VERTEX
  5
6C6
  8
0
  6
CONTINUOUS
 62
     7
 10
79.5256385434
 20
114.0821969964
 30
0.0
  0
SEQEND
  5
835
  8
0
  6
CONTINUOUS
 62
     7
  0
POLYLINE
  5
28C
  8
0
  6
CONTINUOUS
 62
     7
 66
     1
 10
0.0
 20
0.0
 30
0.0
 70
   128
  0
VERTEX
  5
6C7
  8
0
  6
CONTINUOUS
 62
     7
 10
79.3532141004
 20
117.3722404417
 30
0.0
  0
VERTEX
  5
6C8
  8
0
  6
CONTINUOUS
 62
     7
 10
79.4547942521
 20
117.3780411843
 30
0.0
  0
VERTEX
  5
6C9
  8
0
  6
CONTINUOUS
 62
     7
 10
79.5286310465
 20
117.3919516511
 30
0.0
  0
SEQEND
  5
836
  8
0
  6
CONTINUOUS
 62
     7
  0
LINE
  5
28D
  8
0
  6
CONTINUOUS
 62
     7
 10
79.5286310465
 20
117.3919516511
 30
0.0
 11
79.5793059485
 21
117.4011309993
 31
0.0
  0
LINE
  5
28E
  8
0
  6
CONTINUOUS
 62
     7
 10
79.7579589969
 20
114.1632104188
 30
0.0
 11
79.7490732482
 21
114.1582259804
 31
0.0
  0
POLYLINE
  5
28F
  8
0
  6
CONTINUOUS
 62
     7
 66
     1
 10
0.0
 20
0.0
 30
0.0
 70
   128
  0
VERTEX
  5
6CA
  8
0
  6
CONTINUOUS
 62
     7
 10
83.3657545415
 20
114.3495061331
 30
0.0
  0
VERTEX
  5
6CB
  8
0
  6
CONTINUOUS
 62
     7
 10
83.360548914
 20
114.3507950835
 30
0.0
  0
VERTEX
  5
6CC
  8
0
  6
CONTINUOUS
 62
     7
 10
83.3564981265
 20
114.3518018432
 30
0.0
  0
SEQEND
  5
837
  8
0
  6
CONTINUOUS
 62
     7
  0
POLYLINE
  5
290
  8
0
  6
CONTINUOUS
 62
     7
 66
     1
 10
0.0
 20
0.0
 30
0.0
 70
   128
  0
VERTEX
  5
6CD
  8
0
  6
CONTINUOUS
 62
     7
 10
83.3622595207
 20
114.4128523663
 30
0.0
  0
VERTEX
  5
6CE
  8
0
  6
CONTINUOUS
 62
     7
 10
83.3611312234
 20
114.4127932273
 30
0.0
  0
VERTEX
  5
6CF
  8
0
  6
CONTINUOUS
 62
     7
 10
83.3600061858
 20
114.4127340883
 30
0.0
  0
VERTEX
  5
6D0
  8
0
  6
CONTINUOUS
 62
     7
 10
83.3588841749
 20
114.412675415
 30
0.0
  0
VERTEX
  5
6D1
  8
0
  6
CONTINUOUS
 62
     7
 10
83.3577656565
 20
114.4126167417
 30
0.0
  0
VERTEX
  5
6D2
  8
0
  6
CONTINUOUS
 62
     7
 10
83.3566501649
 20
114.412558534
 30
0.0
  0
VERTEX
  5
6D3
  8
0
  6
CONTINUOUS
 62
     7
 10
83.3555379329
 20
114.4125003264
 30
0.0
  0
VERTEX
  5
6D4
  8
0
  6
CONTINUOUS
 62
     7
 10
83.3544289605
 20
114.4124421187
 30
0.0
  0
VERTEX
  5
6D5
  8
0
  6
CONTINUOUS
 62
     7
 10
83.3533232478
 20
114.412383911
 30
0.0
  0
SEQEND
  5
838
  8
0
  6
CONTINUOUS
 62
     7
  0
LINE
  5
291
  8
0
  6
CONTINUOUS
 62
     7
 10
83.3657545415
 20
114.3495061331
 30
0.0
 11
83.3622595207
 21
114.4128523663
 31
0.0
  0
LINE
  5
292
  8
0
  6
CONTINUOUS
 62
     7
 10
83.1924922211
 20
117.6557573851
 30
0.0
 11
83.2229997875
 21
117.6729048964
 31
0.0
  0
POLYLINE
  5
293
  8
0
  6
CONTINUOUS
 62
     7
 66
     1
 10
0.0
 20
0.0
 30
0.0
 70
   128
  0
VERTEX
  5
6D6
  8
0
  6
CONTINUOUS
 62
     7
 10
83.2229997875
 20
117.6729048964
 30
0.0
  0
VERTEX
  5
6D7
  8
0
  6
CONTINUOUS
 62
     7
 10
83.3112728694
 20
117.6916249458
 30
0.0
  0
VERTEX
  5
6D8
  8
0
  6
CONTINUOUS
 62
     7
 10
83.4159274498
 20
117.731786602
 30
0.0
  0
SEQEND
  5
839
  8
0
  6
CONTINUOUS
 62
     7
  0
POLYLINE
  5
294
  8
0
  6
CONTINUOUS
 62
     7
 66
     1
 10
0.0
 20
0.0
 30
0.0
 70
   128
  0
VERTEX
  5
6D9
  8
0
  6
CONTINUOUS
 62
     7
 10
83.5883511142
 20
114.4417429239
 30
0.0
  0
VERTEX
  5
6DA
  8
0
  6
CONTINUOUS
 62
     7
 10
83.4867712954
 20
114.4359421812
 30
0.0
  0
VERTEX
  5
6DB
  8
0
  6
CONTINUOUS
 62
     7
 10
83.412934179
 20
114.4220314816
 30
0.0
  0
SEQEND
  5
83A
  8
0
  6
CONTINUOUS
 62
     7
  0
LINE
  5
295
  8
0
  6
CONTINUOUS
 62
     7
 10
83.412934179
 20
114.4220314816
 30
0.0
 11
83.3622595207
 21
114.4128523663
 31
0.0
  0
LINE
  5
296
  8
0
  6
CONTINUOUS
 62
     7
 10
83.1924922211
 20
117.6557573851
 30
0.0
 11
83.1836064724
 21
117.6507731796
 31
0.0
  0
LINE
  5
297
  8
0
  6
CONTINUOUS
 62
     7
 10
83.219548306
 20
114.1852822982
 30
0.0
 11
83.236703035
 21
114.1547619261
 31
0.0
  0
POLYLINE
  5
298
  8
0
  6
CONTINUOUS
 62
     7
 66
     1
 10
0.0
 20
0.0
 30
0.0
 70
   128
  0
VERTEX
  5
6DC
  8
0
  6
CONTINUOUS
 62
     7
 10
83.236703035
 20
114.1547619261
 30
0.0
  0
VERTEX
  5
6DD
  8
0
  6
CONTINUOUS
 62
     7
 10
83.2554815249
 20
114.0663850017
 30
0.0
  0
VERTEX
  5
6DE
  8
0
  6
CONTINUOUS
 62
     7
 10
83.2955779886
 20
113.961846371
 30
0.0
  0
SEQEND
  5
83B
  8
0
  6
CONTINUOUS
 62
     7
  0
POLYLINE
  5
299
  8
0
  6
CONTINUOUS
 62
     7
 66
     1
 10
0.0
 20
0.0
 30
0.0
 70
   128
  0
VERTEX
  5
6DF
  8
0
  6
CONTINUOUS
 62
     7
 10
80.005533903
 20
113.7894231722
 30
0.0
  0
VERTEX
  5
6E0
  8
0
  6
CONTINUOUS
 62
     7
 10
79.9997331021
 20
113.8910029911
 30
0.0
  0
VERTEX
  5
6E1
  8
0
  6
CONTINUOUS
 62
     7
 10
79.9858227517
 20
113.9648401074
 30
0.0
  0
SEQEND
  5
83C
  8
0
  6
CONTINUOUS
 62
     7
  0
LINE
  5
29A
  8
0
  6
CONTINUOUS
 62
     7
 10
79.9858227517
 20
113.9648401074
 30
0.0
 11
79.9766434618
 21
114.0155147657
 31
0.0
  0
POLYLINE
  5
29B
  8
0
  6
CONTINUOUS
 62
     7
 66
     1
 10
0.0
 20
0.0
 30
0.0
 70
   128
  0
VERTEX
  5
6E2
  8
0
  6
CONTINUOUS
 62
     7
 10
79.9766434618
 20
114.0155147657
 30
0.0
  0
VERTEX
  5
6E3
  8
0
  6
CONTINUOUS
 62
     7
 10
79.9765843228
 20
114.016643063
 30
0.0
  0
VERTEX
  5
6E4
  8
0
  6
CONTINUOUS
 62
     7
 10
79.9765253585
 20
114.0177681007
 30
0.0
  0
VERTEX
  5
6E5
  8
0
  6
CONTINUOUS
 62
     7
 10
79.9764665687
 20
114.0188898787
 30
0.0
  0
VERTEX
  5
6E6
  8
0
  6
CONTINUOUS
 62
     7
 10
79.9764079536
 20
114.0200088628
 30
0.0
  0
VERTEX
  5
6E7
  8
0
  6
CONTINUOUS
 62
     7
 10
79.9763494549
 20
114.0211241216
 30
0.0
  0
VERTEX
  5
6E8
  8
0
  6
CONTINUOUS
 62
     7
 10
79.976291189
 20
114.0222365864
 30
0.0
  0
VERTEX
  5
6E9
  8
0
  6
CONTINUOUS
 62
     7
 10
79.9762330396
 20
114.0233453259
 30
0.0
  0
VERTEX
  5
6EA
  8
0
  6
CONTINUOUS
 62
     7
 10
79.976175123
 20
114.0244512715
 30
0.0
  0
SEQEND
  5
83D
  8
0
  6
CONTINUOUS
 62
     7
  0
LINE
  5
29C
  8
0
  6
CONTINUOUS
 62
     7
 10
83.219548306
 20
114.1852822982
 30
0.0
 11
83.2145641004
 21
114.1941680469
 31
0.0
  0
POLYLINE
  5
29D
  8
0
  6
CONTINUOUS
 62
     7
 66
     1
 10
0.0
 20
0.0
 30
0.0
 70
   128
  0
VERTEX
  5
6EB
  8
0
  6
CONTINUOUS
 62
     7
 10
82.9360313626
 20
118.0245601934
 30
0.0
  0
VERTEX
  5
6EC
  8
0
  6
CONTINUOUS
 62
     7
 10
82.9418323381
 20
117.9229801417
 30
0.0
  0
VERTEX
  5
6ED
  8
0
  6
CONTINUOUS
 62
     7
 10
82.955742572
 20
117.8491432581
 30
0.0
  0
SEQEND
  5
83E
  8
0
  6
CONTINUOUS
 62
     7
  0
LINE
  5
29E
  8
0
  6
CONTINUOUS
 62
     7
 10
82.955742572
 20
117.8491432581
 30
0.0
 11
82.9649219202
 21
117.798468367
 31
0.0
  0
POLYLINE
  5
29F
  8
0
  6
CONTINUOUS
 62
     7
 66
     1
 10
0.0
 20
0.0
 30
0.0
 70
   128
  0
VERTEX
  5
6EE
  8
0
  6
CONTINUOUS
 62
     7
 10
82.9649219202
 20
117.798468367
 30
0.0
  0
VERTEX
  5
6EF
  8
0
  6
CONTINUOUS
 62
     7
 10
82.9649810591
 20
117.7973400697
 30
0.0
  0
VERTEX
  5
6F0
  8
0
  6
CONTINUOUS
 62
     7
 10
82.9650399653
 20
117.7962150321
 30
0.0
  0
VERTEX
  5
6F1
  8
0
  6
CONTINUOUS
 62
     7
 10
82.9650988714
 20
117.795093254
 30
0.0
  0
VERTEX
  5
6F2
  8
0
  6
CONTINUOUS
 62
     7
 10
82.9651575448
 20
117.7939745028
 30
0.0
  0
VERTEX
  5
6F3
  8
0
  6
CONTINUOUS
 62
     7
 10
82.9652159853
 20
117.7928590112
 30
0.0
  0
VERTEX
  5
6F4
  8
0
  6
CONTINUOUS
 62
     7
 10
82.9652741929
 20
117.7917467792
 30
0.0
  0
VERTEX
  5
6F5
  8
0
  6
CONTINUOUS
 62
     7
 10
82.9653324006
 20
117.7906378068
 30
0.0
  0
VERTEX
  5
6F6
  8
0
  6
CONTINUOUS
 62
     7
 10
82.9653903754
 20
117.7895320941
 30
0.0
  0
SEQEND
  5
83F
  8
0
  6
CONTINUOUS
 62
     7
  0
LINE
  5
2A0
  8
0
  6
CONTINUOUS
 62
     7
 10
79.7220170177
 20
117.6287010674
 30
0.0
 11
79.7270012233
 21
117.6198153187
 31
0.0
  0
LINE
  5
2A1
  8
0
  6
CONTINUOUS
 62
     7
 10
79.7220170177
 20
117.6287010674
 30
0.0
 11
79.7049203945
 21
117.6591196925
 31
0.0
  0
POLYLINE
  5
2A2
  8
0
  6
CONTINUOUS
 62
     7
 66
     1
 10
0.0
 20
0.0
 30
0.0
 70
   128
  0
VERTEX
  5
6F7
  8
0
  6
CONTINUOUS
 62
     7
 10
79.7049203945
 20
117.6591196925
 30
0.0
  0
VERTEX
  5
6F8
  8
0
  6
CONTINUOUS
 62
     7
 10
79.6861401438
 20
117.7474817157
 30
0.0
  0
VERTEX
  5
6F9
  8
0
  6
CONTINUOUS
 62
     7
 10
79.6459873061
 20
117.8521369945
 30
0.0
  0
SEQEND
  5
840
  8
0
  6
CONTINUOUS
 62
     7
  0
POLYLINE
  5
2A3
  8
0
  6
CONTINUOUS
 62
     7
 66
     1
 10
0.0
 20
0.0
 30
0.0
 70
   128
  0
VERTEX
  5
6FA
  8
0
  6
CONTINUOUS
 62
     7
 10
79.9132971122
 20
114.0120199777
 30
0.0
  0
VERTEX
  5
6FB
  8
0
  6
CONTINUOUS
 62
     7
 10
79.9145863245
 20
114.0172251396
 30
0.0
  0
VERTEX
  5
6FC
  8
0
  6
CONTINUOUS
 62
     7
 10
79.9155926768
 20
114.0212763928
 30
0.0
  0
SEQEND
  5
841
  8
0
  6
CONTINUOUS
 62
     7
  0
LINE
  5
2A4
  8
0
  6
CONTINUOUS
 62
     7
 10
79.9132971122
 20
114.0120199777
 30
0.0
 11
79.9766434618
 21
114.0155147657
 31
0.0
  0
POLYLINE
  5
2A5
  8
0
  6
CONTINUOUS
 62
     7
 66
     1
 10
0.0
 20
0.0
 30
0.0
 70
   128
  0
VERTEX
  5
6FD
  8
0
  6
CONTINUOUS
 62
     7
 10
83.0282683862
 20
117.8019636207
 30
0.0
  0
VERTEX
  5
6FE
  8
0
  6
CONTINUOUS
 62
     7
 10
83.0269789701
 20
117.7967579931
 30
0.0
  0
VERTEX
  5
6FF
  8
0
  6
CONTINUOUS
 62
     7
 10
83.0259726761
 20
117.7927072056
 30
0.0
  0
SEQEND
  5
842
  8
0
  6
CONTINUOUS
 62
     7
  0
LINE
  5
2A6
  8
0
  6
CONTINUOUS
 62
     7
 10
83.0282683862
 20
117.8019636207
 30
0.0
 11
82.9649219202
 21
117.798468367
 31
0.0
  0
POLYLINE
  5
2A7
  8
0
  6
CONTINUOUS
 62
     7
 66
     1
 10
0.0
 20
0.0
 30
0.0
 70
   128
  0
VERTEX
  5
700
  8
0
  6
CONTINUOUS
 62
     7
 10
83.0609969241
 20
117.8017065756
 30
0.0
  0
VERTEX
  5
701
  8
0
  6
CONTINUOUS
 62
     7
 10
83.1052780529
 20
117.78973163
 30
0.0
  0
VERTEX
  5
702
  8
0
  6
CONTINUOUS
 62
     7
 10
83.1435491243
 20
117.7647868533
 30
0.0
  0
SEQEND
  5
843
  8
0
  6
CONTINUOUS
 62
     7
  0
POLYLINE
  5
2A8
  8
0
  6
CONTINUOUS
 62
     7
 66
     1
 10
0.0
 20
0.0
 30
0.0
 70
   128
  0
VERTEX
  5
703
  8
0
  6
CONTINUOUS
 62
     7
 10
83.1360715354
 20
117.7564822499
 30
0.0
  0
VERTEX
  5
704
  8
0
  6
CONTINUOUS
 62
     7
 10
83.1402450246
 20
117.7611174423
 30
0.0
  0
VERTEX
  5
705
  8
0
  6
CONTINUOUS
 62
     7
 10
83.1435488915
 20
117.7647866205
 30
0.0
  0
SEQEND
  5
844
  8
0
  6
CONTINUOUS
 62
     7
  0
LINE
  5
2A9
  8
0
  6
CONTINUOUS
 62
     7
 10
83.0609969241
 20
117.8017065756
 30
0.0
 11
83.0572648817
 21
117.7922499262
 31
0.0
  0
POLYLINE
  5
2AA
  8
0
  6
CONTINUOUS
 62
     7
 66
     1
 10
0.0
 20
0.0
 30
0.0
 70
   128
  0
VERTEX
  5
706
  8
0
  6
CONTINUOUS
 62
     7
 10
83.3654974965
 20
114.3167775952
 30
0.0
  0
VERTEX
  5
707
  8
0
  6
CONTINUOUS
 62
     7
 10
83.3535227837
 20
114.2724960007
 30
0.0
  0
VERTEX
  5
708
  8
0
  6
CONTINUOUS
 62
     7
 10
83.3285777742
 20
114.2342251621
 30
0.0
  0
SEQEND
  5
845
  8
0
  6
CONTINUOUS
 62
     7
  0
POLYLINE
  5
2AB
  8
0
  6
CONTINUOUS
 62
     7
 66
     1
 10
0.0
 20
0.0
 30
0.0
 70
   128
  0
VERTEX
  5
709
  8
0
  6
CONTINUOUS
 62
     7
 10
83.3202731708
 20
114.2417027511
 30
0.0
  0
VERTEX
  5
70A
  8
0
  6
CONTINUOUS
 62
     7
 10
83.3249085961
 20
114.2375294946
 30
0.0
  0
VERTEX
  5
70B
  8
0
  6
CONTINUOUS
 62
     7
 10
83.3285777742
 20
114.2342256278
 30
0.0
  0
SEQEND
  5
846
  8
0
  6
CONTINUOUS
 62
     7
  0
LINE
  5
2AC
  8
0
  6
CONTINUOUS
 62
     7
 10
83.3654974965
 20
114.3167775952
 30
0.0
 11
83.3560408471
 21
114.3205094047
 31
0.0
  0
POLYLINE
  5
2AD
  8
0
  6
CONTINUOUS
 62
     7
 66
     1
 10
0.0
 20
0.0
 30
0.0
 70
   128
  0
VERTEX
  5
70C
  8
0
  6
CONTINUOUS
 62
     7
 10
79.57606782
 20
117.4972060032
 30
0.0
  0
VERTEX
  5
70D
  8
0
  6
CONTINUOUS
 62
     7
 10
79.5880426347
 20
117.541487132
 30
0.0
  0
VERTEX
  5
70E
  8
0
  6
CONTINUOUS
 62
     7
 10
79.6129875932
 20
117.5797579706
 30
0.0
  0
SEQEND
  5
847
  8
0
  6
CONTINUOUS
 62
     7
  0
LINE
  5
2AE
  8
0
  6
CONTINUOUS
 62
     7
 10
79.621292153
 20
117.5722803816
 30
0.0
 11
79.6129876223
 21
117.5797579706
 31
0.0
  0
LINE
  5
2AF
  8
0
  6
CONTINUOUS
 62
     7
 10
79.57606782
 20
117.4972060032
 30
0.0
 11
79.585524433
 21
117.493473728
 31
0.0
  0
POLYLINE
  5
2B0
  8
0
  6
CONTINUOUS
 62
     7
 66
     1
 10
0.0
 20
0.0
 30
0.0
 70
   128
  0
VERTEX
  5
70F
  8
0
  6
CONTINUOUS
 62
     7
 10
79.8805684287
 20
114.0122765571
 30
0.0
  0
VERTEX
  5
710
  8
0
  6
CONTINUOUS
 62
     7
 10
79.8362872126
 20
114.0242515028
 30
0.0
  0
VERTEX
  5
711
  8
0
  6
CONTINUOUS
 62
     7
 10
79.7980162867
 20
114.0491965123
 30
0.0
  0
SEQEND
  5
848
  8
0
  6
CONTINUOUS
 62
     7
  0
POLYLINE
  5
2B1
  8
0
  6
CONTINUOUS
 62
     7
 66
     1
 10
0.0
 20
0.0
 30
0.0
 70
   128
  0
VERTEX
  5
712
  8
0
  6
CONTINUOUS
 62
     7
 10
79.8054939339
 20
114.0575011157
 30
0.0
  0
VERTEX
  5
713
  8
0
  6
CONTINUOUS
 62
     7
 10
79.8013202991
 20
114.0528659232
 30
0.0
  0
VERTEX
  5
714
  8
0
  6
CONTINUOUS
 62
     7
 10
79.7980164905
 20
114.0491965123
 30
0.0
  0
SEQEND
  5
849
  8
0
  6
CONTINUOUS
 62
     7
  0
LINE
  5
2B2
  8
0
  6
CONTINUOUS
 62
     7
 10
79.8805684287
 20
114.0122765571
 30
0.0
 11
79.8843005293
 21
114.0217332065
 31
0.0
  0
ARC
  5
2B3
  8
0
  6
CONTINUOUS
 62
     7
 10
83.218292616
 20
114.3339928774
 30
0.0
 40
0.1487158805514648
 50
270.483785554
 51
317.8664319104
  0
ARC
  5
2B4
  8
0
  6
CONTINUOUS
 62
     7
 10
83.0437817567
 20
117.654501085
 30
0.0
 40
0.148715770840033
 50
0.4840209545
 51
47.8666952713
  0
ARC
  5
2B5
  8
0
  6
CONTINUOUS
 62
     7
 10
79.7232731236
 20
117.4799903971
 30
0.0
 40
0.1487159751043083
 50
90.4839454614
 51
137.866538526
  0
ARC
  5
2B6
  8
0
  6
CONTINUOUS
 62
     7
 10
79.8977843995
 20
114.1594821936
 30
0.0
 40
0.1487164570765802
 50
180.4839852358
 51
227.8664868131
  0
LINE
  5
2B7
  8
0
  6
CONTINUOUS
 62
     7
 10
79.9132971122
 20
114.0120199777
 30
0.0
 11
79.8805684287
 21
114.0122765571
 31
0.0
  0
LINE
  5
2B8
  8
0
  6
CONTINUOUS
 62
     7
 10
83.0282683862
 20
117.8019636207
 30
0.0
 11
83.0609969241
 21
117.8017065756
 31
0.0
  0
LINE
  5
2B9
  8
0
  6
CONTINUOUS
 62
     7
 10
83.3657545415
 20
114.3495061331
 30
0.0
 11
83.3654974965
 21
114.3167775952
 31
0.0
  0
LINE
  5
2BA
  8
0
  6
CONTINUOUS
 62
     7
 10
79.575810804
 20
117.4644772325
 30
0.0
 11
79.57606782
 21
117.4972060032
 31
0.0
  0
LINE
  5
2BB
  8
0
  6
CONTINUOUS
 62
     7
 10
79.520485179
 20
113.9882121131
 30
0.0
 11
79.5102385862
 21
113.9798167058
 31
0.0
  0
LINE
  5
2BC
  8
0
  6
CONTINUOUS
 62
     7
 10
79.5642766141
 20
113.9076042816
 30
0.0
 11
79.5204921021
 21
113.9882144414
 31
0.0
  0
LINE
  5
2BD
  8
0
  6
CONTINUOUS
 62
     7
 10
83.4210799919
 20
117.8257710196
 30
0.0
 11
83.4313268685
 21
117.834166427
 31
0.0
  0
LINE
  5
2BE
  8
0
  6
CONTINUOUS
 62
     7
 10
83.3772887388
 20
117.9063790839
 30
0.0
 11
83.4210734727
 21
117.8257689242
 31
0.0
  0
LINE
  5
2BF
  8
0
  6
CONTINUOUS
 62
     7
 10
83.3895621733
 20
113.9566942945
 30
0.0
 11
83.3979575807
 21
113.9464474179
 31
0.0
  0
LINE
  5
2C0
  8
0
  6
CONTINUOUS
 62
     7
 10
83.4701700048
 20
114.0004855477
 30
0.0
 11
83.389559845
 21
113.9567012795
 31
0.0
  0
LINE
  5
2C1
  8
0
  6
CONTINUOUS
 62
     7
 10
79.5520033105
 20
117.857289071
 30
0.0
 11
79.5436078813
 21
117.8675357148
 31
0.0
  0
LINE
  5
2C2
  8
0
  6
CONTINUOUS
 62
     7
 10
79.4713953323
 20
117.8134978179
 30
0.0
 11
79.5520054351
 21
117.8572823189
 31
0.0
  0
ARC
  5
2C3
  8
0
  6
CONTINUOUS
 62
     7
 10
79.9321048584
 20
113.8936303051
 30
0.0
 40
0.3269193570285479
 50
130.8513693778
 51
137.5016496997
  0
POLYLINE
  5
2C4
  8
0
  6
CONTINUOUS
 62
     7
 66
     1
 10
0.0
 20
0.0
 30
0.0
 70
   128
  0
VERTEX
  5
715
  8
0
  6
CONTINUOUS
 62
     7
 10
79.7980164032
 20
114.0491965123
 30
0.0
  0
VERTEX
  5
716
  8
0
  6
CONTINUOUS
 62
     7
 10
79.7695237823
 20
114.0252875991
 30
0.0
  0
VERTEX
  5
717
  8
0
  6
CONTINUOUS
 62
     7
 10
79.7373959474
 20
114.0024492413
 30
0.0
  0
SEQEND
  5
84A
  8
0
  6
CONTINUOUS
 62
     7
  0
LINE
  5
2C5
  8
0
  6
CONTINUOUS
 62
     7
 10
79.5142819995
 20
117.4801185623
 30
0.0
 11
79.575810804
 21
117.4644772325
 31
0.0
  0
LINE
  5
2C6
  8
0
  6
CONTINUOUS
 62
     7
 10
79.519616859
 20
117.4064055447
 30
0.0
 11
79.5793059485
 21
117.4011309993
 31
0.0
  0
LINE
  5
2C7
  8
0
  6
CONTINUOUS
 62
     7
 10
79.519616859
 20
117.4064055447
 30
0.0
 11
79.5142819995
 21
117.4801185623
 31
0.0
  0
LINE
  5
2C8
  8
0
  6
CONTINUOUS
 62
     7
 10
83.4272835316
 20
114.3338645704
 30
0.0
 11
83.3657545415
 21
114.3495061331
 31
0.0
  0
LINE
  5
2C9
  8
0
  6
CONTINUOUS
 62
     7
 10
83.4219484502
 20
114.4075778209
 30
0.0
 11
83.3622595207
 21
114.4128523663
 31
0.0
  0
LINE
  5
2CA
  8
0
  6
CONTINUOUS
 62
     7
 10
83.4219484502
 20
114.4075778209
 30
0.0
 11
83.4272835316
 21
114.3338645704
 31
0.0
  0
LINE
  5
2CB
  8
0
  6
CONTINUOUS
 62
     7
 10
79.8976557532
 20
113.9504907549
 30
0.0
 11
79.9132971122
 21
114.0120199777
 31
0.0
  0
LINE
  5
2CC
  8
0
  6
CONTINUOUS
 62
     7
 10
79.9713689164
 20
113.9558258362
 30
0.0
 11
79.9766434618
 21
114.0155147657
 31
0.0
  0
LINE
  5
2CD
  8
0
  6
CONTINUOUS
 62
     7
 10
79.9713689164
 20
113.9558258362
 30
0.0
 11
79.8976557532
 21
113.9504907549
 31
0.0
  0
LINE
  5
2CE
  8
0
  6
CONTINUOUS
 62
     7
 10
83.043909716
 20
117.8634923779
 30
0.0
 11
83.0282683862
 21
117.8019636207
 31
0.0
  0
LINE
  5
2CF
  8
0
  6
CONTINUOUS
 62
     7
 10
82.9701964656
 20
117.8581575293
 30
0.0
 11
82.9649219202
 21
117.798468367
 31
0.0
  0
LINE
  5
2D0
  8
0
  6
CONTINUOUS
 62
     7
 10
82.9701964656
 20
117.8581575293
 30
0.0
 11
83.043909716
 21
117.8634923779
 31
0.0
  0
POLYLINE
  5
2D1
  8
0
  6
CONTINUOUS
 62
     7
 66
     1
 10
0.0
 20
0.0
 30
0.0
 70
   128
  0
VERTEX
  5
718
  8
0
  6
CONTINUOUS
 62
     7
 10
83.2504980178
 20
117.6994960185
 30
0.0
  0
VERTEX
  5
719
  8
0
  6
CONTINUOUS
 62
     7
 10
83.2361032633
 20
117.6830681868
 30
0.0
  0
VERTEX
  5
71A
  8
0
  6
CONTINUOUS
 62
     7
 10
83.2230167841
 20
117.6729055949
 30
0.0
  0
SEQEND
  5
84B
  8
0
  6
CONTINUOUS
 62
     7
  0
POLYLINE
  5
2D2
  8
0
  6
CONTINUOUS
 62
     7
 66
     1
 10
0.0
 20
0.0
 30
0.0
 70
   128
  0
VERTEX
  5
71B
  8
0
  6
CONTINUOUS
 62
     7
 10
83.1435488915
 20
117.7647866205
 30
0.0
  0
VERTEX
  5
71C
  8
0
  6
CONTINUOUS
 62
     7
 10
83.1720415415
 20
117.7886957664
 30
0.0
  0
VERTEX
  5
71D
  8
0
  6
CONTINUOUS
 62
     7
 10
83.2041693763
 20
117.8115343571
 30
0.0
  0
SEQEND
  5
84C
  8
0
  6
CONTINUOUS
 62
     7
  0
POLYLINE
  5
2D3
  8
0
  6
CONTINUOUS
 62
     7
 66
     1
 10
0.0
 20
0.0
 30
0.0
 70
   128
  0
VERTEX
  5
71E
  8
0
  6
CONTINUOUS
 62
     7
 10
83.2632871722
 20
114.1272762686
 30
0.0
  0
VERTEX
  5
71F
  8
0
  6
CONTINUOUS
 62
     7
 10
83.2469212735
 20
114.1415553063
 30
0.0
  0
VERTEX
  5
720
  8
0
  6
CONTINUOUS
 62
     7
 10
83.2367037335
 20
114.1547446966
 30
0.0
  0
SEQEND
  5
84D
  8
0
  6
CONTINUOUS
 62
     7
  0
POLYLINE
  5
2D4
  8
0
  6
CONTINUOUS
 62
     7
 66
     1
 10
0.0
 20
0.0
 30
0.0
 70
   128
  0
VERTEX
  5
721
  8
0
  6
CONTINUOUS
 62
     7
 10
83.3285775413
 20
114.2342251621
 30
0.0
  0
VERTEX
  5
722
  8
0
  6
CONTINUOUS
 62
     7
 10
83.3524869201
 20
114.205732745
 30
0.0
  0
VERTEX
  5
723
  8
0
  6
CONTINUOUS
 62
     7
 10
83.375325278
 20
114.1736049101
 30
0.0
  0
SEQEND
  5
84E
  8
0
  6
CONTINUOUS
 62
     7
  0
POLYLINE
  5
2D5
  8
0
  6
CONTINUOUS
 62
     7
 66
     1
 10
0.0
 20
0.0
 30
0.0
 70
   128
  0
VERTEX
  5
724
  8
0
  6
CONTINUOUS
 62
     7
 10
79.6782782679
 20
117.6867070969
 30
0.0
  0
VERTEX
  5
725
  8
0
  6
CONTINUOUS
 62
     7
 10
79.6946511662
 20
117.672420143
 30
0.0
  0
VERTEX
  5
726
  8
0
  6
CONTINUOUS
 62
     7
 10
79.7049196233
 20
117.6591371548
 30
0.0
  0
SEQEND
  5
84F
  8
0
  6
CONTINUOUS
 62
     7
  0
POLYLINE
  5
2D6
  8
0
  6
CONTINUOUS
 62
     7
 66
     1
 10
0.0
 20
0.0
 30
0.0
 70
   128
  0
VERTEX
  5
727
  8
0
  6
CONTINUOUS
 62
     7
 10
79.6129877387
 20
117.5797579706
 30
0.0
  0
VERTEX
  5
728
  8
0
  6
CONTINUOUS
 62
     7
 10
79.5890785637
 20
117.6082506206
 30
0.0
  0
VERTEX
  5
729
  8
0
  6
CONTINUOUS
 62
     7
 10
79.566240053
 20
117.6403784555
 30
0.0
  0
SEQEND
  5
850
  8
0
  6
CONTINUOUS
 62
     7
  0
LINE
  5
2D7
  8
0
  6
CONTINUOUS
 62
     7
 10
79.5196168517
 20
117.4064055447
 30
0.0
 11
79.5286310392
 21
117.3919516511
 31
0.0
  0
LINE
  5
2D8
  8
0
  6
CONTINUOUS
 62
     7
 10
82.9701964656
 20
117.8581575293
 30
0.0
 11
82.955742572
 21
117.8491432581
 31
0.0
  0
LINE
  5
2D9
  8
0
  6
CONTINUOUS
 62
     7
 10
83.4219484502
 20
114.4075778209
 30
0.0
 11
83.412934179
 21
114.4220314816
 31
0.0
  0
LINE
  5
2DA
  8
0
  6
CONTINUOUS
 62
     7
 10
79.9713689164
 20
113.9558258362
 30
0.0
 11
79.9858227517
 21
113.9648401074
 31
0.0
  0
POLYLINE
  5
2DB
  8
0
  6
CONTINUOUS
 62
     7
 66
     1
 10
0.0
 20
0.0
 30
0.0
 70
   128
  0
VERTEX
  5
72A
  8
0
  6
CONTINUOUS
 62
     7
 10
79.8551896266
 20
113.9492688596
 30
0.0
  0
VERTEX
  5
72B
  8
0
  6
CONTINUOUS
 62
     7
 10
79.8681974963
 20
113.9815387212
 30
0.0
  0
VERTEX
  5
72C
  8
0
  6
CONTINUOUS
 62
     7
 10
79.8805684287
 20
114.0122765571
 30
0.0
  0
SEQEND
  5
851
  8
0
  6
CONTINUOUS
 62
     7
  0
LINE
  5
2DC
  8
0
  6
CONTINUOUS
 62
     7
 10
79.7576140874
 20
113.9839606255
 30
0.0
 11
79.7581973281
 21
113.9851718106
 31
0.0
  0
ARC
  5
2DD
  8
0
  6
CONTINUOUS
 62
     7
 10
80.1535465947
 20
113.7836858031
 30
0.0
 40
0.443731510908616
 50
143.2475456166
 51
152.9947658794
  0
POLYLINE
  5
2DE
  8
0
  6
CONTINUOUS
 62
     7
 66
     1
 10
0.0
 20
0.0
 30
0.0
 70
   128
  0
VERTEX
  5
72D
  8
0
  6
CONTINUOUS
 62
     7
 10
83.4285054268
 20
114.2913985893
 30
0.0
  0
VERTEX
  5
72E
  8
0
  6
CONTINUOUS
 62
     7
 10
83.3962355653
 20
114.3044063717
 30
0.0
  0
VERTEX
  5
72F
  8
0
  6
CONTINUOUS
 62
     7
 10
83.3654974965
 20
114.3167775952
 30
0.0
  0
SEQEND
  5
852
  8
0
  6
CONTINUOUS
 62
     7
  0
LINE
  5
2DF
  8
0
  6
CONTINUOUS
 62
     7
 10
83.3938136609
 20
114.1938229919
 30
0.0
 11
83.3926024759
 21
114.1944064655
 31
0.0
  0
ARC
  5
2E0
  8
0
  6
CONTINUOUS
 62
     7
 10
83.5941029407
 20
114.5897839089
 30
0.0
 40
0.4437631802024522
 50
233.248231992
 51
242.9947546867
  0
POLYLINE
  5
2E1
  8
0
  6
CONTINUOUS
 62
     7
 66
     1
 10
0.0
 20
0.0
 30
0.0
 70
   128
  0
VERTEX
  5
730
  8
0
  6
CONTINUOUS
 62
     7
 10
79.5130600425
 20
117.5225847762
 30
0.0
  0
VERTEX
  5
731
  8
0
  6
CONTINUOUS
 62
     7
 10
79.545329984
 20
117.509576761
 30
0.0
  0
VERTEX
  5
732
  8
0
  6
CONTINUOUS
 62
     7
 10
79.57606782
 20
117.4972060032
 30
0.0
  0
SEQEND
  5
853
  8
0
  6
CONTINUOUS
 62
     7
  0
LINE
  5
2E2
  8
0
  6
CONTINUOUS
 62
     7
 10
79.5477517283
 20
117.6201601409
 30
0.0
 11
79.5489629279
 21
117.6195771329
 31
0.0
  0
ARC
  5
2E3
  8
0
  6
CONTINUOUS
 62
     7
 10
79.3474607934
 20
117.2242019877
 30
0.0
 40
0.443761890746169
 50
53.2478585367
 51
62.9944278778
  0
POLYLINE
  5
2E4
  8
0
  6
CONTINUOUS
 62
     7
 66
     1
 10
0.0
 20
0.0
 30
0.0
 70
   128
  0
VERTEX
  5
733
  8
0
  6
CONTINUOUS
 62
     7
 10
83.0863756971
 20
117.8647142731
 30
0.0
  0
VERTEX
  5
734
  8
0
  6
CONTINUOUS
 62
     7
 10
83.0733679147
 20
117.8324444115
 30
0.0
  0
VERTEX
  5
735
  8
0
  6
CONTINUOUS
 62
     7
 10
83.0609969241
 20
117.8017065756
 30
0.0
  0
SEQEND
  5
854
  8
0
  6
CONTINUOUS
 62
     7
  0
LINE
  5
2E5
  8
0
  6
CONTINUOUS
 62
     7
 10
83.1839512946
 20
117.8300225072
 30
0.0
 11
83.1833680538
 21
117.8288113222
 31
0.0
  0
ARC
  5
2E6
  8
0
  6
CONTINUOUS
 62
     7
 10
82.7880220747
 20
118.0302957699
 30
0.0
 40
0.4437278736966608
 50
323.2474462414
 51
332.9947525706
  0
LINE
  5
2E7
  8
0
  6
CONTINUOUS
 62
     7
 10
83.1833680538
 20
117.8288113222
 30
0.0
 11
83.2041703077
 21
117.8115352884
 31
0.0
  0
LINE
  5
2E8
  8
0
  6
CONTINUOUS
 62
     7
 10
83.3926024759
 20
114.1944064655
 30
0.0
 11
83.3753264421
 21
114.1736039788
 31
0.0
  0
LINE
  5
2E9
  8
0
  6
CONTINUOUS
 62
     7
 10
79.5489629279
 20
117.6195771329
 30
0.0
 11
79.5662390417
 21
117.6403793868
 31
0.0
  0
LINE
  5
2EA
  8
0
  6
CONTINUOUS
 62
     7
 10
79.7581973281
 20
113.9851718106
 30
0.0
 11
79.7373950743
 21
114.0024478443
 31
0.0
  0
LINE
  5
2EB
  8
0
  6
CONTINUOUS
 62
     7
 10
79.8976557532
 20
113.9504907549
 30
0.0
 11
79.8551896266
 21
113.9492688596
 31
0.0
  0
LINE
  5
2EC
  8
0
  6
CONTINUOUS
 62
     7
 10
83.043909716
 20
117.8634923779
 30
0.0
 11
83.0863756971
 21
117.8647142731
 31
0.0
  0
LINE
  5
2ED
  8
0
  6
CONTINUOUS
 62
     7
 10
83.4272835316
 20
114.3338645704
 30
0.0
 11
83.4285054268
 21
114.2913985893
 31
0.0
  0
LINE
  5
2EE
  8
0
  6
CONTINUOUS
 62
     7
 10
79.5142819995
 20
117.4801185623
 30
0.0
 11
79.5130600425
 21
117.5225847762
 31
0.0
  0
LINE
  5
2EF
  8
0
  6
CONTINUOUS
 62
     7
 10
79.5204851863
 20
113.9882121131
 30
0.0
 11
79.532286433
 21
113.9943299711
 31
0.0
  0
LINE
  5
2F0
  8
0
  6
CONTINUOUS
 62
     7
 10
83.4210799919
 20
117.8257712525
 30
0.0
 11
83.4092787379
 21
117.8196533945
 31
0.0
  0
LINE
  5
2F1
  8
0
  6
CONTINUOUS
 62
     7
 10
83.3895621733
 20
113.9566942945
 30
0.0
 11
83.3834443153
 21
113.9684955485
 31
0.0
  0
LINE
  5
2F2
  8
0
  6
CONTINUOUS
 62
     7
 10
79.5520031577
 20
117.857289071
 30
0.0
 11
79.5581210375
 21
117.845487817
 31
0.0
  0
POLYLINE
  5
2F3
  8
0
  6
CONTINUOUS
 62
     7
 66
     1
 10
0.0
 20
0.0
 30
0.0
 70
   128
  0
VERTEX
  5
736
  8
0
  6
CONTINUOUS
 62
     7
 10
83.350554193
 20
117.7855781641
 30
0.0
  0
VERTEX
  5
737
  8
0
  6
CONTINUOUS
 62
     7
 10
83.3832785399
 20
117.7593698155
 30
0.0
  0
VERTEX
  5
738
  8
0
  6
CONTINUOUS
 62
     7
 10
83.4159274498
 20
117.731786602
 30
0.0
  0
SEQEND
  5
855
  8
0
  6
CONTINUOUS
 62
     7
  0
POLYLINE
  5
2F4
  8
0
  6
CONTINUOUS
 62
     7
 66
     1
 10
0.0
 20
0.0
 30
0.0
 70
   128
  0
VERTEX
  5
739
  8
0
  6
CONTINUOUS
 62
     7
 10
79.5921953147
 20
117.7867639706
 30
0.0
  0
VERTEX
  5
73A
  8
0
  6
CONTINUOUS
 62
     7
 10
79.6184038161
 20
117.8194883175
 30
0.0
  0
VERTEX
  5
73B
  8
0
  6
CONTINUOUS
 62
     7
 10
79.6459873061
 20
117.8521369945
 30
0.0
  0
SEQEND
  5
856
  8
0
  6
CONTINUOUS
 62
     7
  0
POLYLINE
  5
2F5
  8
0
  6
CONTINUOUS
 62
     7
 66
     1
 10
0.0
 20
0.0
 30
0.0
 70
   128
  0
VERTEX
  5
73C
  8
0
  6
CONTINUOUS
 62
     7
 10
79.5256384961
 20
114.0821969964
 30
0.0
  0
VERTEX
  5
73D
  8
0
  6
CONTINUOUS
 62
     7
 10
79.5582873732
 20
114.0546140157
 30
0.0
  0
VERTEX
  5
73E
  8
0
  6
CONTINUOUS
 62
     7
 10
79.5910117856
 20
114.0284056671
 30
0.0
  0
SEQEND
  5
857
  8
0
  6
CONTINUOUS
 62
     7
  0
POLYLINE
  5
2F6
  8
0
  6
CONTINUOUS
 62
     7
 66
     1
 10
0.0
 20
0.0
 30
0.0
 70
   128
  0
VERTEX
  5
73F
  8
0
  6
CONTINUOUS
 62
     7
 10
83.3493700163
 20
114.0272196278
 30
0.0
  0
VERTEX
  5
740
  8
0
  6
CONTINUOUS
 62
     7
 10
83.3231616677
 20
113.9944952809
 30
0.0
  0
VERTEX
  5
741
  8
0
  6
CONTINUOUS
 62
     7
 10
83.2955779886
 20
113.961846371
 30
0.0
  0
SEQEND
  5
858
  8
0
  6
CONTINUOUS
 62
     7
  0
LINE
  5
2F7
  8
0
  6
CONTINUOUS
 62
     7
 10
79.7830374183
 20
113.7437571667
 30
0.0
 11
79.7896427655
 21
113.7790580176
 31
0.0
  0
LINE
  5
2F8
  8
0
  6
CONTINUOUS
 62
     7
 10
83.6340171197
 20
114.2192462355
 30
0.0
 11
83.5987167345
 21
114.2258516409
 31
0.0
  0
LINE
  5
2F9
  8
0
  6
CONTINUOUS
 62
     7
 10
79.3075484078
 20
117.5947368972
 30
0.0
 11
79.3428488803
 21
117.5881314919
 31
0.0
  0
LINE
  5
2FA
  8
0
  6
CONTINUOUS
 62
     7
 10
83.1585280509
 20
118.070225966
 30
0.0
 11
83.1519226456
 21
118.0349255808
 31
0.0
  0
LINE
  5
2FB
  8
0
  6
CONTINUOUS
 62
     7
 10
79.8062884685
 20
113.7785658136
 30
0.0
 11
79.7896427655
 21
113.7790580176
 31
0.0
  0
LINE
  5
2FC
  8
0
  6
CONTINUOUS
 62
     7
 10
79.8062883521
 20
113.7785648823
 30
0.0
 11
79.8006431694
 21
113.7453115441
 31
0.0
  0
LINE
  5
2FD
  8
0
  6
CONTINUOUS
 62
     7
 10
83.5992084728
 20
114.2424976349
 30
0.0
 11
83.5987167345
 21
114.2258516409
 31
0.0
  0
LINE
  5
2FE
  8
0
  6
CONTINUOUS
 62
     7
 10
83.5992094041
 20
114.2424971692
 30
0.0
 11
83.632463208
 21
114.2368519575
 31
0.0
  0
LINE
  5
2FF
  8
0
  6
CONTINUOUS
 62
     7
 10
79.3423567782
 20
117.5714859635
 30
0.0
 11
79.3428488803
 21
117.5881314919
 31
0.0
  0
LINE
  5
300
  8
0
  6
CONTINUOUS
 62
     7
 10
79.3423560651
 20
117.5714859635
 30
0.0
 11
79.3091023631
 21
117.5771311753
 31
0.0
  0
LINE
  5
301
  8
0
  6
CONTINUOUS
 62
     7
 10
83.1352768844
 20
118.0354175519
 30
0.0
 11
83.1519226456
 21
118.0349255808
 31
0.0
  0
LINE
  5
302
  8
0
  6
CONTINUOUS
 62
     7
 10
83.1352771172
 20
118.0354182504
 30
0.0
 11
83.1409220962
 21
118.0686720543
 31
0.0
  0
LINE
  5
303
  8
0
  6
CONTINUOUS
 62
     7
 10
79.8532458109
 20
113.7769294799
 30
0.0
 11
79.8062883812
 21
113.7785620883
 31
0.0
  0
LINE
  5
304
  8
0
  6
CONTINUOUS
 62
     7
 10
79.8503067897
 20
113.7513367355
 30
0.0
 11
79.8532458109
 21
113.7769294799
 31
0.0
  0
LINE
  5
305
  8
0
  6
CONTINUOUS
 62
     7
 10
83.6008448066
 20
114.2894549191
 30
0.0
 11
83.5992121981
 21
114.2424971692
 31
0.0
  0
LINE
  5
306
  8
0
  6
CONTINUOUS
 62
     7
 10
83.6264375509
 20
114.2865156651
 30
0.0
 11
83.6008448066
 21
114.2894549191
 31
0.0
  0
LINE
  5
307
  8
0
  6
CONTINUOUS
 62
     7
 10
79.3407206627
 20
117.5245284464
 30
0.0
 11
79.3423531838
 21
117.5714859635
 31
0.0
  0
LINE
  5
308
  8
0
  6
CONTINUOUS
 62
     7
 10
79.3151276127
 20
117.5274674677
 30
0.0
 11
79.3407206627
 21
117.5245284464
 31
0.0
  0
LINE
  5
309
  8
0
  6
CONTINUOUS
 62
     7
 10
83.0883196002
 20
118.0370536529
 30
0.0
 11
83.1352771172
 21
118.0354212772
 31
0.0
  0
LINE
  5
30A
  8
0
  6
CONTINUOUS
 62
     7
 10
83.0912586214
 20
118.0626466301
 30
0.0
 11
83.0883196002
 21
118.0370536529
 31
0.0
  0
LINE
  5
30B
  8
0
  6
CONTINUOUS
 62
     7
 10
79.8573407198
 20
113.7809276477
 30
0.0
 11
79.8976557532
 21
113.9504907549
 31
0.0
  0
LINE
  5
30C
  8
0
  6
CONTINUOUS
 62
     7
 10
79.8062884685
 20
113.7785658136
 30
0.0
 11
79.8573407198
 21
113.7809276477
 31
0.0
  0
LINE
  5
30D
  8
0
  6
CONTINUOUS
 62
     7
 10
83.5968466388
 20
114.2935494788
 30
0.0
 11
83.4272835316
 21
114.3338645704
 31
0.0
  0
LINE
  5
30E
  8
0
  6
CONTINUOUS
 62
     7
 10
83.5992084728
 20
114.2424976349
 30
0.0
 11
83.5968466388
 21
114.2935494788
 31
0.0
  0
LINE
  5
30F
  8
0
  6
CONTINUOUS
 62
     7
 10
79.3447185977
 20
117.5204336539
 30
0.0
 11
79.5142819995
 21
117.4801185623
 31
0.0
  0
LINE
  5
310
  8
0
  6
CONTINUOUS
 62
     7
 10
79.3423567782
 20
117.5714859635
 30
0.0
 11
79.3447185977
 21
117.5204336539
 31
0.0
  0
LINE
  5
311
  8
0
  6
CONTINUOUS
 62
     7
 10
83.0842245748
 20
118.0330557179
 30
0.0
 11
83.043909716
 21
117.8634923779
 31
0.0
  0
LINE
  5
312
  8
0
  6
CONTINUOUS
 62
     7
 10
83.1352768844
 20
118.0354175519
 30
0.0
 11
83.0842245748
 21
118.0330557179
 31
0.0
  0
LINE
  5
313
  8
0
  6
CONTINUOUS
 62
     7
 10
79.8563768592
 20
113.7768773258
 30
0.0
 11
79.8573388281
 21
113.7809281133
 31
0.0
  0
LINE
  5
314
  8
0
  6
CONTINUOUS
 62
     7
 10
79.8532458109
 20
113.7769294799
 30
0.0
 11
79.8563768592
 21
113.7768773258
 31
0.0
  0
LINE
  5
315
  8
0
  6
CONTINUOUS
 62
     7
 10
83.6008969607
 20
114.2925860256
 30
0.0
 11
83.5968461731
 21
114.2935476162
 31
0.0
  0
LINE
  5
316
  8
0
  6
CONTINUOUS
 62
     7
 10
83.6008448066
 20
114.2894549191
 30
0.0
 11
83.6008969607
 21
114.2925860256
 31
0.0
  0
LINE
  5
317
  8
0
  6
CONTINUOUS
 62
     7
 10
79.3406682467
 20
117.5213975728
 30
0.0
 11
79.3447190924
 21
117.5204355166
 31
0.0
  0
LINE
  5
318
  8
0
  6
CONTINUOUS
 62
     7
 10
79.3406682467
 20
117.5213975728
 30
0.0
 11
79.3407206627
 21
117.5245284464
 31
0.0
  0
LINE
  5
319
  8
0
  6
CONTINUOUS
 62
     7
 10
83.0851884937
 20
118.0371060398
 30
0.0
 11
83.0842266703
 21
118.0330552522
 31
0.0
  0
LINE
  5
31A
  8
0
  6
CONTINUOUS
 62
     7
 10
83.0883196002
 20
118.0370536529
 30
0.0
 11
83.0851884937
 21
118.0371060398
 31
0.0
  0
LINE
  5
31B
  8
0
  6
CONTINUOUS
 62
     7
 10
79.8532911838
 20
113.7517912209
 30
0.0
 11
79.8563768592
 21
113.7768773258
 31
0.0
  0
LINE
  5
31C
  8
0
  6
CONTINUOUS
 62
     7
 10
83.6259830655
 20
114.2895000883
 30
0.0
 11
83.6008969607
 21
114.2925860256
 31
0.0
  0
LINE
  5
31D
  8
0
  6
CONTINUOUS
 62
     7
 10
79.315582331
 20
117.5244830445
 30
0.0
 11
79.3406682467
 21
117.5213975728
 31
0.0
  0
LINE
  5
31E
  8
0
  6
CONTINUOUS
 62
     7
 10
83.0882741982
 20
118.0621919118
 30
0.0
 11
83.0851884937
 21
118.0371060398
 31
0.0
  0
LINE
  5
31F
  8
0
  6
CONTINUOUS
 62
     7
 10
79.973023702
 20
113.772613731
 30
0.0
 11
79.8563768592
 21
113.7768773258
 31
0.0
  0
LINE
  5
320
  8
0
  6
CONTINUOUS
 62
     7
 10
79.9732203275
 20
113.7693880953
 30
0.0
 11
79.973023702
 21
113.772613731
 31
0.0
  0
LINE
  5
321
  8
0
  6
CONTINUOUS
 62
     7
 10
83.6051605554
 20
114.4092327811
 30
0.0
 11
83.6008969607
 21
114.2925860256
 31
0.0
  0
LINE
  5
322
  8
0
  6
CONTINUOUS
 62
     7
 10
83.6083866568
 20
114.4094292902
 30
0.0
 11
83.6051605554
 21
114.4092327811
 31
0.0
  0
LINE
  5
323
  8
0
  6
CONTINUOUS
 62
     7
 10
79.3364049284
 20
117.4047505845
 30
0.0
 11
79.3406682467
 21
117.5213975728
 31
0.0
  0
LINE
  5
324
  8
0
  6
CONTINUOUS
 62
     7
 10
79.3331788998
 20
117.4045540754
 30
0.0
 11
79.3364049284
 21
117.4047505845
 31
0.0
  0
LINE
  5
325
  8
0
  6
CONTINUOUS
 62
     7
 10
82.9685417382
 20
118.0413694017
 30
0.0
 11
83.0851884937
 21
118.0371060398
 31
0.0
  0
LINE
  5
326
  8
0
  6
CONTINUOUS
 62
     7
 10
82.9683449963
 20
118.0445955031
 30
0.0
 11
82.9685417382
 21
118.0413694017
 31
0.0
  0
LINE
  5
327
  8
0
  6
CONTINUOUS
 62
     7
 10
79.3513552533
 20
117.4059384864
 30
0.0
 11
79.3447185977
 21
117.5204336539
 31
0.0
  0
LINE
  5
328
  8
0
  6
CONTINUOUS
 62
     7
 10
79.3364049284
 20
117.4047505845
 30
0.0
 11
79.3513552533
 21
117.4059384864
 31
0.0
  0
LINE
  5
329
  8
0
  6
CONTINUOUS
 62
     7
 10
79.8573407198
 20
113.7809276477
 30
0.0
 11
79.9718359165
 21
113.7875642523
 31
0.0
  0
LINE
  5
32A
  8
0
  6
CONTINUOUS
 62
     7
 10
79.973023702
 20
113.772613731
 30
0.0
 11
79.9718359165
 21
113.7875642523
 31
0.0
  0
LINE
  5
32B
  8
0
  6
CONTINUOUS
 62
     7
 10
83.5968466388
 20
114.2935494788
 30
0.0
 11
83.5902100341
 21
114.4080448792
 31
0.0
  0
LINE
  5
32C
  8
0
  6
CONTINUOUS
 62
     7
 10
83.6051605554
 20
114.4092327811
 30
0.0
 11
83.5902100341
 21
114.4080448792
 31
0.0
  0
LINE
  5
32D
  8
0
  6
CONTINUOUS
 62
     7
 10
83.0842245748
 20
118.0330557179
 30
0.0
 11
82.9697294073
 21
118.0264191132
 31
0.0
  0
LINE
  5
32E
  8
0
  6
CONTINUOUS
 62
     7
 10
82.9685417382
 20
118.0413694017
 30
0.0
 11
82.9697294073
 21
118.0264191132
 31
0.0
  0
POLYLINE
  5
32F
  8
0
  6
CONTINUOUS
 62
     7
 66
     1
 10
0.0
 20
0.0
 30
0.0
 70
   128
  0
VERTEX
  5
742
  8
0
  6
CONTINUOUS
 62
     7
 10
79.3552980801
 20
117.4063382566
 30
0.0
  0
VERTEX
  5
743
  8
0
  6
CONTINUOUS
 62
     7
 10
79.4555596801
 20
117.4102460861
 30
0.0
  0
VERTEX
  5
744
  8
0
  6
CONTINUOUS
 62
     7
 10
79.519616859
 20
117.4064055447
 30
0.0
  0
SEQEND
  5
859
  8
0
  6
CONTINUOUS
 62
     7
  0
LINE
  5
330
  8
0
  6
CONTINUOUS
 62
     7
 10
79.3513552533
 20
117.4059384864
 30
0.0
 11
79.3552980801
 21
117.4063382566
 31
0.0
  0
POLYLINE
  5
331
  8
0
  6
CONTINUOUS
 62
     7
 66
     1
 10
0.0
 20
0.0
 30
0.0
 70
   128
  0
VERTEX
  5
745
  8
0
  6
CONTINUOUS
 62
     7
 10
79.9714360298
 20
113.7915070065
 30
0.0
  0
VERTEX
  5
746
  8
0
  6
CONTINUOUS
 62
     7
 10
79.9675283167
 20
113.8917685382
 30
0.0
  0
VERTEX
  5
747
  8
0
  6
CONTINUOUS
 62
     7
 10
79.9713689164
 20
113.9558258362
 30
0.0
  0
SEQEND
  5
85A
  8
0
  6
CONTINUOUS
 62
     7
  0
LINE
  5
332
  8
0
  6
CONTINUOUS
 62
     7
 10
79.9718359165
 20
113.7875642523
 30
0.0
 11
79.9714360298
 21
113.7915070065
 31
0.0
  0
POLYLINE
  5
333
  8
0
  6
CONTINUOUS
 62
     7
 66
     1
 10
0.0
 20
0.0
 30
0.0
 70
   128
  0
VERTEX
  5
748
  8
0
  6
CONTINUOUS
 62
     7
 10
83.58626728
 20
114.4076448761
 30
0.0
  0
VERTEX
  5
749
  8
0
  6
CONTINUOUS
 62
     7
 10
83.4860057482
 20
114.4037370466
 30
0.0
  0
VERTEX
  5
74A
  8
0
  6
CONTINUOUS
 62
     7
 10
83.4219484502
 20
114.4075778209
 30
0.0
  0
SEQEND
  5
85B
  8
0
  6
CONTINUOUS
 62
     7
  0
LINE
  5
334
  8
0
  6
CONTINUOUS
 62
     7
 10
83.5902100341
 20
114.4080448792
 30
0.0
 11
83.58626728
 21
114.4076448761
 31
0.0
  0
POLYLINE
  5
335
  8
0
  6
CONTINUOUS
 62
     7
 66
     1
 10
0.0
 20
0.0
 30
0.0
 70
   128
  0
VERTEX
  5
74B
  8
0
  6
CONTINUOUS
 62
     7
 10
82.9701294103
 20
118.0224763591
 30
0.0
  0
VERTEX
  5
74C
  8
0
  6
CONTINUOUS
 62
     7
 10
82.974037007
 20
117.9222145945
 30
0.0
  0
VERTEX
  5
74D
  8
0
  6
CONTINUOUS
 62
     7
 10
82.9701964656
 20
117.8581575293
 30
0.0
  0
SEQEND
  5
85C
  8
0
  6
CONTINUOUS
 62
     7
  0
LINE
  5
336
  8
0
  6
CONTINUOUS
 62
     7
 10
82.9697294073
 20
118.0264191132
 30
0.0
 11
82.9701294103
 21
118.0224763591
 31
0.0
  0
LINE
  5
337
  8
0
  6
CONTINUOUS
 62
     7
 10
80.005533903
 20
113.7894231722
 30
0.0
 11
79.9714360298
 21
113.7915070065
 31
0.0
  0
LINE
  5
338
  8
0
  6
CONTINUOUS
 62
     7
 10
83.5883511142
 20
114.4417429239
 30
0.0
 11
83.58626728
 21
114.4076448761
 31
0.0
  0
LINE
  5
339
  8
0
  6
CONTINUOUS
 62
     7
 10
79.3553025185
 20
117.4063380238
 30
0.0
 11
79.3532143768
 21
117.3722404417
 31
0.0
  0
LINE
  5
33A
  8
0
  6
CONTINUOUS
 62
     7
 10
82.9360313626
 20
118.0245601934
 30
0.0
 11
82.9701294103
 21
118.0224763591
 31
0.0
  0
LINE
  5
33B
  8
0
  6
CONTINUOUS
 62
     7
 10
79.5322864621
 20
113.9943295054
 30
0.0
 11
79.4941524862
 21
114.0538163379
 31
0.0
  0
LINE
  5
33C
  8
0
  6
CONTINUOUS
 62
     7
 10
83.4092787379
 20
117.8196538601
 30
0.0
 11
83.447412672
 21
117.7601667948
 31
0.0
  0
LINE
  5
33D
  8
0
  6
CONTINUOUS
 62
     7
 10
83.383444781
 20
113.9684955485
 30
0.0
 11
83.3239579485
 21
113.9303616144
 31
0.0
  0
LINE
  5
33E
  8
0
  6
CONTINUOUS
 62
     7
 10
79.5581205282
 20
117.845487817
 30
0.0
 11
79.6176075353
 21
117.8836217512
 31
0.0
  0
LINE
  5
33F
  8
0
  6
CONTINUOUS
 62
     7
 10
79.4830090879
 20
114.0469166346
 30
0.0
 11
79.5204851863
 21
113.9882121131
 31
0.0
  0
LINE
  5
340
  8
0
  6
CONTINUOUS
 62
     7
 10
83.3308555564
 20
113.9192215994
 30
0.0
 11
83.389559845
 21
113.9566984855
 31
0.0
  0
LINE
  5
341
  8
0
  6
CONTINUOUS
 62
     7
 10
79.6107097383
 20
117.8947617661
 30
0.0
 11
79.5520057188
 21
117.8572851129
 31
0.0
  0
LINE
  5
342
  8
0
  6
CONTINUOUS
 62
     7
 10
83.458552687
 20
117.7670646355
 30
0.0
 11
83.4210762666
 21
117.8257686913
 31
0.0
  0
ARC
  5
343
  8
0
  6
CONTINUOUS
 62
     7
 10
80.4622431282
 20
117.4015741577
 30
0.0
 40
1.125842695270244
 50
179.8383467865
 51
181.5106302702
  0
ARC
  5
344
  8
0
  6
CONTINUOUS
 62
     7
 10
79.976169343
 20
114.9006137521
 30
0.0
 40
1.128004407127858
 50
269.8402203137
 51
271.5093077661
  0
ARC
  5
345
  8
0
  6
CONTINUOUS
 62
     7
 10
82.4790874506
 20
114.4124011688
 30
0.0
 40
1.126077562125805
 50
359.8387895384
 51
1.5107361509
  0
ARC
  5
346
  8
0
  6
CONTINUOUS
 62
     7
 10
82.9653607282
 20
116.9156909672
 30
0.0
 40
1.125682929008119
 50
89.8380905614
 51
91.5106232139
  0
ARC
  5
347
  8
0
  6
CONTINUOUS
 62
     7
 10
80.4766287004
 20
117.3999685389
 30
0.0
 40
1.125289283281048
 50
179.6960298081
 51
181.4109404361
  0
ARC
  5
348
  8
0
  6
CONTINUOUS
 62
     7
 10
79.9778080009
 20
114.9120885177
 30
0.0
 40
1.124540123415629
 50
269.6957184209
 51
271.4117716696
  0
ARC
  5
349
  8
0
  6
CONTINUOUS
 62
     7
 10
82.4645461835
 20
114.4140215095
 30
0.0
 40
1.125679716721007
 50
359.6957950854
 51
1.4101107115
  0
ARC
  5
34A
  8
0
  6
CONTINUOUS
 62
     7
 10
82.963764164
 20
116.9003817789
 30
0.0
 40
1.12605313484441
 50
89.6964753708
 51
91.410222573
  0
CIRCLE
  5
34B
  8
0
  6
CONTINUOUS
 62
     7
 10
81.4707826942
 20
115.9069916581
 30
0.0
 40
1.411033253000378
  0
CIRCLE
  5
34C
  8
0
  6
CONTINUOUS
 62
     7
 10
81.4707826942
 20
115.9069916581
 30
0.0
 40
1.341257361918351
  0
POLYLINE
  5
34D
  8
0
  6
CONTINUOUS
 62
     7
 66
     1
 10
0.0
 20
0.0
 30
0.0
 70
   128
  0
VERTEX
  5
74E
  8
0
  6
CONTINUOUS
 62
     7
 10
79.1895498085
 20
124.4540082187
 30
0.0
  0
VERTEX
  5
74F
  8
0
  6
CONTINUOUS
 62
     7
 10
79.1772014315
 20
124.5363459818
 30
0.0
  0
VERTEX
  5
750
  8
0
  6
CONTINUOUS
 62
     7
 10
79.1342259588
 20
124.5882034198
 30
0.0
  0
SEQEND
  5
85D
  8
0
  6
CONTINUOUS
 62
     7
  0
ARC
  5
34E
  8
0
  6
CONTINUOUS
 62
     7
 10
79.333778164
 20
124.6098634989
 30
0.0
 40
0.2007242926391683
 50
73.5901146936
 51
186.1948274478
  0
LINE
  5
34F
  8
0
  6
CONTINUOUS
 62
     7
 10
79.1643139935
 20
121.771774873
 30
0.0
 11
79.0899637766
 21
120.9251819889
 31
0.0
  0
ARC
  5
350
  8
0
  6
CONTINUOUS
 62
     7
 10
79.3167250836
 20
121.7583934733
 30
0.0
 40
0.1529974218959796
 50
143.5299459165
 51
174.9824083437
  0
ARC
  5
351
  8
0
  6
CONTINUOUS
 62
     7
 10
79.278223445
 20
124.3288739253
 30
0.0
 40
0.153367549387213
 50
125.322445935
 51
168.0003132814
  0
LINE
  5
352
  8
0
  6
CONTINUOUS
 62
     7
 10
79.0032912016
 20
122.9383973766
 30
0.0
 11
79.1282071702
 21
124.3607600115
 31
0.0
  0
LINE
  5
353
  8
0
  6
CONTINUOUS
 62
     7
 10
79.0032912016
 20
122.9383973766
 30
0.0
 11
79.0044055291
 21
122.9121704016
 31
0.0
  0
POLYLINE
  5
354
  8
0
  6
CONTINUOUS
 62
     7
 66
     1
 10
0.0
 20
0.0
 30
0.0
 70
   128
  0
VERTEX
  5
751
  8
0
  6
CONTINUOUS
 62
     7
 10
79.0044055291
 20
122.9121704016
 30
0.0
  0
VERTEX
  5
752
  8
0
  6
CONTINUOUS
 62
     7
 10
79.1065303172
 20
122.8960652732
 30
0.0
  0
VERTEX
  5
753
  8
0
  6
CONTINUOUS
 62
     7
 10
79.2813046253
 20
122.8469664127
 30
0.0
  0
SEQEND
  5
85E
  8
0
  6
CONTINUOUS
 62
     7
  0
ARC
  5
355
  8
0
  6
CONTINUOUS
 62
     7
 10
79.098342327
 20
122.8792321043
 30
0.0
 40
0.099544228488582
 50
160.6771306622
 51
174.6145490425
  0
LINE
  5
356
  8
0
  6
CONTINUOUS
 62
     7
 10
78.9992375037
 20
122.8885748785
 30
0.0
 11
78.9255922107
 21
122.0500086563
 31
0.0
  0
LINE
  5
357
  8
0
  6
CONTINUOUS
 62
     7
 10
78.9262785954
 20
122.0225737559
 30
0.0
 11
78.9206826273
 21
121.997770191
 31
0.0
  0
POLYLINE
  5
358
  8
0
  6
CONTINUOUS
 62
     7
 66
     1
 10
0.0
 20
0.0
 30
0.0
 70
   128
  0
VERTEX
  5
754
  8
0
  6
CONTINUOUS
 62
     7
 10
79.1936895082
 20
121.8493355334
 30
0.0
  0
VERTEX
  5
755
  8
0
  6
CONTINUOUS
 62
     7
 10
79.0235061111
 20
121.9513577305
 30
0.0
  0
VERTEX
  5
756
  8
0
  6
CONTINUOUS
 62
     7
 10
78.9262785954
 20
122.0225737559
 30
0.0
  0
SEQEND
  5
85F
  8
0
  6
CONTINUOUS
 62
     7
  0
POLYLINE
  5
359
  8
0
  6
CONTINUOUS
 62
     7
 66
     1
 10
0.0
 20
0.0
 30
0.0
 70
   128
  0
VERTEX
  5
757
  8
0
  6
CONTINUOUS
 62
     7
 10
78.9206826273
 20
121.997770191
 30
0.0
  0
VERTEX
  5
758
  8
0
  6
CONTINUOUS
 62
     7
 10
79.0095202071
 20
121.8983373035
 30
0.0
  0
VERTEX
  5
759
  8
0
  6
CONTINUOUS
 62
     7
 10
79.1643139935
 20
121.771774873
 30
0.0
  0
SEQEND
  5
860
  8
0
  6
CONTINUOUS
 62
     7
  0
ARC
  5
35A
  8
0
  6
CONTINUOUS
 62
     7
 10
79.0669758463
 20
122.0398198505
 30
0.0
 40
0.1417502881741221
 50
175.8781076738
 51
186.9882228561
  0
LINE
  5
35B
  8
0
  6
CONTINUOUS
 62
     7
 10
78.7957666587
 20
120.5754072942
 30
0.0
 11
78.9206826273
 21
121.997770191
 31
0.0
  0
ARC
  5
35C
  8
0
  6
CONTINUOUS
 62
     7
 10
78.9569366764
 20
120.5779209026
 30
0.0
 40
0.1611896176983207
 50
180.8935128446
 51
223.2074699125
  0
ARC
  5
35D
  8
0
  6
CONTINUOUS
 62
     7
 10
79.0005889451
 20
120.3697939727
 30
0.0
 40
0.2359279065818209
 50
175.0864150726
 51
265.1288386698
  0
POLYLINE
  5
35E
  8
0
  6
CONTINUOUS
 62
     7
 66
     1
 10
0.0
 20
0.0
 30
0.0
 70
   128
  0
VERTEX
  5
75A
  8
0
  6
CONTINUOUS
 62
     7
 10
78.8394488888
 20
120.467563698
 30
0.0
  0
VERTEX
  5
75B
  8
0
  6
CONTINUOUS
 62
     7
 10
78.814966281
 20
120.4117338054
 30
0.0
  0
VERTEX
  5
75C
  8
0
  6
CONTINUOUS
 62
     7
 10
78.7655280699
 20
120.3900019425
 30
0.0
  0
SEQEND
  5
861
  8
0
  6
CONTINUOUS
 62
     7
  0
ARC
  5
35F
  8
0
  6
CONTINUOUS
 62
     7
 10
79.2440762626
 20
124.3457944543
 30
0.0
 40
0.1211748860035047
 50
116.7424955029
 51
171.4621151149
  0
ARC
  5
360
  8
0
  6
CONTINUOUS
 62
     7
 10
79.1343510896
 20
124.3746291142
 30
0.0
 40
0.0151690392896679
 50
234.1791175797
 51
246.1069791168
  0
ARC
  5
361
  8
0
  6
CONTINUOUS
 62
     7
 10
79.1273481614
 20
124.365159497
 30
0.0
 40
0.0033948417945477
 50
203.8930549916
 51
236.4784926686
  0
POLYLINE
  5
362
  8
0
  6
CONTINUOUS
 62
     7
 66
     1
 10
0.0
 20
0.0
 30
0.0
 70
   128
  0
VERTEX
  5
75D
  8
0
  6
CONTINUOUS
 62
     7
 10
79.0850768651
 20
124.4909006998
 30
0.0
  0
VERTEX
  5
75E
  8
0
  6
CONTINUOUS
 62
     7
 10
79.1162493667
 20
124.4435387559
 30
0.0
  0
VERTEX
  5
75F
  8
0
  6
CONTINUOUS
 62
     7
 10
79.1242442472
 20
124.3637844816
 30
0.0
  0
SEQEND
  5
862
  8
0
  6
CONTINUOUS
 62
     7
  0
POLYLINE
  5
363
  8
0
  6
CONTINUOUS
 62
     7
 66
     1
 10
0.0
 20
0.0
 30
0.0
 70
   128
  0
VERTEX
  5
760
  8
0
  6
CONTINUOUS
 62
     7
 10
79.1342259588
 20
124.5882034198
 30
0.0
  0
VERTEX
  5
761
  8
0
  6
CONTINUOUS
 62
     7
 10
79.1020087461
 20
124.5431455679
 30
0.0
  0
VERTEX
  5
762
  8
0
  6
CONTINUOUS
 62
     7
 10
79.0850778837
 20
124.4909006998
 30
0.0
  0
SEQEND
  5
863
  8
0
  6
CONTINUOUS
 62
     7
  0
ARC
  5
364
  8
0
  6
CONTINUOUS
 62
     7
 10
79.0055421073
 20
122.9454552264
 30
0.0
 40
0.0074080915330965
 50
212.9874949862
 51
252.311357774
  0
LINE
  5
365
  8
0
  6
CONTINUOUS
 62
     7
 10
79.1242442472
 20
124.3637844816
 30
0.0
 11
78.9993282785
 21
122.9414218467
 31
0.0
  0
POLYLINE
  5
366
  8
0
  6
CONTINUOUS
 62
     7
 66
     1
 10
0.0
 20
0.0
 30
0.0
 70
   128
  0
VERTEX
  5
763
  8
0
  6
CONTINUOUS
 62
     7
 10
78.9993282785
 20
122.9414218467
 30
0.0
  0
VERTEX
  5
764
  8
0
  6
CONTINUOUS
 62
     7
 10
78.9965547417
 20
122.9161147855
 30
0.0
  0
VERTEX
  5
765
  8
0
  6
CONTINUOUS
 62
     7
 10
78.9941702649
 20
122.8917343904
 30
0.0
  0
SEQEND
  5
864
  8
0
  6
CONTINUOUS
 62
     7
  0
LINE
  5
367
  8
0
  6
CONTINUOUS
 62
     7
 10
78.9941702649
 20
122.8917343904
 30
0.0
 11
78.920525001
 21
122.0531679353
 31
0.0
  0
POLYLINE
  5
368
  8
0
  6
CONTINUOUS
 62
     7
 66
     1
 10
0.0
 20
0.0
 30
0.0
 70
   128
  0
VERTEX
  5
766
  8
0
  6
CONTINUOUS
 62
     7
 10
78.920525001
 20
122.0531679353
 30
0.0
  0
VERTEX
  5
767
  8
0
  6
CONTINUOUS
 62
     7
 10
78.9185674191
 20
122.0281103522
 30
0.0
  0
VERTEX
  5
768
  8
0
  6
CONTINUOUS
 62
     7
 10
78.9167197333
 20
122.0007946611
 30
0.0
  0
SEQEND
  5
865
  8
0
  6
CONTINUOUS
 62
     7
  0
LINE
  5
369
  8
0
  6
CONTINUOUS
 62
     7
 10
78.9167197333
 20
122.0007946611
 30
0.0
 11
78.7918037647
 21
120.5784317642
 31
0.0
  0
POLYLINE
  5
36A
  8
0
  6
CONTINUOUS
 62
     7
 66
     1
 10
0.0
 20
0.0
 30
0.0
 70
   128
  0
VERTEX
  5
769
  8
0
  6
CONTINUOUS
 62
     7
 10
78.7918037647
 20
120.5784317642
 30
0.0
  0
VERTEX
  5
76A
  8
0
  6
CONTINUOUS
 62
     7
 10
78.7715813174
 20
120.5188498059
 30
0.0
  0
VERTEX
  5
76B
  8
0
  6
CONTINUOUS
 62
     7
 10
78.73404017
 20
120.4937848886
 30
0.0
  0
SEQEND
  5
866
  8
0
  6
CONTINUOUS
 62
     7
  0
LINE
  5
36B
  8
0
  6
CONTINUOUS
 62
     7
 10
78.73404017
 20
120.4937848886
 30
0.0
 11
78.7347040284
 21
120.5320462393
 31
0.0
  0
LINE
  5
36C
  8
0
  6
CONTINUOUS
 62
     7
 10
78.7347040284
 20
120.5320462393
 30
0.0
 11
79.0791435254
 21
124.4540263795
 31
0.0
  0
LINE
  5
36D
  8
0
  6
CONTINUOUS
 62
     7
 10
79.0791435254
 20
124.4540263795
 30
0.0
 11
79.0850768651
 21
124.4909006998
 31
0.0
  0
LINE
  5
36E
  8
0
  6
CONTINUOUS
 62
     7
 10
79.0044055291
 20
122.9121704016
 30
0.0
 11
78.9993282785
 21
122.9414218467
 31
0.0
  0
ARC
  5
36F
  8
0
  6
CONTINUOUS
 62
     7
 10
79.002820382
 20
122.8999643001
 30
0.0
 40
0.0119396792171356
 50
223.5739868632
 51
252.5374944361
  0
POLYLINE
  5
370
  8
0
  6
CONTINUOUS
 62
     7
 66
     1
 10
0.0
 20
0.0
 30
0.0
 70
   128
  0
VERTEX
  5
76C
  8
0
  6
CONTINUOUS
 62
     7
 10
79.0735297748
 20
124.5176189475
 30
0.0
  0
VERTEX
  5
76D
  8
0
  6
CONTINUOUS
 62
     7
 10
79.0962191502
 20
124.5571773395
 30
0.0
  0
VERTEX
  5
76E
  8
0
  6
CONTINUOUS
 62
     7
 10
79.1342259588
 20
124.5882034198
 30
0.0
  0
SEQEND
  5
867
  8
0
  6
CONTINUOUS
 62
     7
  0
LINE
  5
371
  8
0
  6
CONTINUOUS
 62
     7
 10
79.0769977582
 20
124.5045701869
 30
0.0
 11
79.0850778837
 21
124.4909006998
 31
0.0
  0
LINE
  5
372
  8
0
  6
CONTINUOUS
 62
     7
 10
79.0735297748
 20
124.5176189475
 30
0.0
 11
79.0769977582
 21
124.5045701869
 31
0.0
  0
ARC
  5
373
  8
0
  6
CONTINUOUS
 62
     7
 10
78.929174369
 20
122.0613974499
 30
0.0
 40
0.0119388641817141
 50
223.5750910758
 51
252.5398861306
  0
ARC
  5
374
  8
0
  6
CONTINUOUS
 62
     7
 10
79.4215291369
 20
124.5178389682
 30
0.0
 40
0.3434458417917797
 50
105.9298431771
 51
165.8780010187
  0
LINE
  5
375
  8
0
  6
CONTINUOUS
 62
     7
 10
78.9167197333
 20
122.0007946611
 30
0.0
 11
78.9262785954
 21
122.0225737559
 31
0.0
  0
ARC
  5
376
  8
0
  6
CONTINUOUS
 62
     7
 10
78.9229334462
 20
122.0048278673
 30
0.0
 40
0.0074078998737574
 50
212.9868574042
 51
252.3115894835
  0
ARC
  5
377
  8
0
  6
CONTINUOUS
 62
     7
 10
78.8019053695
 20
120.5892670446
 30
0.0
 40
0.0151583789344369
 50
234.174449568
 51
246.1106616174
  0
ARC
  5
378
  8
0
  6
CONTINUOUS
 62
     7
 10
78.7949044477
 20
120.5798040786
 30
0.0
 40
0.0033907936978923
 50
203.8734414179
 51
236.4986711322
  0
LINE
  5
379
  8
0
  6
CONTINUOUS
 62
     7
 10
79.0791435254
 20
124.4540263795
 30
0.0
 11
79.0633840922
 21
124.4598466799
 31
0.0
  0
LINE
  5
37A
  8
0
  6
CONTINUOUS
 62
     7
 10
79.0633840922
 20
124.4598466799
 30
0.0
 11
79.0735296875
 21
124.5176184818
 31
0.0
  0
LINE
  5
37B
  8
0
  6
CONTINUOUS
 62
     7
 10
79.0633840922
 20
124.4598466799
 30
0.0
 11
79.0239420282
 21
124.4894948684
 31
0.0
  0
ARC
  5
37C
  8
0
  6
CONTINUOUS
 62
     7
 10
79.4939976512
 20
124.448021661
 30
0.0
 40
0.4718817948211866
 50
129.8632511258
 51
174.9582243564
  0
LINE
  5
37D
  8
0
  6
CONTINUOUS
 62
     7
 10
79.2697966797
 20
124.8615978182
 30
0.0
 11
79.1915415
 21
124.8102269963
 31
0.0
  0
ARC
  5
37E
  8
0
  6
CONTINUOUS
 62
     7
 10
78.9292672182
 20
120.5718344662
 30
0.0
 40
0.1376216748323122
 50
177.2523059199
 51
229.2585512024
  0
LINE
  5
37F
  8
0
  6
CONTINUOUS
 62
     7
 10
78.7189445953
 20
120.5378664379
 30
0.0
 11
78.7347040284
 21
120.5320462393
 31
0.0
  0
LINE
  5
380
  8
0
  6
CONTINUOUS
 62
     7
 10
78.7189445953
 20
120.5378664233
 30
0.0
 11
79.0633840922
 21
124.4598466799
 31
0.0
  0
LINE
  5
381
  8
0
  6
CONTINUOUS
 62
     7
 10
78.690963416
 20
120.6980148052
 30
0.0
 11
78.6795025021
 21
120.5675149465
 31
0.0
  0
LINE
  5
382
  8
0
  6
CONTINUOUS
 62
     7
 10
78.7130502547
 20
120.9495072033
 30
0.0
 11
78.690963416
 21
120.6980148052
 31
0.0
  0
LINE
  5
383
  8
0
  6
CONTINUOUS
 62
     7
 10
79.0239420282
 20
124.4894948684
 30
0.0
 11
78.7130501965
 21
120.9495072615
 31
0.0
  0
LINE
  5
384
  8
0
  6
CONTINUOUS
 62
     7
 10
78.6795025021
 20
120.5675149465
 30
0.0
 11
78.7189445953
 21
120.5378663942
 31
0.0
  0
POLYLINE
  5
385
  8
0
  6
CONTINUOUS
 62
     7
 66
     1
 10
0.0
 20
0.0
 30
0.0
 70
   128
  0
VERTEX
  5
76F
  8
0
  6
CONTINUOUS
 62
     7
 10
78.734036794
 20
120.4937850341
 30
0.0
  0
VERTEX
  5
770
  8
0
  6
CONTINUOUS
 62
     7
 10
78.7415617058
 20
120.4389015982
 30
0.0
  0
VERTEX
  5
771
  8
0
  6
CONTINUOUS
 62
     7
 10
78.7655280699
 20
120.3900019425
 30
0.0
  0
SEQEND
  5
868
  8
0
  6
CONTINUOUS
 62
     7
  0
POLYLINE
  5
386
  8
0
  6
CONTINUOUS
 62
     7
 66
     1
 10
0.0
 20
0.0
 30
0.0
 70
   128
  0
VERTEX
  5
772
  8
0
  6
CONTINUOUS
 62
     7
 10
78.7655280699
 20
120.3900019425
 30
0.0
  0
VERTEX
  5
773
  8
0
  6
CONTINUOUS
 62
     7
 10
78.73381479
 20
120.4306559664
 30
0.0
  0
VERTEX
  5
774
  8
0
  6
CONTINUOUS
 62
     7
 10
78.718761765
 20
120.4780101032
 30
0.0
  0
SEQEND
  5
869
  8
0
  6
CONTINUOUS
 62
     7
  0
LINE
  5
387
  8
0
  6
CONTINUOUS
 62
     7
 10
78.724063377
 20
120.4858658527
 30
0.0
 11
78.718761765
 21
120.4780101032
 31
0.0
  0
LINE
  5
388
  8
0
  6
CONTINUOUS
 62
     7
 10
78.734036794
 20
120.4937850341
 30
0.0
 11
78.724063377
 21
120.4858658527
 31
0.0
  0
LINE
  5
389
  8
0
  6
CONTINUOUS
 62
     7
 10
78.7187571084
 20
120.4780101177
 30
0.0
 11
78.7189445953
 21
120.5378664379
 31
0.0
  0
ARC
  5
38A
  8
0
  6
CONTINUOUS
 62
     7
 10
79.0953311397
 20
120.4607069946
 30
0.0
 40
0.3794387269811864
 50
188.2428002892
 51
253.1127272531
  0
POLYLINE
  5
38B
  8
0
  6
CONTINUOUS
 62
     7
 66
     1
 10
0.0
 20
0.0
 30
0.0
 70
   128
  0
VERTEX
  5
775
  8
0
  6
CONTINUOUS
 62
     7
 10
78.7886486184
 20
120.2226638632
 30
0.0
  0
VERTEX
  5
776
  8
0
  6
CONTINUOUS
 62
     7
 10
78.8643078674
 20
120.1507162257
 30
0.0
  0
VERTEX
  5
777
  8
0
  6
CONTINUOUS
 62
     7
 10
78.9706857438
 20
120.0951445569
 30
0.0
  0
SEQEND
  5
86A
  8
0
  6
CONTINUOUS
 62
     7
  0
ARC
  5
38C
  8
0
  6
CONTINUOUS
 62
     7
 10
79.1489530747
 20
120.5263990403
 30
0.0
 40
0.4712476620539881
 50
174.9946322283
 51
220.130751181
  0
LINE
  5
38D
  8
0
  6
CONTINUOUS
 62
     7
 10
141.9206849212
 20
126.567190782
 30
0.0
 11
141.9206849212
 21
135.3527175158
 31
0.0
  0
LINE
  5
38E
  8
0
  6
CONTINUOUS
 62
     7
 10
141.9206849212
 20
105.3527181864
 30
0.0
 11
141.9206849212
 21
114.8453492567
 31
0.0
  0
ARC
  5
38F
  8
0
  6
CONTINUOUS
 62
     7
 10
142.1839006285
 20
116.1767729599
 30
0.0
 40
1.357192538312024
 50
258.8171151222
 51
357.9506194369
  0
ARC
  5
390
  8
0
  6
CONTINUOUS
 62
     7
 10
124.4813908638
 20
118.5164830199
 30
0.0
 40
19.20788569018587
 50
352.8575495978
 51
24.7800232691
  0
LINE
  5
391
  8
0
  6
CONTINUOUS
 62
     7
 10
147.4206886166
 20
105.3527181864
 30
0.0
 11
147.4206886166
 21
135.3527175158
 31
0.0
  0
LINE
  5
392
  8
0
  6
CONTINUOUS
 62
     7
 10
147.9206821793
 20
134.8527174339
 30
0.0
 11
147.9206821793
 21
105.8527182684
 31
0.0
  0
LINE
  5
393
  8
0
  6
CONTINUOUS
 62
     7
 10
143.5402250761
 20
116.1282386527
 30
0.0
 11
134.3001230532
 21
121.308129317
 31
0.0
  0
LINE
  5
394
  8
0
  6
CONTINUOUS
 62
     7
 10
134.0850732201
 20
129.3479984522
 30
0.0
 11
134.3001230532
 21
121.308129317
 31
0.0
  0
ARC
  5
395
  8
0
  6
CONTINUOUS
 62
     7
 10
135.0821624865
 20
119.7277550323
 30
0.0
 40
9.671777006537708
 50
45.0038257976
 51
95.9172879224
  0
LINE
  5
396
  8
0
  6
CONTINUOUS
 62
     7
 10
141.9206849212
 20
114.8453492567
 30
0.0
 11
141.8243042105
 21
114.8846641079
 31
0.0
  0
LINE
  5
397
  8
0
  6
CONTINUOUS
 62
     7
 10
141.8243042105
 20
114.8846641079
 30
0.0
 11
133.3706854755
 21
119.6236627654
 31
0.0
  0
LINE
  5
398
  8
0
  6
CONTINUOUS
 62
     7
 10
133.3706854755
 20
120.569413011
 30
0.0
 11
133.3706854755
 21
119.6963797336
 31
0.0
  0
ARC
  5
399
  8
0
  6
CONTINUOUS
 62
     7
 10
131.998018825
 20
123.2538654448
 30
0.0
 40
3.015045373209526
 50
297.0824560453
 51
319.7783807032
  0
LINE
  5
39A
  8
0
  6
CONTINUOUS
 62
     7
 10
131.7312634462
 20
119.1756817641
 30
0.0
 11
133.3706854755
 21
118.4664537793
 31
0.0
  0
LINE
  5
39B
  8
0
  6
CONTINUOUS
 62
     7
 10
141.8243042105
 20
114.8846641079
 30
0.0
 11
133.3706854755
 21
118.4520661261
 31
0.0
  0
LINE
  5
39C
  8
0
  6
CONTINUOUS
 62
     7
 10
132.8941575164
 20
128.8965696365
 30
0.0
 11
131.7312634462
 21
128.2715972409
 31
0.0
  0
POLYLINE
  5
39D
  8
0
  6
CONTINUOUS
 62
     7
 66
     1
 10
0.0
 20
0.0
 30
0.0
 70
   128
  0
VERTEX
  5
778
  8
0
  6
CONTINUOUS
 62
     7
 10
134.0850732201
 20
129.3479984522
 30
0.0
  0
VERTEX
  5
779
  8
0
  6
CONTINUOUS
 62
     7
 10
133.7161279196
 20
129.2581621453
 30
0.0
  0
VERTEX
  5
77A
  8
0
  6
CONTINUOUS
 62
     7
 10
132.8941575164
 20
128.8965696365
 30
0.0
  0
SEQEND
  5
86B
  8
0
  6
CONTINUOUS
 62
     7
  0
LINE
  5
39E
  8
0
  6
CONTINUOUS
 62
     7
 10
149.6502227062
 20
130.3527176276
 30
0.0
 11
149.6502227062
 21
110.3527180746
 31
0.0
  0
LINE
  5
39F
  8
0
  6
CONTINUOUS
 62
     7
 10
195.6706858152
 20
126.3527179033
 30
0.0
 11
195.6706858152
 21
130.3527176276
 31
0.0
  0
LINE
  5
3A0
  8
0
  6
CONTINUOUS
 62
     7
 10
195.6706858152
 20
110.3527180746
 30
0.0
 11
195.6706858152
 21
114.352717799
 31
0.0
  0
LINE
  5
3A1
  8
0
  6
CONTINUOUS
 62
     7
 10
195.6706858152
 20
126.3527179033
 30
0.0
 11
153.9206868881
 21
126.3527179033
 31
0.0
  0
ARC
  5
3A2
  8
0
  6
CONTINUOUS
 62
     7
 10
161.9206727526
 20
120.3527178511
 30
0.0
 40
9.999988722887567
 50
143.1300535207
 51
216.8699464793
  0
LINE
  5
3A3
  8
0
  6
CONTINUOUS
 62
     7
 10
153.9206868881
 20
114.352717799
 30
0.0
 11
195.6706858152
 21
114.352717799
 31
0.0
  0
LINE
  5
3A4
  8
0
  6
CONTINUOUS
 62
     7
 10
149.179763245
 20
130.2527177975
 30
0.0
 11
149.179763245
 21
110.4527179048
 31
0.0
  0
LINE
  5
3A5
  8
0
  6
CONTINUOUS
 62
     7
 10
153.9206868881
 20
114.352717799
 30
0.0
 11
153.9206868881
 21
126.3527179033
 31
0.0
  0
ARC
  5
3A6
  8
0
  6
CONTINUOUS
 62
     7
 10
117.1586231484
 20
78.1391396152
 30
0.0
 40
43.54721158450599
 50
70.4493500034
 51
77.9420343823
  0
POLYLINE
  5
3A7
  8
0
  6
CONTINUOUS
 62
     7
 66
     1
 10
0.0
 20
0.0
 30
0.0
 70
   128
  0
VERTEX
  5
77B
  8
0
  6
CONTINUOUS
 62
     7
 10
87.4706861475
 20
126.9922170684
 30
0.0
  0
VERTEX
  5
77C
  8
0
  6
CONTINUOUS
 62
     7
 10
93.9909034321
 20
126.607325197
 30
0.0
  0
VERTEX
  5
77D
  8
0
  6
CONTINUOUS
 62
     7
 10
100.5301616067
 20
125.884920162
 30
0.0
  0
VERTEX
  5
77E
  8
0
  6
CONTINUOUS
 62
     7
 10
106.9180156016
 20
124.8902499572
 30
0.0
  0
VERTEX
  5
77F
  8
0
  6
CONTINUOUS
 62
     7
 10
113.3236504072
 20
123.658682023
 30
0.0
  0
VERTEX
  5
780
  8
0
  6
CONTINUOUS
 62
     7
 10
119.7806029493
 20
122.2442480864
 30
0.0
  0
VERTEX
  5
781
  8
0
  6
CONTINUOUS
 62
     7
 10
126.2556864792
 20
120.7255585248
 30
0.0
  0
SEQEND
  5
86C
  8
0
  6
CONTINUOUS
 62
     7
  0
LINE
  5
3A8
  8
0
  6
CONTINUOUS
 62
     7
 10
133.3706854755
 20
119.6963797336
 30
0.0
 11
133.3706854755
 21
119.6630424017
 31
0.0
  0
POLYLINE
  5
3A9
  8
0
  6
CONTINUOUS
 62
     7
 66
     1
 10
0.0
 20
0.0
 30
0.0
 70
   128
  0
VERTEX
  5
782
  8
0
  6
CONTINUOUS
 62
     7
 10
196.4206836098
 20
114.4532601245
 30
0.0
  0
VERTEX
  5
783
  8
0
  6
CONTINUOUS
 62
     7
 10
195.867664265
 20
114.3790183485
 30
0.0
  0
VERTEX
  5
784
  8
0
  6
CONTINUOUS
 62
     7
 10
195.6706858152
 20
114.352717799
 30
0.0
  0
SEQEND
  5
86D
  8
0
  6
CONTINUOUS
 62
     7
  0
ARC
  5
3AA
  8
0
  6
CONTINUOUS
 62
     7
 10
203.6502239286
 20
120.3732918758
 30
0.0
 40
9.344144110406642
 50
219.3129137707
 51
223.9300059449
  0
LINE
  5
3AB
  8
0
  6
CONTINUOUS
 62
     7
 10
196.9206846231
 20
126.8149156019
 30
0.0
 11
196.9206846231
 21
130.2527177975
 31
0.0
  0
LINE
  5
3AC
  8
0
  6
CONTINUOUS
 62
     7
 10
196.9206846231
 20
110.4527179048
 30
0.0
 11
196.9206846231
 21
113.8905201003
 31
0.0
  0
ARC
  5
3AD
  8
0
  6
CONTINUOUS
 62
     7
 10
203.6502239286
 20
120.3321438265
 30
0.0
 40
9.344144110406631
 50
136.0699940551
 51
140.6870862293
  0
POLYLINE
  5
3AE
  8
0
  6
CONTINUOUS
 62
     7
 66
     1
 10
0.0
 20
0.0
 30
0.0
 70
   128
  0
VERTEX
  5
785
  8
0
  6
CONTINUOUS
 62
     7
 10
195.6706858152
 20
126.3527179033
 30
0.0
  0
VERTEX
  5
786
  8
0
  6
CONTINUOUS
 62
     7
 10
195.867664265
 20
126.3264173538
 30
0.0
  0
VERTEX
  5
787
  8
0
  6
CONTINUOUS
 62
     7
 10
196.4206836098
 20
126.2521755777
 30
0.0
  0
SEQEND
  5
86E
  8
0
  6
CONTINUOUS
 62
     7
  0
LINE
  5
3AF
  8
0
  6
CONTINUOUS
 62
     7
 10
196.9206846231
 20
126.8149156019
 30
0.0
 11
197.9206866497
 21
126.4321913839
 31
0.0
  0
LINE
  5
3B0
  8
0
  6
CONTINUOUS
 62
     7
 10
197.9206866497
 20
114.2732443184
 30
0.0
 11
197.9206866497
 21
126.4321913839
 31
0.0
  0
LINE
  5
3B1
  8
0
  6
CONTINUOUS
 62
     7
 10
197.9206866497
 20
114.2732443184
 30
0.0
 11
196.9206846231
 21
113.8905201003
 31
0.0
  0
LINE
  5
3B2
  8
0
  6
CONTINUOUS
 62
     7
 10
196.4206836098
 20
114.4532601245
 30
0.0
 11
196.4206836098
 21
126.2521755777
 31
0.0
  0
LINE
  5
3B3
  8
0
  6
CONTINUOUS
 62
     7
 10
197.9206866497
 20
126.4321913839
 30
0.0
 11
197.9206866497
 21
129.2527176336
 31
0.0
  0
LINE
  5
3B4
  8
0
  6
CONTINUOUS
 62
     7
 10
197.9206866497
 20
111.4527180687
 30
0.0
 11
197.9206866497
 21
114.2732443184
 31
0.0
  0
LINE
  5
3B5
  8
0
  6
CONTINUOUS
 62
     7
 10
79.7731738391
 20
126.9922170684
 30
0.0
 11
87.4706861475
 21
126.9922170684
 31
0.0
  0
LINE
  5
3B6
  8
0
  6
CONTINUOUS
 62
     7
 10
87.8629759798
 20
118.6449800514
 30
0.0
 11
87.0636697771
 21
118.7527178915
 31
0.0
  0
LINE
  5
3B7
  8
0
  6
CONTINUOUS
 62
     7
 10
87.0636697771
 20
118.7527178915
 30
0.0
 11
79.4706857675
 21
118.7527178915
 31
0.0
  0
LINE
  5
3B8
  8
0
  6
CONTINUOUS
 62
     7
 10
79.4706857675
 20
118.7527178915
 30
0.0
 11
79.4706857675
 21
125.624618762
 31
0.0
  0
ARC
  5
3B9
  8
0
  6
CONTINUOUS
 62
     7
 10
64.4971612925
 20
129.6537438337
 30
0.0
 40
15.50613698019941
 50
344.9393915305
 51
350.1166138363
  0
POLYLINE
  5
3BA
  8
0
  6
CONTINUOUS
 62
     7
 66
     1
 10
0.0
 20
0.0
 30
0.0
 70
   128
  0
VERTEX
  5
788
  8
0
  6
CONTINUOUS
 62
     7
 10
81.2926384067
 20
122.5825164363
 30
0.0
  0
VERTEX
  5
789
  8
0
  6
CONTINUOUS
 62
     7
 10
81.5412302879
 20
122.541507975
 30
0.0
  0
VERTEX
  5
78A
  8
0
  6
CONTINUOUS
 62
     7
 10
81.7614689847
 20
122.4255056948
 30
0.0
  0
VERTEX
  5
78B
  8
0
  6
CONTINUOUS
 62
     7
 10
81.940276167
 20
122.241251556
 30
0.0
  0
VERTEX
  5
78C
  8
0
  6
CONTINUOUS
 62
     7
 10
82.0595702069
 20
121.9923695678
 30
0.0
  0
VERTEX
  5
78D
  8
0
  6
CONTINUOUS
 62
     7
 10
82.0908381981
 20
121.7042517744
 30
0.0
  0
VERTEX
  5
78E
  8
0
  6
CONTINUOUS
 62
     7
 10
82.0214230014
 20
121.4223443892
 30
0.0
  0
VERTEX
  5
78F
  8
0
  6
CONTINUOUS
 62
     7
 10
81.8643854843
 20
121.1889337062
 30
0.0
  0
VERTEX
  5
790
  8
0
  6
CONTINUOUS
 62
     7
 10
81.6449377132
 20
121.0280359735
 30
0.0
  0
VERTEX
  5
791
  8
0
  6
CONTINUOUS
 62
     7
 10
81.3892958365
 20
120.9512163548
 30
0.0
  0
VERTEX
  5
792
  8
0
  6
CONTINUOUS
 62
     7
 10
81.1246478377
 20
120.9633344331
 30
0.0
  0
VERTEX
  5
793
  8
0
  6
CONTINUOUS
 62
     7
 10
80.8793275762
 20
121.0617581744
 30
0.0
  0
VERTEX
  5
794
  8
0
  6
CONTINUOUS
 62
     7
 10
80.6797103403
 20
121.2350675266
 30
0.0
  0
VERTEX
  5
795
  8
0
  6
CONTINUOUS
 62
     7
 10
80.5464345874
 20
121.4646641527
 30
0.0
  0
VERTEX
  5
796
  8
0
  6
CONTINUOUS
 62
     7
 10
80.4931943683
 20
121.7286049284
 30
0.0
  0
VERTEX
  5
797
  8
0
  6
CONTINUOUS
 62
     7
 10
80.5289162934
 20
122.0031967748
 30
0.0
  0
VERTEX
  5
798
  8
0
  6
CONTINUOUS
 62
     7
 10
80.6578647723
 20
122.2590232862
 30
0.0
  0
VERTEX
  5
799
  8
0
  6
CONTINUOUS
 62
     7
 10
80.8700557943
 20
122.4576007005
 30
0.0
  0
VERTEX
  5
79A
  8
0
  6
CONTINUOUS
 62
     7
 10
81.1286621872
 20
122.5649251498
 30
0.0
  0
VERTEX
  5
79B
  8
0
  6
CONTINUOUS
 62
     7
 10
81.2926384067
 20
122.5825164363
 30
0.0
  0
SEQEND
  5
86F
  8
0
  6
CONTINUOUS
 62
     7
  0
POLYLINE
  5
3BB
  8
0
  6
CONTINUOUS
 62
     7
 66
     1
 10
0.0
 20
0.0
 30
0.0
 70
   128
  0
VERTEX
  5
79C
  8
0
  6
CONTINUOUS
 62
     7
 10
118.803973394
 20
113.686026343
 30
0.0
  0
VERTEX
  5
79D
  8
0
  6
CONTINUOUS
 62
     7
 10
113.3222347969
 20
113.8342533156
 30
0.0
  0
VERTEX
  5
79E
  8
0
  6
CONTINUOUS
 62
     7
 10
106.9459217513
 20
114.4869325578
 30
0.0
  0
VERTEX
  5
79F
  8
0
  6
CONTINUOUS
 62
     7
 10
100.5340396339
 20
115.572899849
 30
0.0
  0
VERTEX
  5
7A0
  8
0
  6
CONTINUOUS
 62
     7
 10
94.2155514756
 20
116.9853888348
 30
0.0
  0
VERTEX
  5
7A1
  8
0
  6
CONTINUOUS
 62
     7
 10
87.8629759798
 20
118.6449800514
 30
0.0
  0
SEQEND
  5
870
  8
0
  6
CONTINUOUS
 62
     7
  0
LINE
  5
3BC
  8
0
  6
CONTINUOUS
 62
     7
 10
79.4706857675
 20
118.7527178915
 30
0.0
 11
79.0006633585
 21
118.7527178915
 31
0.0
  0
ARC
  5
3BD
  8
0
  6
CONTINUOUS
 62
     7
 10
81.7959287735
 20
118.6434802515
 30
0.0
 40
2.797399078095338
 50
177.762047057
 51
188.9832916334
  0
LINE
  5
3BE
  8
0
  6
CONTINUOUS
 62
     7
 10
79.0328428236
 20
118.2066763647
 30
0.0
 11
79.0560930588
 21
118.1115026482
 31
0.0
  0
LINE
  5
3BF
  8
0
  6
CONTINUOUS
 62
     7
 10
78.9706857438
 20
118.8527178381
 30
0.0
 11
78.9706857438
 21
120.109655945
 31
0.0
  0
LINE
  5
3C0
  8
0
  6
CONTINUOUS
 62
     7
 10
78.9706857438
 20
120.109655945
 30
0.0
 11
79.0014512283
 21
120.079037333
 31
0.0
  0
POLYLINE
  5
3C1
  8
0
  6
CONTINUOUS
 62
     7
 66
     1
 10
0.0
 20
0.0
 30
0.0
 70
   128
  0
VERTEX
  5
7A2
  8
0
  6
CONTINUOUS
 62
     7
 10
79.0014512283
 20
120.079037333
 30
0.0
  0
VERTEX
  5
7A3
  8
0
  6
CONTINUOUS
 62
     7
 10
79.0464532299
 20
121.5805329045
 30
0.0
  0
VERTEX
  5
7A4
  8
0
  6
CONTINUOUS
 62
     7
 10
79.2909604468
 20
124.6538048506
 30
0.0
  0
SEQEND
  5
871
  8
0
  6
CONTINUOUS
 62
     7
  0
LINE
  5
3C2
  8
0
  6
CONTINUOUS
 62
     7
 10
79.2909604468
 20
124.6538048506
 30
0.0
 11
79.2674997326
 21
124.72775326
 31
0.0
  0
LINE
  5
3C3
  8
0
  6
CONTINUOUS
 62
     7
 10
79.2674997326
 20
124.72775326
 30
0.0
 11
79.2707561311
 21
124.9175060436
 31
0.0
  0
LINE
  5
3C4
  8
0
  6
CONTINUOUS
 62
     7
 10
79.2707561311
 20
124.9175060436
 30
0.0
 11
79.3128362827
 21
125.3544104181
 31
0.0
  0
POLYLINE
  5
3C5
  8
0
  6
CONTINUOUS
 62
     7
 66
     1
 10
0.0
 20
0.0
 30
0.0
 70
   128
  0
VERTEX
  5
7A5
  8
0
  6
CONTINUOUS
 62
     7
 10
79.3128362827
 20
125.3544104181
 30
0.0
  0
VERTEX
  5
7A6
  8
0
  6
CONTINUOUS
 62
     7
 10
79.3331253051
 20
125.3459200159
 30
0.0
  0
VERTEX
  5
7A7
  8
0
  6
CONTINUOUS
 62
     7
 10
79.4706857675
 20
125.624618762
 30
0.0
  0
SEQEND
  5
872
  8
0
  6
CONTINUOUS
 62
     7
  0
POLYLINE
  5
3C6
  8
0
  6
CONTINUOUS
 62
     7
 66
     1
 10
0.0
 20
0.0
 30
0.0
 70
   128
  0
VERTEX
  5
7A8
  8
0
  6
CONTINUOUS
 62
     7
 10
79.4280223097
 20
119.1784775945
 30
0.0
  0
VERTEX
  5
7A9
  8
0
  6
CONTINUOUS
 62
     7
 10
79.4058242143
 20
118.9871646127
 30
0.0
  0
VERTEX
  5
7AA
  8
0
  6
CONTINUOUS
 62
     7
 10
79.3776550533
 20
118.8983321551
 30
0.0
  0
VERTEX
  5
7AB
  8
0
  6
CONTINUOUS
 62
     7
 10
79.3459170352
 20
118.921784953
 30
0.0
  0
VERTEX
  5
7AC
  8
0
  6
CONTINUOUS
 62
     7
 10
79.3138379929
 20
119.0555914434
 30
0.0
  0
VERTEX
  5
7AD
  8
0
  6
CONTINUOUS
 62
     7
 10
79.2854260042
 20
119.2849701399
 30
0.0
  0
VERTEX
  5
7AE
  8
0
  6
CONTINUOUS
 62
     7
 10
79.2649773473
 20
119.5832533192
 30
0.0
  0
VERTEX
  5
7AF
  8
0
  6
CONTINUOUS
 62
     7
 10
79.2560352827
 20
119.9153437117
 30
0.0
  0
VERTEX
  5
7B0
  8
0
  6
CONTINUOUS
 62
     7
 10
79.2601547989
 20
120.2433330179
 30
0.0
  0
VERTEX
  5
7B1
  8
0
  6
CONTINUOUS
 62
     7
 10
79.2764115292
 20
120.5316944904
 30
0.0
  0
VERTEX
  5
7B2
  8
0
  6
CONTINUOUS
 62
     7
 10
79.3019516539
 20
120.7495765191
 30
0.0
  0
VERTEX
  5
7B3
  8
0
  6
CONTINUOUS
 62
     7
 10
79.3329148844
 20
120.8723002126
 30
0.0
  0
VERTEX
  5
7B4
  8
0
  6
CONTINUOUS
 62
     7
 10
79.36524924
 20
120.8846415173
 30
0.0
  0
VERTEX
  5
7B5
  8
0
  6
CONTINUOUS
 62
     7
 10
79.3953122381
 20
120.7842062647
 30
0.0
  0
VERTEX
  5
7B6
  8
0
  6
CONTINUOUS
 62
     7
 10
79.4202013792
 20
120.5824288552
 30
0.0
  0
VERTEX
  5
7B7
  8
0
  6
CONTINUOUS
 62
     7
 10
79.4378455328
 20
120.3028722482
 30
0.0
  0
VERTEX
  5
7B8
  8
0
  6
CONTINUOUS
 62
     7
 10
79.4469617601
 20
119.9777826912
 30
0.0
  0
VERTEX
  5
7B9
  8
0
  6
CONTINUOUS
 62
     7
 10
79.4469697764
 20
119.643934049
 30
0.0
  0
VERTEX
  5
7BA
  8
0
  6
CONTINUOUS
 62
     7
 10
79.4379187798
 20
119.3384761352
 30
0.0
  0
VERTEX
  5
7BB
  8
0
  6
CONTINUOUS
 62
     7
 10
79.4280223097
 20
119.1784775945
 30
0.0
  0
SEQEND
  5
873
  8
0
  6
CONTINUOUS
 62
     7
  0
LINE
  5
3C7
  8
0
  6
CONTINUOUS
 62
     7
 10
79.3128362827
 20
125.3544104181
 30
0.0
 11
79.7731738391
 21
126.9922170684
 31
0.0
  0
POLYLINE
  5
3C8
  8
0
  6
CONTINUOUS
 62
     7
 66
     1
 10
0.0
 20
0.0
 30
0.0
 70
   128
  0
VERTEX
  5
7BC
  8
0
  6
CONTINUOUS
 62
     7
 10
133.3706854755
 20
120.2441028142
 30
0.0
  0
VERTEX
  5
7BD
  8
0
  6
CONTINUOUS
 62
     7
 10
132.3237932199
 20
120.984385059
 30
0.0
  0
VERTEX
  5
7BE
  8
0
  6
CONTINUOUS
 62
     7
 10
132.3147929186
 20
120.9906442452
 30
0.0
  0
SEQEND
  5
874
  8
0
  6
CONTINUOUS
 62
     7
  0
LINE
  5
3C9
  8
0
  6
CONTINUOUS
 62
     7
 10
132.3147929186
 20
120.9906494257
 30
0.0
 11
132.3410599405
 21
121.3355108991
 31
0.0
  0
POLYLINE
  5
3CA
  8
0
  6
CONTINUOUS
 62
     7
 66
     1
 10
0.0
 20
0.0
 30
0.0
 70
   128
  0
VERTEX
  5
7BF
  8
0
  6
CONTINUOUS
 62
     7
 10
132.3410599405
 20
121.3355108991
 30
0.0
  0
VERTEX
  5
7C0
  8
0
  6
CONTINUOUS
 62
     7
 10
132.781623947
 20
127.2815454647
 30
0.0
  0
VERTEX
  5
7C1
  8
0
  6
CONTINUOUS
 62
     7
 10
132.8941575164
 20
128.8965696365
 30
0.0
  0
SEQEND
  5
875
  8
0
  6
CONTINUOUS
 62
     7
  0
ARC
  5
3CB
  8
0
  6
CONTINUOUS
 62
     7
 10
124.2519566173
 20
62.9839666922
 30
0.0
 40
64.06480202178675
 50
88.2076899236
 51
105.2409648103
  0
ARC
  5
3CC
  8
0
  6
CONTINUOUS
 62
     7
 10
126.7237671878
 20
137.5538129544
 30
0.0
 40
10.54677900257254
 50
267.4562981586
 51
298.3456226217
  0
ARC
  5
3CD
  8
0
  6
CONTINUOUS
 62
     7
 10
84.0423380753
 20
113.8217819457
 30
0.0
 40
0.1719705914060388
 50
223.362590093
 51
256.7385322968
  0
LINE
  5
3CE
  8
0
  6
CONTINUOUS
 62
     7
 10
84.0028888458
 20
113.6543972314
 30
0.0
 11
87.4706861475
 21
113.6543972314
 31
0.0
  0
ARC
  5
3CF
  8
0
  6
CONTINUOUS
 62
     7
 10
87.0654006093
 20
224.7676025047
 30
0.0
 40
111.1139444105701
 50
270.2089854919
 51
278.821467436
  0
LINE
  5
3D0
  8
0
  6
CONTINUOUS
 62
     7
 10
78.9706857438
 20
120.1536221995
 30
0.0
 11
78.9706857438
 21
120.109655945
 31
0.0
  0
LINE
  5
3D1
  8
0
  6
CONTINUOUS
 62
     7
 10
87.4706861475
 20
118.5659814289
 30
0.0
 11
87.4706861475
 21
117.752717844
 31
0.0
  0
POLYLINE
  5
3D2
  8
0
  6
CONTINUOUS
 62
     7
 66
     1
 10
0.0
 20
0.0
 30
0.0
 70
   128
  0
VERTEX
  5
7C2
  8
0
  6
CONTINUOUS
 62
     7
 10
83.4571822459
 20
118.461346872
 30
0.0
  0
VERTEX
  5
7C3
  8
0
  6
CONTINUOUS
 62
     7
 10
82.1307905396
 20
118.383144996
 30
0.0
  0
VERTEX
  5
7C4
  8
0
  6
CONTINUOUS
 62
     7
 10
80.6505292101
 20
118.2979392249
 30
0.0
  0
VERTEX
  5
7C5
  8
0
  6
CONTINUOUS
 62
     7
 10
79.0328428236
 20
118.2066763647
 30
0.0
  0
SEQEND
  5
876
  8
0
  6
CONTINUOUS
 62
     7
  0
LINE
  5
3D3
  8
0
  6
CONTINUOUS
 62
     7
 10
87.4706861475
 20
117.752717844
 30
0.0
 11
84.4550706358
 21
117.752717844
 31
0.0
  0
ARC
  5
3D4
  8
0
  6
CONTINUOUS
 62
     7
 10
83.70507109
 20
117.7534972784
 30
0.0
 40
0.7499999508228063
 50
359.9404555886
 51
109.3002481629
  0
LINE
  5
3D5
  8
0
  6
CONTINUOUS
 62
     7
 10
87.4706861475
 20
117.752717844
 30
0.0
 11
87.4706861475
 21
113.6543972314
 31
0.0
  0
LINE
  5
3D6
  8
0
  6
CONTINUOUS
 62
     7
 10
83.9906400913
 20
113.8881149598
 30
0.0
 11
84.0028888458
 21
113.6543972314
 31
0.0
  0
ARC
  5
3D7
  8
0
  6
CONTINUOUS
 62
     7
 10
83.7050708651
 20
117.7534972211
 30
0.0
 40
0.750000000000005
 50
282.3907707264
 51
359.940460507
  0
LINE
  5
3D8
  8
0
  6
CONTINUOUS
 62
     7
 10
79.2596569197
 20
124.2603434146
 30
0.0
 11
79.1895498085
 21
124.4540082187
 31
0.0
  0
LINE
  5
3D9
  8
0
  6
CONTINUOUS
 62
     7
 10
79.1282071702
 20
124.3607600115
 30
0.0
 11
79.2425223306
 21
124.0449743707
 31
0.0
  0
POLYLINE
  5
3DA
  8
0
  6
CONTINUOUS
 62
     7
 66
     1
 10
0.0
 20
0.0
 30
0.0
 70
   128
  0
VERTEX
  5
7C6
  8
0
  6
CONTINUOUS
 62
     7
 10
79.1548766981
 20
122.9433347833
 30
0.0
  0
VERTEX
  5
7C7
  8
0
  6
CONTINUOUS
 62
     7
 10
79.1019882279
 20
122.9504347209
 30
0.0
  0
VERTEX
  5
7C8
  8
0
  6
CONTINUOUS
 62
     7
 10
79.0032912016
 20
122.9383973766
 30
0.0
  0
SEQEND
  5
877
  8
0
  6
CONTINUOUS
 62
     7
  0
LINE
  5
3DB
  8
0
  6
CONTINUOUS
 62
     7
 10
79.1456998238
 20
122.8279881541
 30
0.0
 11
78.9992375037
 21
122.8885748785
 31
0.0
  0
LINE
  5
3DC
  8
0
  6
CONTINUOUS
 62
     7
 10
78.9255922107
 20
122.0500086563
 30
0.0
 11
79.078763313
 21
121.986646707
 31
0.0
  0
LINE
  5
3DD
  8
0
  6
CONTINUOUS
 62
     7
 10
79.0244779171
 20
120.8473249933
 30
0.0
 11
78.7957666587
 21
120.5754072942
 31
0.0
  0
LINE
  5
3DE
  8
0
  6
CONTINUOUS
 62
     7
 10
79.0195121924
 20
120.6816432602
 30
0.0
 11
78.8394488888
 21
120.467563698
 31
0.0
  0
LINE
  5
3DF
  8
0
  6
CONTINUOUS
 62
     7
 10
79.0884627756
 20
124.6016354196
 30
0.0
 11
79.0735297457
 21
124.5176189475
 31
0.0
  0
LINE
  5
3E0
  8
0
  6
CONTINUOUS
 62
     7
 10
78.7187571666
 20
120.4780098267
 30
0.0
 11
78.7198122386
 21
120.4063075236
 31
0.0
  0
LINE
  5
3E1
  8
0
  6
CONTINUOUS
 62
     7
 10
131.7312634462
 20
112.0203954995
 30
0.0
 11
131.7312634462
 21
119.1756817641
 31
0.0
  0
LINE
  5
3E2
  8
0
  6
CONTINUOUS
 62
     7
 10
131.7312634462
 20
128.2715972409
 30
0.0
 11
131.7312634462
 21
128.6850402028
 31
0.0
  0
LINE
  5
3E3
  8
0
  6
CONTINUOUS
 62
     7
 10
127.6154435152
 20
120.3846358837
 30
0.0
 11
133.3706854755
 21
119.792239602
 31
0.0
  0
LINE
  5
3E4
  8
0
  6
CONTINUOUS
 62
     7
 10
126.2556864792
 20
113.6527180568
 30
0.0
 11
126.2556864792
 21
120.7255585248
 31
0.0
  0
POLYLINE
  5
3E5
  8
0
  6
CONTINUOUS
 62
     7
 66
     1
 10
0.0
 20
0.0
 30
0.0
 70
   128
  0
VERTEX
  5
7C9
  8
0
  6
CONTINUOUS
 62
     7
 10
123.2708237046
 20
121.4256392921
 30
0.0
  0
VERTEX
  5
7CA
  8
0
  6
CONTINUOUS
 62
     7
 10
125.7376550609
 20
121.3979483944
 30
0.0
  0
VERTEX
  5
7CB
  8
0
  6
CONTINUOUS
 62
     7
 10
132.3147929186
 20
120.9906494257
 30
0.0
  0
SEQEND
  5
878
  8
0
  6
CONTINUOUS
 62
     7
  0
LINE
  5
3E6
  8
0
  6
CONTINUOUS
 62
     7
 10
126.2556864792
 20
127.0174261078
 30
0.0
 11
126.2556864792
 21
127.0527176455
 31
0.0
  0
LINE
  5
3E7
  8
0
  6
CONTINUOUS
 62
     7
 10
87.4706861475
 20
117.752717844
 30
0.0
 11
91.4871693501
 21
117.6981705137
 31
0.0
  0
LINE
  5
3E8
  8
0
  6
CONTINUOUS
 62
     7
 10
78.9204846893
 20
117.7520479846
 30
0.0
 11
78.9204846893
 21
108.3396230111
 31
0.0
  0
LINE
  5
3E9
  8
0
  6
CONTINUOUS
 62
     7
 10
78.9204846893
 20
117.7520479846
 30
0.0
 11
78.9204846893
 21
108.3396230111
 31
0.0
  0
LINE
  5
3EA
  8
0
  6
CONTINUOUS
 62
     7
 10
79.6009051962
 20
113.3560436922
 30
0.0
 11
76.9704579178
 21
113.3560436922
 31
0.0
  0
LINE
  5
3EB
  8
0
  6
CONTINUOUS
 62
     7
 10
78.9204846893
 20
127.3560436922
 30
0.0
 11
76.6249078052
 21
127.3560436922
 31
0.0
  0
LINE
  5
3EC
  8
0
  6
CONTINUOUS
 62
     7
 10
120.9204846893
 20
113.6527178511
 30
0.0
 11
120.9204846893
 21
110.4256057795
 31
0.0
  0
DIMENSION
  5
3ED
  8
0
  6
CONTINUOUS
 62
     7
  2
_D
 10
72.4270864556
 20
113.3560436922
 30
0.0
 11
72.4270864556
 21
119.0230332482
 31
0.0
 70
   160
  1
%%c<>
  3
SLDDIMSTYLE0
 13
76.6249078052
 23
127.3560436922
 33
0.0
 14
76.9704579178
 24
113.3560436922
 34
0.0
 50
90.0
  0
DIMENSION
  5
3F9
  8
0
  6
CONTINUOUS
 62
     7
  2
_D_1
 10
147.9206857675
 20
89.5573433435
 30
0.0
 11
111.611912147
 21
89.5573433435
 31
0.0
 70
   160
  1
<>
  3
SLDDIMSTYLE0
 13
78.9204846893
 23
108.3396230111
 33
0.0
 14
147.9206857675
 24
105.8527178511
 34
0.0
 50
0.0
  0
DIMENSION
  5
403
  8
0
  6
CONTINUOUS
 62
     7
  2
_D_2
 10
197.9206857675
 20
76.2294175733
 30
0.0
 11
134.4714426756
 21
76.2294175733
 31
0.0
 70
   160
  1
<>
  3
SLDDIMSTYLE0
 13
78.9204846893
 23
108.3396230111
 33
0.0
 14
197.9206857675
 24
114.2732441897
 34
0.0
 50
0.0
  0
DIMENSION
  5
40D
  8
0
  6
CONTINUOUS
 62
     7
  2
_D_3
 10
78.9204846893
 20
101.9028236837
 30
0.0
 11
101.3529854574
 21
101.9028236837
 31
0.0
 70
   160
  1
<>
  3
SLDDIMSTYLE0
 13
120.9204846893
 23
110.4256057795
 33
0.0
 14
78.9204846893
 24
108.3396230111
 34
0.0
 50
0.0
  0
DIMENSION
  5
417
  8
0
  6
CONTINUOUS
 62
     7
  2
_D_4
 10
222.2310137949
 20
105.3527178511
 30
0.0
 11
222.2310137949
 21
119.8321942781
 31
0.0
 70
   160
  1
%%c<>
  3
SLDDIMSTYLE0
 13
147.4206857675
 23
135.3527178511
 33
0.0
 14
147.4206857675
 24
105.3527178511
 34
0.0
 50
90.0
  0
DIMENSION
  5
422
  8
0
  6
CONTINUOUS
 62
     7
  2
_D_5
 10
205.799760743
 20
130.3527178511
 30
0.0
 11
205.799760743
 21
119.8321942781
 31
0.0
 70
   160
  1
%%c<>h6
  3
SLDDIMSTYLE0
 13
195.6706857675
 23
110.3527178511
 33
0.0
 14
195.6706857675
 24
130.3527178511
 34
0.0
 50
90.0
  0
DIMENSION
  5
42E
  8
0
  6
CONTINUOUS
 62
     7
  2
_D_6
 10
197.9206857675
 20
89.5573433435
 30
0.0
 11
171.1531535176
 21
89.5573433435
 31
0.0
 70
   160
  1
<>
  3
SLDDIMSTYLE0
 13
147.9206857675
 23
105.8527178511
 33
0.0
 14
197.9206857675
 24
111.4527178511
 34
0.0
  0
LINE
  5
438
  8
0
  6
CENTERX2
 62
     7
 10
76.7845363304
 20
120.3527178511
 30
0.0
 11
197.6706857675
 21
120.3527178511
 31
0.0
  0
ENDSEC
  0
EOF
