  0
SECTION
  2
HEADER
  9
$ACADVER
  1
AC1009
  9
$DWGCODEPAGE
  3
ansi_1252
  9
$INSBASE
 10
0.0
 20
0.0
 30
0.0
  9
$EXTMIN
 10
0.0
 20
0.0
 30
0.0
  9
$EXTMAX
 10
420.0
 20
297.0
 30
0.0
  9
$LIMMIN
 10
0.0
 20
0.0
  9
$LIMMAX
 10
420.0
 20
297.0
  9
$ORTHOMODE
 70
     0
  9
$REGENMODE
 70
     1
  9
$FILLMODE
 70
     1
  9
$QTEXTMODE
 70
     0
  9
$MIRRTEXT
 70
     1
  9
$DRAGMODE
 70
     2
  9
$LTSCALE
 40
1.0
  9
$OSMODE
 70
    37
  9
$ATTMODE
 70
     1
  9
$TEXTSIZE
 40
3.0
  9
$TRACEWID
 40
1.0
  9
$TEXTSTYLE
  7
STANDARD
  9
$CLAYER
  8
0
  9
$CELTYPE
  6
BYLAYER
  9
$CECOLOR
 62
   256
  9
$DIMSCALE
 40
1.0
  9
$DIMASZ
 40
3.0
  9
$DIMEXO
 40
1.0
  9
$DIMDLI
 40
3.75
  9
$DIMRND
 40
0.0
  9
$DIMDLE
 40
0.0
  9
$DIMEXE
 40
1.0
  9
$DIMTP
 40
0.0
  9
$DIMTM
 40
0.0
  9
$DIMTXT
 40
3.0
  9
$DIMCEN
 40
2.5
  9
$DIMTSZ
 40
0.0
  9
$DIMTOL
 70
     0
  9
$DIMLIM
 70
     0
  9
$DIMTIH
 70
     1
  9
$DIMTOH
 70
     1
  9
$DIMSE1
 70
     0
  9
$DIMSE2
 70
     0
  9
$DIMTAD
 70
     1
  9
$DIMZIN
 70
     0
  9
$DIMBLK
  1

  9
$DIMASO
 70
     1
  9
$DIMSHO
 70
     1
  9
$DIMPOST
  1

  9
$DIMAPOST
  1

  9
$DIMALT
 70
     0
  9
$DIMALTD
 70
     3
  9
$DIMALTF
 40
0.0393700787
  9
$DIMLFAC
 40
1.0
  9
$DIMTOFL
 70
     1
  9
$DIMTVP
 40
0.0
  9
$DIMTIX
 70
     0
  9
$DIMSOXD
 70
     0
  9
$DIMSAH
 70
     0
  9
$DIMBLK1
  1

  9
$DIMBLK2
  1

  9
$DIMSTYLE
  2
ISO-25
  9
$DIMCLRD
 70
     0
  9
$DIMCLRE
 70
     0
  9
$DIMCLRT
 70
     0
  9
$DIMTFAC
 40
1.0
  9
$DIMGAP
 40
2.0
  9
$LUNITS
 70
     2
  9
$LUPREC
 70
     3
  9
$SKETCHINC
 40
1.0
  9
$FILLETRAD
 40
10.0
  9
$AUNITS
 70
     0
  9
$AUPREC
 70
     0
  9
$MENU
  1
.
  9
$ELEVATION
 40
0.0
  9
$PELEVATION
 40
0.0
  9
$THICKNESS
 40
0.0
  9
$LIMCHECK
 70
     0
  9
$CHAMFERA
 40
10.0
  9
$CHAMFERB
 40
10.0
  9
$SKPOLY
 70
     0
  9
$TDCREATE
 40
2454981.609836146
  9
$TDUPDATE
 40
2454981.609836157
  9
$TDINDWG
 40
0.0000000116
  9
$TDUSRTIMER
 40
0.0000000116
  9
$USRTIMER
 70
     1
  9
$ANGBASE
 50
0.0
  9
$ANGDIR
 70
     0
  9
$PDMODE
 70
     0
  9
$PDSIZE
 40
-1.0
  9
$PLINEWID
 40
0.0
  9
$COORDS
 70
     1
  9
$SPLFRAME
 70
     0
  9
$SPLINETYPE
 70
     6
  9
$SPLINESEGS
 70
     8
  9
$ATTDIA
 70
     0
  9
$ATTREQ
 70
     1
  9
$HANDLING
 70
     1
  9
$HANDSEED
  5
1D3
  9
$SURFTAB1
 70
     6
  9
$SURFTAB2
 70
     6
  9
$SURFTYPE
 70
     6
  9
$SURFU
 70
     6
  9
$SURFV
 70
     6
  9
$UCSNAME
  2

  9
$UCSORG
 10
0.0
 20
0.0
 30
0.0
  9
$UCSXDIR
 10
1.0
 20
0.0
 30
0.0
  9
$UCSYDIR
 10
0.0
 20
1.0
 30
0.0
  9
$PUCSNAME
  2

  9
$PUCSORG
 10
0.0
 20
0.0
 30
0.0
  9
$PUCSXDIR
 10
1.0
 20
0.0
 30
0.0
  9
$PUCSYDIR
 10
0.0
 20
1.0
 30
0.0
  9
$USERI1
 70
     0
  9
$USERI2
 70
     0
  9
$USERI3
 70
     0
  9
$USERI4
 70
     0
  9
$USERI5
 70
     0
  9
$USERR1
 40
0.0
  9
$USERR2
 40
0.0
  9
$USERR3
 40
0.0
  9
$USERR4
 40
0.0
  9
$USERR5
 40
0.0
  9
$WORLDVIEW
 70
     1
  9
$SHADEDGE
 70
     3
  9
$SHADEDIF
 70
    70
  9
$TILEMODE
 70
     1
  9
$MAXACTVP
 70
    64
  9
$PLIMCHECK
 70
     0
  9
$PEXTMIN
 10
1.0000000000E+20
 20
1.0000000000E+20
 30
1.0000000000E+20
  9
$PEXTMAX
 10
-1.0000000000E+20
 20
-1.0000000000E+20
 30
-1.0000000000E+20
  9
$PLIMMIN
 10
0.0
 20
0.0
  9
$PLIMMAX
 10
420.0
 20
297.0
  9
$UNITMODE
 70
     0
  9
$VISRETAIN
 70
     1
  9
$PLINEGEN
 70
     0
  9
$PSLTSCALE
 70
     1
  0
ENDSEC
  0
SECTION
  2
TABLES
  0
TABLE
  2
VPORT
 70
     1
  0
VPORT
  2
*ACTIVE
 70
     0
 10
0.0
 20
0.0
 11
1.0
 21
1.0
 12
210.0
 22
148.5
 13
0.0
 23
0.0
 14
10.0
 24
10.0
 15
10.0
 25
10.0
 16
0.0
 26
0.0
 36
1.0
 17
0.0
 27
0.0
 37
0.0
 40
297.0
 41
1.4141414141
 42
50.0
 43
0.0
 44
0.0
 50
0.0
 51
0.0
 71
     0
 72
  2000
 73
     1
 74
     3
 75
     0
 76
     0
 77
     0
 78
     0
  0
ENDTAB
  0
TABLE
  2
LTYPE
 70
     6
  0
LTYPE
  2
CONTINUOUS
 70
     0
  3
Solid line
 72
    65
 73
     0
 40
0.0
  0
LTYPE
  2
HIDDEN
 70
     0
  3
Hidden __ __ __ __ __ __ __ __ __ __ __ __ __ __
 72
    65
 73
     2
 40
1.905
 49
1.27
 49
-0.635
  0
LTYPE
  2
PHANTOM
 70
     0
  3
Phantom ______  __  __  ______  __  __  ______
 72
    65
 73
     6
 40
12.7
 49
6.35
 49
-1.27
 49
1.27
 49
-1.27
 49
1.27
 49
-1.27
  0
LTYPE
  2
CENTER
 70
     0
  3
Center ____ _ ____ _ ____ _ ____ _ ____ _ ____
 72
    65
 73
     4
 40
10.16
 49
6.35
 49
-1.27
 49
1.27
 49
-1.27
  0
LTYPE
  2
CENTERX2
 70
     0
  3
Center (2x) ________  __  ________  __  _____
 72
    65
 73
     4
 40
20.32
 49
12.7
 49
-2.54
 49
2.54
 49
-2.54
  0
LTYPE
  2
DOT2
 70
     0
  3
Dot (.5x) ........................................
 72
    65
 73
     2
 40
0.635
 49
0.0
 49
-0.635
  0
ENDTAB
  0
TABLE
  2
LAYER
 70
     2
  0
LAYER
  2
0
 70
     0
 62
     7
  6
CONTINUOUS
  0
LAYER
  2
DÜNNE_LINIE
 70
     0
 62
   153
  6
CONTINUOUS
  0
ENDTAB
  0
TABLE
  2
STYLE
 70
     1
  0
STYLE
  2
STANDARD
 70
     0
 40
0.0
 41
1.0
 50
0.0
 71
     0
 42
2.5
  3
txt
  4

  0
ENDTAB
  0
TABLE
  2
VIEW
 70
     0
  0
ENDTAB
  0
TABLE
  2
UCS
 70
     0
  0
ENDTAB
  0
TABLE
  2
APPID
 70
     1
  0
APPID
  2
ACAD
 70
     0
  0
ENDTAB
  0
TABLE
  2
DIMSTYLE
 70
     3
  0
DIMSTYLE
  2
ISO-25
 70
     0
  3

  4

  5

  6

  7

 40
1.0
 41
2.5
 42
0.625
 43
3.75
 44
1.25
 45
0.0
 46
0.0
 47
0.0
 48
0.0
140
2.5
141
2.5
142
0.0
143
0.0393700787
144
1.0
145
0.0
146
1.0
147
0.625
 71
     0
 72
     0
 73
     0
 74
     0
 75
     0
 76
     0
 77
     1
 78
     8
170
     0
171
     3
172
     1
173
     0
174
     0
175
     0
176
     0
177
     0
178
     0
  0
DIMSTYLE
  2
SLDDIMSTYLE0
 70
     0
  3

  4

  5

  6

  7

 40
1.0
 41
3.0
 42
0.0625
 43
0.38
 44
0.0
 45
0.000000001
 46
0.0
 47
0.0
 48
0.0
140
3.0
141
0.09
142
0.0
143
25.4
144
1.0
145
0.0
146
1.0
147
0.75
 71
     0
 72
     0
 73
     0
 74
     0
 75
     0
 76
     0
 77
     1
 78
    12
170
     0
171
     2
172
     0
173
     1
174
     0
175
     0
176
     0
177
     0
178
     0
  0
DIMSTYLE
  2
SLDDIMSTYLE1
 70
     0
  3

  4

  5

  6

  7

 40
1.0
 41
3.0
 42
0.0625
 43
0.38
 44
0.0
 45
0.000000001
 46
0.0
 47
0.0
 48
0.0
140
3.0
141
0.09
142
0.0
143
25.4
144
1.0
145
0.0
146
1.0
147
0.75
 71
     0
 72
     0
 73
     0
 74
     0
 75
     0
 76
     0
 77
     1
 78
    12
170
     0
171
     2
172
     0
173
     1
174
     0
175
     0
176
     0
177
     0
178
     0
  0
ENDTAB
  0
ENDSEC
  0
SECTION
  2
BLOCKS
  0
BLOCK
  8
0
  2
$MODEL_SPACE
 70
     0
 10
0.0
 20
0.0
 30
0.0
  3
$MODEL_SPACE
  1

  0
ENDBLK
  5
21
  8
0
  0
BLOCK
 67
     1
  8
0
  2
$PAPER_SPACE
 70
     0
 10
0.0
 20
0.0
 30
0.0
  3
$PAPER_SPACE
  1

  0
ENDBLK
  5
1D
 67
     1
  8
0
  0
BLOCK
  8
0
  2
SW_NOTE_0
 70
     0
 10
0.0
 20
0.0
 30
0.0
  3
SW_NOTE_0
  1

  0
LINE
  5
6E
  8
0
  6
CONTINUOUS
 62
     0
 10
0.0
 20
0.0
 30
0.0
 11
0.0
 21
-6.3489995327
 31
0.0
  0
LINE
  5
6F
  8
0
  6
CONTINUOUS
 62
     0
 10
0.0
 20
-6.3489995327
 30
0.0
 11
6.9470936916
 21
-6.3489995327
 31
0.0
  0
LINE
  5
70
  8
0
  6
CONTINUOUS
 62
     0
 10
6.9470936916
 20
-6.3489995327
 30
0.0
 11
6.9470936916
 21
0.0
 31
0.0
  0
LINE
  5
71
  8
0
  6
CONTINUOUS
 62
     0
 10
6.9470936916
 20
0.0
 30
0.0
 11
0.0
 21
0.0
 31
0.0
  0
LINE
  5
72
  8
0
  6
CONTINUOUS
 62
     0
 10
0.0
 20
0.0
 30
0.0
 11
6.9470936916
 21
-6.3489995327
 31
0.0
  0
LINE
  5
73
  8
0
  6
CONTINUOUS
 62
     0
 10
0.0
 20
-6.3489995327
 30
0.0
 11
6.9470936916
 21
0.0
 31
0.0
  0
ENDBLK
  5
6D
  8
0
  0
BLOCK
  8
0
  2
SW_NOTE_1
 70
     0
 10
0.0
 20
0.0
 30
0.0
  3
SW_NOTE_1
  1

  0
TEXT
  5
7B
  8
0
  6
CONTINUOUS
 62
     0
 10
0.0
 20
1.1050253168
 30
0.0
 40
3.1280788177
  1
%%p
 41
0.7
 11
0.0
 21
0.0
 31
0.0
 73
     1
  0
TEXT
  5
7C
  8
0
  6
CONTINUOUS
 62
     0
 10
3.8711482193
 20
1.1050253168
 30
0.0
 40
3.1280788177
  1
0,1
 41
0.7
 11
3.8711482193
 21
0.0
 31
0.0
 73
     1
  0
ENDBLK
  5
7A
  8
0
  0
BLOCK
  8
0
  2
SW_NOTE_2
 70
     0
 10
0.0
 20
0.0
 30
0.0
  3
SW_NOTE_2
  1

  0
LINE
  5
8B
  8
0
  6
CONTINUOUS
 62
     0
 10
0.0
 20
0.0
 30
0.0
 11
0.0
 21
-3.5248626168
 31
0.0
  0
LINE
  5
8C
  8
0
  6
CONTINUOUS
 62
     0
 10
0.0
 20
-3.5248626168
 30
0.0
 11
3.8575303738
 21
-3.5248626168
 31
0.0
  0
LINE
  5
8D
  8
0
  6
CONTINUOUS
 62
     0
 10
3.8575303738
 20
-3.5248626168
 30
0.0
 11
3.8575303738
 21
0.0
 31
0.0
  0
LINE
  5
8E
  8
0
  6
CONTINUOUS
 62
     0
 10
3.8575303738
 20
0.0
 30
0.0
 11
0.0
 21
0.0
 31
0.0
  0
LINE
  5
8F
  8
0
  6
CONTINUOUS
 62
     0
 10
0.0
 20
0.0
 30
0.0
 11
3.8575303738
 21
-3.5248626168
 31
0.0
  0
LINE
  5
90
  8
0
  6
CONTINUOUS
 62
     0
 10
0.0
 20
-3.5248626168
 30
0.0
 11
3.8575303738
 21
0.0
 31
0.0
  0
ENDBLK
  5
8A
  8
0
  0
BLOCK
  8
0
  2
*D4
 70
     1
 10
0.0
 20
0.0
 30
0.0
  3
*D4
  1

  0
SOLID
  5
E1
  8
0
  6
CONTINUOUS
 62
     7
 10
265.3893511934
 20
247.6825102549
 30
0.0
 11
264.6393511934
 21
244.6825102549
 31
0.0
 12
266.1393511934
 22
244.6825102549
 32
0.0
 13
266.1393511934
 23
244.6825102549
 33
0.0
  0
SOLID
  5
E2
  8
0
  6
CONTINUOUS
 62
     7
 10
265.3893511934
 20
197.6825102549
 30
0.0
 11
266.1393511934
 21
200.6825102549
 31
0.0
 12
264.6393511934
 22
200.6825102549
 32
0.0
 13
264.6393511934
 23
200.6825102549
 33
0.0
  0
LINE
  5
E3
  8
0
  6
CONTINUOUS
 62
     7
 10
241.2940391009
 20
247.6825102549
 30
0.0
 11
266.3893511934
 21
247.6825102549
 31
0.0
  0
LINE
  5
E4
  8
0
  6
CONTINUOUS
 62
     7
 10
241.2940391009
 20
197.6825102549
 30
0.0
 11
266.3893511934
 21
197.6825102549
 31
0.0
  0
LINE
  5
E5
  8
0
  6
CONTINUOUS
 62
     7
 10
265.3893511934
 20
247.6825102549
 30
0.0
 11
265.3893511934
 21
197.6825102549
 31
0.0
  0
TEXT
  5
E6
  8
0
  6
CONTINUOUS
 62
     7
 10
264.3295708912
 20
217.5509331521
 30
0.0
 40
3.0
  1
SW
 50
90.0
 41
0.7
 11
265.3893510769
 21
217.5509331521
 31
0.0
 73
     1
  0
TEXT
  5
E7
  8
0
  6
CONTINUOUS
 62
     7
 10
264.3295708912
 20
223.3832359559
 30
0.0
 40
3.0
  1
50
 50
90.0
 41
0.7
 11
265.3893510769
 21
223.3832359559
 31
0.0
 73
     1
  0
ENDBLK
  5
E0
  8
0
  0
BLOCK
  8
0
  2
*D5
 70
     1
 10
0.0
 20
0.0
 30
0.0
  3
*D5
  1

  0
SOLID
  5
12D
  8
0
  6
CONTINUOUS
 62
     7
 10
266.5202750575
 20
139.0828124701
 30
0.0
 11
265.7702750575
 21
136.0828124701
 31
0.0
 12
267.2702750575
 22
136.0828124701
 32
0.0
 13
267.2702750575
 23
136.0828124701
 33
0.0
  0
SOLID
  5
12E
  8
0
  6
CONTINUOUS
 62
     7
 10
266.5202750575
 20
77.9828124701
 30
0.0
 11
267.2702750575
 21
80.9828124701
 31
0.0
 12
265.7702750575
 22
80.9828124701
 32
0.0
 13
265.7702750575
 23
80.9828124701
 33
0.0
  0
LINE
  5
12F
  8
0
  6
CONTINUOUS
 62
     7
 10
244.7940391009
 20
139.0828124701
 30
0.0
 11
267.5202750575
 21
139.0828124701
 31
0.0
  0
LINE
  5
130
  8
0
  6
CONTINUOUS
 62
     7
 10
244.7940391009
 20
77.9828124701
 30
0.0
 11
267.5202750575
 21
77.9828124701
 31
0.0
  0
LINE
  5
131
  8
0
  6
CONTINUOUS
 62
     7
 10
266.5202750575
 20
139.0828124701
 30
0.0
 11
266.5202750575
 21
77.9828124701
 31
0.0
  0
TEXT
  5
132
  8
0
  6
CONTINUOUS
 62
     7
 10
265.460494639
 20
104.0559538253
 30
0.0
 40
3.0
  1
%%c
 50
90.0
 41
0.7
 11
266.5202748247
 21
104.0559538253
 31
0.0
 73
     1
  0
TEXT
  5
133
  8
0
  6
CONTINUOUS
 62
     7
 10
265.4604947554
 20
108.5788197131
 30
0.0
 40
3.0
  1
61
 50
90.0
 41
0.7
 11
266.5202749411
 21
108.5788197131
 31
0.0
 73
     1
  0
ENDBLK
  5
12C
  8
0
  0
BLOCK
  8
0
  2
*D6
 70
     1
 10
0.0
 20
0.0
 30
0.0
  3
*D6
  1

  0
SOLID
  5
138
  8
0
  6
CONTINUOUS
 62
   218
 10
244.2940391009
 20
150.3489769657
 30
0.0
 11
241.2940391009
 21
151.0989769657
 31
0.0
 12
241.2940391009
 22
149.5989769657
 32
0.0
 13
241.2940391009
 23
149.5989769657
 33
0.0
  0
SOLID
  5
139
  8
0
  6
CONTINUOUS
 62
   218
 10
214.2940391009
 20
150.3489769657
 30
0.0
 11
217.2940391009
 21
149.5989769657
 31
0.0
 12
217.2940391009
 22
151.0989769657
 32
0.0
 13
217.2940391009
 23
151.0989769657
 33
0.0
  0
LINE
  5
13A
  8
0
  6
CONTINUOUS
 62
   218
 10
244.2940391009
 20
139.5677956555
 30
0.0
 11
244.2940391009
 21
151.3489769657
 31
0.0
  0
LINE
  5
13B
  8
0
  6
CONTINUOUS
 62
   218
 10
214.2940391009
 20
139.5828124701
 30
0.0
 11
214.2940391009
 21
151.3489769657
 31
0.0
  0
LINE
  5
13C
  8
0
  6
CONTINUOUS
 62
   218
 10
244.2940391009
 20
150.3489769657
 30
0.0
 11
214.2940391009
 21
150.3489769657
 31
0.0
  0
TEXT
  5
13D
  8
0
  6
CONTINUOUS
 62
   218
 10
227.0786134
 20
151.4087572679
 30
0.0
 40
3.0
  1
30
 50
0.0
 41
0.7
 11
227.0786134
 21
150.3489770821
 31
0.0
 73
     1
  0
ENDBLK
  5
137
  8
0
  0
ENDSEC
  0
SECTION
  2
ENTITIES
  0
LINE
  5
41
  8
0
  6
CONTINUOUS
 62
     7
 10
223.4617400894
 20
54.207244723
 30
0.0
 11
412.6440228063
 21
54.207244723
 31
0.0
  0
LINE
  5
42
  8
0
  6
CONTINUOUS
 62
     7
 10
22.7544650016
 20
289.1934114716
 30
0.0
 11
412.6440228063
 21
289.1934114716
 31
0.0
  0
LINE
  5
43
  8
DÜNNE_LINIE
 62
     7
 10
223.4617400894
 20
54.207244723
 30
0.0
 11
223.4617400894
 21
5.3114812073
 31
0.0
  0
LINE
  5
44
  8
0
  6
CONTINUOUS
 62
     7
 10
22.7544650016
 20
5.3114812073
 30
0.0
 11
412.6440228063
 21
5.3114812073
 31
0.0
  0
LINE
  5
45
  8
0
  6
CONTINUOUS
 62
     7
 10
412.6440228063
 20
289.1934114716
 30
0.0
 11
412.6440228063
 21
5.3114812073
 31
0.0
  0
LINE
  5
46
  8
DÜNNE_LINIE
 62
     7
 10
296.4552407589
 20
43.4289364721
 30
0.0
 11
296.4552407589
 21
54.207244723
 31
0.0
  0
LINE
  5
47
  8
0
  6
CONTINUOUS
 62
     7
 10
321.3403877482
 20
54.207244723
 30
0.0
 11
321.3403877482
 21
5.3114812073
 31
0.0
  0
LINE
  5
48
  8
0
  6
CONTINUOUS
 62
     7
 10
271.4617400894
 20
27.4562176605
 30
0.0
 11
321.3403877482
 21
27.4562176605
 31
0.0
  0
LINE
  5
49
  8
0
  6
CONTINUOUS
 62
     7
 10
321.3403877482
 20
21.3114812073
 30
0.0
 11
412.6440228063
 21
21.3114812073
 31
0.0
  0
LINE
  5
4A
  8
DÜNNE_LINIE
 62
     7
 10
321.3403877482
 20
37.4562176605
 30
0.0
 11
271.4617400894
 21
37.4562176605
 31
0.0
  0
LINE
  5
4B
  8
0
  6
CONTINUOUS
 62
     7
 10
321.3403877482
 20
46.1022210994
 30
0.0
 11
412.6440228063
 21
46.1022210994
 31
0.0
  0
LINE
  5
4C
  8
DÜNNE_LINIE
 62
     7
 10
271.4617400894
 20
54.207244723
 30
0.0
 11
271.4617400894
 21
5.3114812073
 31
0.0
  0
LINE
  5
4D
  8
0
  6
CONTINUOUS
 62
     7
 10
235.4617400894
 20
54.207244723
 30
0.0
 11
235.4617400894
 21
5.3114812073
 31
0.0
  0
LINE
  5
4E
  8
0
  6
CONTINUOUS
 62
     7
 10
223.4617400894
 20
13.507244723
 30
0.0
 11
271.4617400894
 21
13.507244723
 31
0.0
  0
LINE
  5
4F
  8
DÜNNE_LINIE
 62
     7
 10
223.4617400894
 20
17.207244723
 30
0.0
 11
271.4617400894
 21
17.207244723
 31
0.0
  0
LINE
  5
50
  8
DÜNNE_LINIE
 62
     7
 10
223.4617400894
 20
20.907244723
 30
0.0
 11
271.4617400894
 21
20.907244723
 31
0.0
  0
LINE
  5
51
  8
DÜNNE_LINIE
 62
     7
 10
357.2233888877
 20
21.3114812073
 30
0.0
 11
357.2233888877
 21
5.3114812073
 31
0.0
  0
LINE
  5
52
  8
DÜNNE_LINIE
 62
     7
 10
280.5822996792
 20
43.4289364721
 30
0.0
 11
280.5822996792
 21
27.4562176605
 31
0.0
  0
LINE
  5
53
  8
DÜNNE_LINIE
 62
     7
 10
321.3403877482
 20
43.4289364721
 30
0.0
 11
271.4617400894
 21
43.4289364721
 31
0.0
  0
LINE
  5
54
  8
DÜNNE_LINIE
 62
     7
 10
296.4552407589
 20
5.3114812073
 30
0.0
 11
296.4552407589
 21
27.4562176605
 31
0.0
  0
LINE
  5
55
  8
DÜNNE_LINIE
 62
     7
 10
321.3403877482
 20
32.4562176605
 30
0.0
 11
271.4617400894
 21
32.4562176605
 31
0.0
  0
LINE
  5
56
  8
DÜNNE_LINIE
 62
     7
 10
296.4552407589
 20
17.0023090769
 30
0.0
 11
271.4617400894
 21
17.0023090769
 31
0.0
  0
LINE
  5
57
  8
DÜNNE_LINIE
 62
     7
 10
296.4552407589
 20
43.4289364721
 30
0.0
 11
296.4552407589
 21
27.4562176605
 31
0.0
  0
LINE
  5
58
  8
DÜNNE_LINIE
 62
     7
 10
22.7544650016
 20
289.1934114716
 30
0.0
 11
22.7544650016
 21
5.3114812073
 31
0.0
  0
LINE
  5
59
  8
DÜNNE_LINIE
 62
     7
 10
247.4617400894
 20
5.3114812073
 30
0.0
 11
247.4617400894
 21
54.207244723
 31
0.0
  0
LINE
  5
5A
  8
DÜNNE_LINIE
 62
     7
 10
223.4617400894
 20
9.807244723
 30
0.0
 11
271.4617400894
 21
9.807244723
 31
0.0
  0
LINE
  5
5B
  8
DÜNNE_LINIE
 62
     7
 10
223.4617400894
 20
24.607244723
 30
0.0
 11
271.4617400894
 21
24.607244723
 31
0.0
  0
LINE
  5
5C
  8
DÜNNE_LINIE
 62
     7
 10
223.4617400894
 20
28.307244723
 30
0.0
 11
271.4617400894
 21
28.307244723
 31
0.0
  0
LINE
  5
5D
  8
DÜNNE_LINIE
 62
     7
 10
223.4617400894
 20
32.007244723
 30
0.0
 11
271.4617400894
 21
32.007244723
 31
0.0
  0
LINE
  5
5E
  8
DÜNNE_LINIE
 62
     7
 10
223.4617400894
 20
35.707244723
 30
0.0
 11
271.4617400894
 21
35.707244723
 31
0.0
  0
LINE
  5
5F
  8
DÜNNE_LINIE
 62
     7
 10
223.4617400894
 20
39.407244723
 30
0.0
 11
271.4617400894
 21
39.407244723
 31
0.0
  0
LINE
  5
60
  8
DÜNNE_LINIE
 62
     7
 10
223.4617400894
 20
43.107244723
 30
0.0
 11
271.4617400894
 21
43.107244723
 31
0.0
  0
LINE
  5
61
  8
DÜNNE_LINIE
 62
     7
 10
259.4617400894
 20
54.207244723
 30
0.0
 11
259.4617400894
 21
5.3114812073
 31
0.0
  0
LINE
  5
62
  8
DÜNNE_LINIE
 62
     7
 10
223.4617400894
 20
46.807244723
 30
0.0
 11
271.4617400894
 21
46.807244723
 31
0.0
  0
LINE
  5
63
  8
DÜNNE_LINIE
 62
     7
 10
223.4617400894
 20
50.507244723
 30
0.0
 11
271.4617400894
 21
50.507244723
 31
0.0
  0
TEXT
  5
64
  8
0
  6
CONTINUOUS
 62
     7
 10
321.7265652656
 20
48.4803054211
 30
0.0
 40
4.0640394089
  1
Jongen Werkzeugtechnik GmbH & Co. KG
 41
0.6513888889
 11
321.7265652656
 21
47.0446426079
 31
0.0
 73
     1
  0
TEXT
  5
65
  8
0
  6
CONTINUOUS
 62
     7
 10
277.9322518652
 20
24.7318510909
 30
0.0
 40
2.1
  1
Maßstab:
 41
0.7
 11
277.9322518652
 21
23.9900049608
 31
0.0
 73
     1
  0
TEXT
  5
66
  8
0
  6
CONTINUOUS
 62
     7
 10
279.9070978849
 20
18.4388538686
 30
0.0
 40
3.51908867
  1
1:1
 41
0.7
 11
279.9070978849
 21
17.1957003872
 31
0.0
 73
     1
  0
TEXT
  5
67
  8
0
  6
CONTINUOUS
 62
     7
 10
335.1070160228
 20
11.071988702
 30
0.0
 40
3.1280788177
  1
DXF
 41
0.7
 11
335.1070160228
 21
9.9669633851
 31
0.0
 73
     1
  0
TEXT
  5
68
  8
0
  6
CONTINUOUS
 62
     7
 10
322.8358210405
 20
18.3451648069
 30
0.0
 40
2.1
  1
Verwendungsbereich:
 41
0.7
 11
322.8358210405
 21
17.6033186769
 31
0.0
 73
     1
  0
TEXT
  5
69
  8
0
  6
CONTINUOUS
 62
     7
 10
358.4489182792
 20
18.1354880373
 30
0.0
 40
2.1
  1
EDV-Nr.:
 41
0.7
 11
358.4489182792
 21
17.3936419072
 31
0.0
 73
     1
  0
TEXT
  5
6A
  8
0
  6
CONTINUOUS
 62
     7
 10
370.3572361067
 20
11.071988702
 30
0.0
 40
3.1280788177
  1
JAD808    (7)
 41
0.5923076923
 11
370.3572361067
 21
9.9669633851
 31
0.0
 73
     1
  0
INSERT
  5
74
  8
0
  6
CONTINUOUS
 62
     7
  2
SW_NOTE_0
 10
281.3507094971
 20
11.3405103284
 30
0.0
  0
TEXT
  5
75
  8
0
  6
CONTINUOUS
 62
     7
 10
278.0432927854
 20
14.2059720169
 30
0.0
 40
2.1
  1
Material:
 41
0.7
 11
278.0432927854
 21
13.4641258868
 31
0.0
 73
     1
  0
TEXT
  5
76
  8
0
  6
CONTINUOUS
 62
     7
 10
275.8089582066
 20
51.2716979145
 30
0.0
 40
2.1
  1
Blattformat:
 41
0.7
 11
275.8089582066
 21
50.5298517844
 31
0.0
 73
     1
  0
TEXT
  5
77
  8
0
  6
CONTINUOUS
 62
     7
 10
280.9290599035
 20
45.7409052023
 30
0.0
 40
4.0640394089
  1
A3
 41
0.7
 11
280.9290599035
 21
44.3052423891
 31
0.0
 73
     1
  0
INSERT
  5
7D
  8
0
  6
CONTINUOUS
 62
     7
  2
SW_NOTE_1
 10
303.9742499361
 20
44.0782999952
 30
0.0
  0
TEXT
  5
7E
  8
0
  6
CONTINUOUS
 62
     7
 10
324.979292858
 20
42.1894623557
 30
0.0
 40
2.1
  1
Benennung:
 41
0.7
 11
324.979292858
 21
41.4476162256
 31
0.0
 73
     1
  0
TEXT
  5
7F
  8
0
  6
CONTINUOUS
 62
     7
 10
324.3568951657
 20
33.3522384816
 30
0.0
 40
3.51908867
  1
Adapter für Fräsring mit FP328
 41
0.6533333333
 11
324.3568951657
 21
32.1090850001
 31
0.0
 73
     1
  0
TEXT
  5
80
  8
0
  6
CONTINUOUS
 62
     7
 10
325.0574726845
 20
24.3544429539
 30
0.0
 40
3.51908867
  1
AD 63-30-328
 41
0.7
 11
325.0574726845
 21
23.1112894725
 31
0.0
 73
     1
  0
TEXT
  5
81
  8
0
  6
CONTINUOUS
 62
     7
 10
298.3566826774
 20
51.0136078907
 30
0.0
 40
2.1
  1
Freimaßtoleranz:
 41
0.7
 11
298.3566826774
 21
50.2717617607
 31
0.0
 73
     1
  0
TEXT
  5
82
  8
0
  6
CONTINUOUS
 62
     7
 10
285.0813190649
 20
39.3830948998
 30
0.0
 40
2.2167487685
  1
Datum
 41
0.7
 11
285.0813190649
 21
38.6000060926
 31
0.0
 73
     1
  0
TEXT
  5
83
  8
0
  6
CONTINUOUS
 62
     7
 10
299.6164273423
 20
39.4517137094
 30
0.0
 40
2.2167487685
  1
Name
 41
0.7
 11
299.6164273423
 21
38.6686249021
 31
0.0
 73
     1
  0
TEXT
  5
84
  8
0
  6
CONTINUOUS
 62
     7
 10
298.427954483
 20
33.979004463
 30
0.0
 40
2.6458333333
  1
Knüpper
 41
0.7
 11
298.427954483
 21
33.0443372158
 31
0.0
 73
     1
  0
TEXT
  5
85
  8
0
  6
CONTINUOUS
 62
     7
 10
282.1762497222
 20
33.5566156496
 30
0.0
 40
2.6458333333
  1
28.05.09
 41
0.7
 11
282.1762497222
 21
32.6219484025
 31
0.0
 73
     1
  0
TEXT
  5
86
  8
0
  6
CONTINUOUS
 62
     7
 10
272.1423209585
 20
34.0626254918
 30
0.0
 40
2.2167487685
  1
Erst.
 41
0.7
 11
272.1423209585
 21
33.2795366845
 31
0.0
 73
     1
  0
TEXT
  5
87
  8
0
  6
CONTINUOUS
 62
     7
 10
271.845495204
 20
28.954628296
 30
0.0
 40
2.2167487685
  1
Geänd.
 41
0.7
 11
271.845495204
 21
28.1715394888
 31
0.0
 73
     1
  0
INSERT
  5
91
  8
0
  6
CONTINUOUS
 62
     7
  2
SW_NOTE_2
 10
283.1617731628
 20
31.7324480013
 30
0.0
  0
TEXT
  5
92
  8
0
  6
CONTINUOUS
 62
     7
 10
239.2063094334
 20
6.310459793
 30
0.0
 40
2.2167487685
  1
Datum
 41
0.7
 11
239.2063094334
 21
5.5273709858
 31
0.0
 73
     1
  0
TEXT
  5
93
  8
0
  6
CONTINUOUS
 62
     7
 10
228.4988719266
 20
6.0914680491
 30
0.0
 40
2.2167487685
  1
Änd.
 41
0.7
 11
228.4988719266
 21
5.3083792419
 31
0.0
 73
     1
  0
TEXT
  5
94
  8
0
  6
CONTINUOUS
 62
     7
 10
252.4000651032
 20
6.3332403996
 30
0.0
 40
2.2167487685
  1
Änd.
 41
0.7
 11
252.4000651032
 21
5.5501515924
 31
0.0
 73
     1
  0
TEXT
  5
95
  8
0
  6
CONTINUOUS
 62
     7
 10
263.0452134086
 20
6.3993991538
 30
0.0
 40
2.2167487685
  1
Datum
 41
0.7
 11
263.0452134086
 21
5.6163103466
 31
0.0
 73
     1
  0
LINE
  5
96
  8
0
  6
CONTINUOUS
 62
     7
 10
222.2940391009
 20
253.2325102549
 30
0.0
 11
214.7940391009
 21
253.2325102549
 31
0.0
  0
LINE
  5
97
  8
0
  6
CONTINUOUS
 62
     7
 10
243.7940391009
 20
253.2325102549
 30
0.0
 11
240.2940391009
 21
253.2325102549
 31
0.0
  0
LINE
  5
98
  8
0
  6
CONTINUOUS
 62
     7
 10
240.2940391009
 20
192.1325102549
 30
0.0
 11
243.7940391009
 21
192.1325102549
 31
0.0
  0
LINE
  5
99
  8
0
  6
CONTINUOUS
 62
     7
 10
214.7940391009
 20
192.1325102549
 30
0.0
 11
222.2940391009
 21
192.1325102549
 31
0.0
  0
LINE
  5
9A
  8
0
  6
CONTINUOUS
 62
     7
 10
214.7940391009
 20
253.2325102549
 30
0.0
 11
214.2940391009
 21
252.7325102549
 31
0.0
  0
LINE
  5
9B
  8
0
  6
CONTINUOUS
 62
     7
 10
214.2940391009
 20
192.6325102549
 30
0.0
 11
214.7940391009
 21
192.1325102549
 31
0.0
  0
LINE
  5
9C
  8
0
  6
CONTINUOUS
 62
     7
 10
243.7940391009
 20
192.1325102549
 30
0.0
 11
244.2940391009
 21
192.6325102549
 31
0.0
  0
ARC
  5
9D
  8
0
  6
CONTINUOUS
 62
     7
 10
213.8613546519
 20
239.215194704
 30
0.0
 40
0.632684449035861
 50
270.0
 51
313.1481113513
  0
ARC
  5
9E
  8
0
  6
CONTINUOUS
 62
     7
 10
213.8613546519
 20
206.1498258059
 30
0.0
 40
0.6326844490358817
 50
46.8518886487
 51
90.0
  0
LINE
  5
9F
  8
0
  6
CONTINUOUS
 62
     7
 10
199.6940391009
 20
206.5825102549
 30
0.0
 11
212.1672441817
 21
206.5825102549
 31
0.0
  0
LINE
  5
A0
  8
0
  6
CONTINUOUS
 62
     7
 10
212.1672441817
 20
238.7825102549
 30
0.0
 11
199.6940391009
 21
238.7825102549
 31
0.0
  0
LINE
  5
A1
  8
0
  6
CONTINUOUS
 62
     7
 10
212.1672441817
 20
206.5825102549
 30
0.0
 11
212.8373544147
 21
206.7620657507
 31
0.0
  0
LINE
  5
A2
  8
0
  6
CONTINUOUS
 62
     7
 10
212.8373544147
 20
238.6029547592
 30
0.0
 11
212.1672441817
 21
238.7825102549
 31
0.0
  0
LINE
  5
A3
  8
0
  6
CONTINUOUS
 62
     7
 10
199.6940391009
 20
238.7825102549
 30
0.0
 11
199.2940391009
 21
238.3825102549
 31
0.0
  0
LINE
  5
A4
  8
0
  6
CONTINUOUS
 62
     7
 10
199.2940391009
 20
206.9825102549
 30
0.0
 11
199.6940391009
 21
206.5825102549
 31
0.0
  0
ARC
  5
A5
  8
0
  6
CONTINUOUS
 62
     7
 10
212.9926458418
 20
239.1825102549
 30
0.0
 40
0.5999999999999943
 50
255.0
 51
270.0
  0
ARC
  5
A6
  8
0
  6
CONTINUOUS
 62
     7
 10
212.9926458418
 20
206.1825102549
 30
0.0
 40
0.5999999999999943
 50
90.0
 51
105.0
  0
LINE
  5
A7
  8
0
  6
CONTINUOUS
 62
     7
 10
213.8613546519
 20
238.5825102549
 30
0.0
 11
212.9926458418
 21
238.5825102549
 31
0.0
  0
LINE
  5
A8
  8
0
  6
CONTINUOUS
 62
     7
 10
212.9926458418
 20
206.7825102549
 30
0.0
 11
213.8613546519
 21
206.7825102549
 31
0.0
  0
ARC
  5
A9
  8
0
  6
CONTINUOUS
 62
     7
 10
196.2940391009
 20
235.5825102549
 30
0.0
 40
3.0
 50
270.0
 51
0.0
  0
ARC
  5
AA
  8
0
  6
CONTINUOUS
 62
     7
 10
196.2940391009
 20
209.7825102549
 30
0.0
 40
3.0
 50
0.0
 51
90.0
  0
LINE
  5
AB
  8
0
  6
CONTINUOUS
 62
     7
 10
192.2940391009
 20
210.6825102549
 30
0.0
 11
194.3940391009
 21
212.7825102549
 31
0.0
  0
LINE
  5
AC
  8
0
  6
CONTINUOUS
 62
     7
 10
194.3940391009
 20
232.5825102549
 30
0.0
 11
192.2940391009
 21
234.6825102549
 31
0.0
  0
LINE
  5
AD
  8
0
  6
CONTINUOUS
 62
     7
 10
192.2940391009
 20
234.6825102549
 30
0.0
 11
181.2940391009
 21
234.6825102549
 31
0.0
  0
LINE
  5
AE
  8
0
  6
CONTINUOUS
 62
     7
 10
181.2940391009
 20
210.6825102549
 30
0.0
 11
192.2940391009
 21
210.6825102549
 31
0.0
  0
LINE
  5
AF
  8
0
  6
CONTINUOUS
 62
     7
 10
181.2940391009
 20
234.6825102549
 30
0.0
 11
179.2940391009
 21
232.6825102549
 31
0.0
  0
LINE
  5
B0
  8
0
  6
CONTINUOUS
 62
     7
 10
179.2940391009
 20
212.6825102549
 30
0.0
 11
181.2940391009
 21
210.6825102549
 31
0.0
  0
LINE
  5
B1
  8
0
  6
CONTINUOUS
 62
     7
 10
196.2940391009
 20
232.5825102549
 30
0.0
 11
194.3940391009
 21
232.5825102549
 31
0.0
  0
LINE
  5
B2
  8
0
  6
CONTINUOUS
 62
     7
 10
194.3940391009
 20
212.7825102549
 30
0.0
 11
196.2940391009
 21
212.7825102549
 31
0.0
  0
LINE
  5
B3
  8
0
  6
CONTINUOUS
 62
     7
 10
244.2940391009
 20
252.7325102549
 30
0.0
 11
243.7940391009
 21
253.2325102549
 31
0.0
  0
LINE
  5
B4
  8
0
  6
CONTINUOUS
 62
     7
 10
243.7940391009
 20
253.2025032779
 30
0.0
 11
243.7940391009
 21
253.2325102549
 31
0.0
  0
POLYLINE
  5
B5
  8
0
  6
CONTINUOUS
 62
     7
 66
     1
 10
0.0
 20
0.0
 30
0.0
  0
VERTEX
  5
18C
  8
0
  6
CONTINUOUS
 62
     7
 10
243.7940391009
 20
252.2647107078
 30
0.0
  0
VERTEX
  5
18D
  8
0
  6
CONTINUOUS
 62
     7
 10
243.7440093353
 20
252.2744923785
 30
0.0
  0
VERTEX
  5
18E
  8
0
  6
CONTINUOUS
 62
     7
 10
243.5745884569
 20
252.309698994
 30
0.0
  0
VERTEX
  5
18F
  8
0
  6
CONTINUOUS
 62
     7
 10
243.413169595
 20
252.3464634975
 30
0.0
  0
VERTEX
  5
190
  8
0
  6
CONTINUOUS
 62
     7
 10
243.2604824295
 20
252.3844879889
 30
0.0
  0
VERTEX
  5
191
  8
0
  6
CONTINUOUS
 62
     7
 10
243.1129007239
 20
252.4246982009
 30
0.0
  0
VERTEX
  5
192
  8
0
  6
CONTINUOUS
 62
     7
 10
242.9752781879
 20
252.4657765233
 30
0.0
  0
VERTEX
  5
193
  8
0
  6
CONTINUOUS
 62
     7
 10
242.8482794441
 20
252.5073888741
 30
0.0
  0
VERTEX
  5
194
  8
0
  6
CONTINUOUS
 62
     7
 10
242.7349856341
 20
252.5482639651
 30
0.0
  0
VERTEX
  5
195
  8
0
  6
CONTINUOUS
 62
     7
 10
242.6323558647
 20
252.5892184655
 30
0.0
  0
VERTEX
  5
196
  8
0
  6
CONTINUOUS
 62
     7
 10
242.5408701609
 20
252.6299559503
 30
0.0
  0
VERTEX
  5
197
  8
0
  6
CONTINUOUS
 62
     7
 10
242.4586094337
 20
252.6714534792
 30
0.0
  0
VERTEX
  5
198
  8
0
  6
CONTINUOUS
 62
     7
 10
242.3885987932
 20
252.7123189286
 30
0.0
  0
VERTEX
  5
199
  8
0
  6
CONTINUOUS
 62
     7
 10
242.3311922987
 20
252.7522668348
 30
0.0
  0
VERTEX
  5
19A
  8
0
  6
CONTINUOUS
 62
     7
 10
242.2878974595
 20
252.7898099217
 30
0.0
  0
VERTEX
  5
19B
  8
0
  6
CONTINUOUS
 62
     7
 10
242.2566064208
 20
252.826202395
 30
0.0
  0
VERTEX
  5
19C
  8
0
  6
CONTINUOUS
 62
     7
 10
242.237469056
 20
252.8612387292
 30
0.0
  0
VERTEX
  5
19D
  8
0
  6
CONTINUOUS
 62
     7
 10
242.2305603367
 20
252.8957662708
 30
0.0
  0
VERTEX
  5
19E
  8
0
  6
CONTINUOUS
 62
     7
 10
242.2365987732
 20
252.9286527785
 30
0.0
  0
VERTEX
  5
19F
  8
0
  6
CONTINUOUS
 62
     7
 10
242.2555535906
 20
252.9597435492
 30
0.0
  0
VERTEX
  5
1A0
  8
0
  6
CONTINUOUS
 62
     7
 10
242.286115989
 20
252.9880002361
 30
0.0
  0
VERTEX
  5
1A1
  8
0
  6
CONTINUOUS
 62
     7
 10
242.328603471
 20
253.0145030472
 30
0.0
  0
VERTEX
  5
1A2
  8
0
  6
CONTINUOUS
 62
     7
 10
242.3828156673
 20
253.0391793777
 30
0.0
  0
VERTEX
  5
1A3
  8
0
  6
CONTINUOUS
 62
     7
 10
242.4507364195
 20
253.062654748
 30
0.0
  0
VERTEX
  5
1A4
  8
0
  6
CONTINUOUS
 62
     7
 10
242.5307591637
 20
253.0842261546
 30
0.0
  0
VERTEX
  5
1A5
  8
0
  6
CONTINUOUS
 62
     7
 10
242.62249126
 20
253.1038826751
 30
0.0
  0
VERTEX
  5
1A6
  8
0
  6
CONTINUOUS
 62
     7
 10
242.7230184577
 20
253.121246296
 30
0.0
  0
VERTEX
  5
1A7
  8
0
  6
CONTINUOUS
 62
     7
 10
242.834226173
 20
253.1369098832
 30
0.0
  0
VERTEX
  5
1A8
  8
0
  6
CONTINUOUS
 62
     7
 10
242.9556061134
 20
253.1509155323
 30
0.0
  0
VERTEX
  5
1A9
  8
0
  6
CONTINUOUS
 62
     7
 10
243.090815897
 20
253.1636764566
 30
0.0
  0
VERTEX
  5
1AA
  8
0
  6
CONTINUOUS
 62
     7
 10
243.2361725288
 20
253.1748808525
 30
0.0
  0
VERTEX
  5
1AB
  8
0
  6
CONTINUOUS
 62
     7
 10
243.390984231
 20
253.1846141329
 30
0.0
  0
VERTEX
  5
1AC
  8
0
  6
CONTINUOUS
 62
     7
 10
243.5860845992
 20
253.1943964045
 30
0.0
  0
VERTEX
  5
1AD
  8
0
  6
CONTINUOUS
 62
     7
 10
243.7940391009
 20
253.2025032779
 30
0.0
  0
SEQEND
  5
1AE
  8
0
  6
CONTINUOUS
 62
     7
  0
LINE
  5
B6
  8
0
  6
CONTINUOUS
 62
     7
 10
243.7940391009
 20
221.3288020585
 30
0.0
 11
243.7940391009
 21
252.2647107078
 31
0.0
  0
ARC
  5
B7
  8
0
  6
CONTINUOUS
 62
     7
 10
246.162600703
 20
218.1913437558
 30
0.0
 40
3.93112307913294
 50
127.0502522983
 51
232.9497477017
  0
LINE
  5
B8
  8
0
  6
CONTINUOUS
 62
     7
 10
243.7940391009
 20
192.1325102549
 30
0.0
 11
243.7940391009
 21
215.0538854532
 31
0.0
  0
LINE
  5
B9
  8
0
  6
CONTINUOUS
 62
     7
 10
214.7940391009
 20
222.6825102549
 30
0.0
 11
214.7940391009
 21
192.1325102549
 31
0.0
  0
LINE
  5
BA
  8
0
  6
CONTINUOUS
 62
     7
 10
214.7940391009
 20
253.2325102549
 30
0.0
 11
214.7940391009
 21
222.6825102549
 31
0.0
  0
LINE
  5
BB
  8
0
  6
CONTINUOUS
 62
     7
 10
222.2940391009
 20
253.2325102549
 30
0.0
 11
222.2940391009
 21
247.6825102549
 31
0.0
  0
LINE
  5
BC
  8
0
  6
CONTINUOUS
 62
     7
 10
222.2940391009
 20
247.6825102549
 30
0.0
 11
240.2940391009
 21
247.6825102549
 31
0.0
  0
LINE
  5
BD
  8
0
  6
CONTINUOUS
 62
     7
 10
240.2940391009
 20
247.6825102549
 30
0.0
 11
240.2940391009
 21
253.2325102549
 31
0.0
  0
LINE
  5
BE
  8
0
  6
CONTINUOUS
 62
     7
 10
240.2940391009
 20
192.1325102549
 30
0.0
 11
240.2940391009
 21
197.6825102549
 31
0.0
  0
LINE
  5
BF
  8
0
  6
CONTINUOUS
 62
     7
 10
240.2940391009
 20
197.6825102549
 30
0.0
 11
222.2940391009
 21
197.6825102549
 31
0.0
  0
LINE
  5
C0
  8
0
  6
CONTINUOUS
 62
     7
 10
222.2940391009
 20
197.6825102549
 30
0.0
 11
222.2940391009
 21
192.1325102549
 31
0.0
  0
ARC
  5
C1
  8
0
  6
CONTINUOUS
 62
     7
 10
274.2419361791
 20
277.9221896339
 30
0.0
 40
39.81683891679944
 50
220.1197784557
 51
221.2237764199
  0
LINE
  5
C2
  8
0
  6
CONTINUOUS
 62
     7
 10
244.2940391009
 20
251.6828275624
 30
0.0
 11
244.2940391009
 21
221.7326233899
 31
0.0
  0
ARC
  5
C3
  8
0
  6
CONTINUOUS
 62
     7
 10
247.1634825115
 20
217.6683072894
 30
0.0
 40
4.975175459340159
 50
125.2224326726
 51
132.6292115657
  0
LINE
  5
C4
  8
0
  6
CONTINUOUS
 62
     7
 10
244.2940391009
 20
215.8399992148
 30
0.0
 11
244.2940391009
 21
214.8095123464
 31
0.0
  0
ARC
  5
C5
  8
0
  6
CONTINUOUS
 62
     7
 10
245.4864034385
 20
217.882850842
 30
0.0
 40
3.296534881037533
 50
239.110984232
 51
248.7952213857
  0
ARC
  5
C6
  8
0
  6
CONTINUOUS
 62
     7
 10
245.9951083648
 20
219.1947260387
 30
0.0
 40
3.761359953995945
 50
187.6983174647
 51
243.1119651299
  0
LINE
  5
C7
  8
0
  6
CONTINUOUS
 62
     7
 10
214.2940391009
 20
222.6825102549
 30
0.0
 11
214.2940391009
 21
252.7325102549
 31
0.0
  0
LINE
  5
C8
  8
0
  6
CONTINUOUS
 62
     7
 10
214.2940391009
 20
192.6325102549
 30
0.0
 11
214.2940391009
 21
222.6825102549
 31
0.0
  0
LINE
  5
C9
  8
0
  6
CONTINUOUS
 62
     7
 10
244.2940391009
 20
214.8095123464
 30
0.0
 11
244.2940391009
 21
192.6325102549
 31
0.0
  0
LINE
  5
CA
  8
0
  6
CONTINUOUS
 62
     7
 10
244.2940391009
 20
215.8399992148
 30
0.0
 11
244.2940391009
 21
221.7326233899
 31
0.0
  0
LINE
  5
CB
  8
0
  6
CONTINUOUS
 62
     7
 10
199.6940391009
 20
206.5825102549
 30
0.0
 11
199.6940391009
 21
238.7825102549
 31
0.0
  0
LINE
  5
CC
  8
0
  6
CONTINUOUS
 62
     7
 10
212.1672441817
 20
222.6825102549
 30
0.0
 11
212.1672441817
 21
206.5825102549
 31
0.0
  0
LINE
  5
CD
  8
0
  6
CONTINUOUS
 62
     7
 10
212.1672441817
 20
238.7825102549
 30
0.0
 11
212.1672441817
 21
222.6825102549
 31
0.0
  0
LINE
  5
CE
  8
0
  6
CONTINUOUS
 62
     7
 10
199.2940391009
 20
222.6825102549
 30
0.0
 11
199.2940391009
 21
238.3825102549
 31
0.0
  0
LINE
  5
CF
  8
0
  6
CONTINUOUS
 62
     7
 10
199.2940391009
 20
206.9825102549
 30
0.0
 11
199.2940391009
 21
222.6825102549
 31
0.0
  0
LINE
  5
D0
  8
0
  6
CONTINUOUS
 62
     7
 10
194.3940391009
 20
232.5825102549
 30
0.0
 11
194.3940391009
 21
212.7825102549
 31
0.0
  0
LINE
  5
D1
  8
0
  6
CONTINUOUS
 62
     7
 10
192.2940391009
 20
234.6825102549
 30
0.0
 11
192.2940391009
 21
210.6825102549
 31
0.0
  0
LINE
  5
D2
  8
0
  6
CONTINUOUS
 62
     7
 10
181.2940391009
 20
234.6825102549
 30
0.0
 11
181.2940391009
 21
210.6825102549
 31
0.0
  0
LINE
  5
D3
  8
0
  6
CONTINUOUS
 62
     7
 10
179.2940391009
 20
232.6825102549
 30
0.0
 11
179.2940391009
 21
212.6825102549
 31
0.0
  0
ARC
  5
D4
  8
0
  6
CONTINUOUS
 62
     7
 10
191.4333469567
 20
198.7232715256
 30
0.0
 40
75.56208555976956
 50
45.6077777175
 51
46.1359749105
  0
LINE
  5
D5
  8
0
  6
CONTINUOUS
 62
     7
 10
244.2940391009
 20
252.7174934403
 30
0.0
 11
244.2940391009
 21
251.6828275624
 31
0.0
  0
LINE
  5
D6
  8
0
  6
CONTINUOUS
 62
     7
 10
244.2940391009
 20
252.7325102549
 30
0.0
 11
244.2940391009
 21
252.7174934403
 31
0.0
  0
LINE
  5
D7
  8
0
  6
CONTINUOUS
 62
     7
 10
213.8613546519
 20
238.5825102549
 30
0.0
 11
213.8613546519
 21
206.7825102549
 31
0.0
  0
LINE
  5
D8
  8
0
  6
CONTINUOUS
 62
     7
 10
212.8373544147
 20
238.6029547592
 30
0.0
 11
212.8373544147
 21
206.7620657507
 31
0.0
  0
LINE
  5
D9
  8
0
  6
CONTINUOUS
 62
     7
 10
212.9926458418
 20
238.5825102549
 30
0.0
 11
212.9926458418
 21
206.7825102549
 31
0.0
  0
LINE
  5
DA
  8
0
  6
CONTINUOUS
 62
     7
 10
196.2940391009
 20
232.5825102549
 30
0.0
 11
196.2940391009
 21
212.7825102549
 31
0.0
  0
LINE
  5
DB
  8
0
  6
CENTER
 62
     7
 10
172.0221876058
 20
222.6825102549
 30
0.0
 11
253.2710425094
 21
222.6825102549
 31
0.0
  0
DIMENSION
  5
DC
  8
0
  6
CONTINUOUS
 62
     7
  2
*D4
 10
265.3893511934
 20
197.6825102549
 30
0.0
 11
265.3893511934
 21
222.6825102549
 31
0.0
 70
   160
  1
SW<>
  3
SLDDIMSTYLE0
 13
240.2940391009
 23
247.6825102549
 33
0.0
 14
240.2940391009
 24
197.6825102549
 34
0.0
 50
90.0
  0
LINE
  5
E8
  8
0
  6
CONTINUOUS
 62
     7
 10
179.6690391009
 20
233.0575102549
 30
0.0
 11
193.9190391009
 21
233.0575102549
 31
0.0
  0
LINE
  5
E9
  8
0
  6
CONTINUOUS
 62
     7
 10
179.6690391009
 20
212.3075102549
 30
0.0
 11
193.9190391009
 21
212.3075102549
 31
0.0
  0
LINE
  5
EA
  8
0
  6
CONTINUOUS
 62
     7
 10
243.7940391009
 20
139.0828124701
 30
0.0
 11
214.7940391009
 21
139.0828124701
 31
0.0
  0
LINE
  5
EB
  8
0
  6
CONTINUOUS
 62
     7
 10
214.7940391009
 20
77.9828124701
 30
0.0
 11
243.7940391009
 21
77.9828124701
 31
0.0
  0
LINE
  5
EC
  8
0
  6
CONTINUOUS
 62
     7
 10
214.7940391009
 20
139.0828124701
 30
0.0
 11
214.2940391009
 21
138.5828124701
 31
0.0
  0
LINE
  5
ED
  8
0
  6
CONTINUOUS
 62
     7
 10
214.2940391009
 20
78.4828124701
 30
0.0
 11
214.7940391009
 21
77.9828124701
 31
0.0
  0
LINE
  5
EE
  8
0
  6
CONTINUOUS
 62
     7
 10
243.7940391009
 20
77.9828124701
 30
0.0
 11
244.2940391009
 21
78.4828124701
 31
0.0
  0
ARC
  5
EF
  8
0
  6
CONTINUOUS
 62
     7
 10
213.8613546519
 20
125.0654969192
 30
0.0
 40
0.6326844490358923
 50
270.0
 51
313.1481113513
  0
ARC
  5
F0
  8
0
  6
CONTINUOUS
 62
     7
 10
213.8613546519
 20
92.0001280211
 30
0.0
 40
0.6326844490358817
 50
46.8518886487
 51
90.0
  0
LINE
  5
F1
  8
0
  6
CONTINUOUS
 62
     7
 10
199.6940391009
 20
92.4328124701
 30
0.0
 11
212.1672441817
 21
92.4328124701
 31
0.0
  0
LINE
  5
F2
  8
0
  6
CONTINUOUS
 62
     7
 10
212.1672441817
 20
124.6328124701
 30
0.0
 11
199.6940391009
 21
124.6328124701
 31
0.0
  0
LINE
  5
F3
  8
0
  6
CONTINUOUS
 62
     7
 10
212.1672441817
 20
92.4328124701
 30
0.0
 11
212.8373544147
 21
92.6123679659
 31
0.0
  0
LINE
  5
F4
  8
0
  6
CONTINUOUS
 62
     7
 10
212.8373544147
 20
124.4532569744
 30
0.0
 11
212.1672441817
 21
124.6328124701
 31
0.0
  0
LINE
  5
F5
  8
0
  6
CONTINUOUS
 62
     7
 10
199.6940391009
 20
124.6328124701
 30
0.0
 11
199.2940391009
 21
124.2328124701
 31
0.0
  0
LINE
  5
F6
  8
0
  6
CONTINUOUS
 62
     7
 10
199.2940391009
 20
92.8328124701
 30
0.0
 11
199.6940391009
 21
92.4328124701
 31
0.0
  0
ARC
  5
F7
  8
0
  6
CONTINUOUS
 62
     7
 10
212.9926458418
 20
125.0328124701
 30
0.0
 40
0.5999999999999943
 50
255.0
 51
270.0
  0
ARC
  5
F8
  8
0
  6
CONTINUOUS
 62
     7
 10
212.9926458418
 20
92.0328124701
 30
0.0
 40
0.599999999999986
 50
90.0
 51
105.0
  0
LINE
  5
F9
  8
0
  6
CONTINUOUS
 62
     7
 10
213.8613546519
 20
124.4328124701
 30
0.0
 11
212.9926458418
 21
124.4328124701
 31
0.0
  0
LINE
  5
FA
  8
0
  6
CONTINUOUS
 62
     7
 10
212.9926458418
 20
92.6328124701
 30
0.0
 11
213.8613546519
 21
92.6328124701
 31
0.0
  0
ARC
  5
FB
  8
0
  6
CONTINUOUS
 62
     7
 10
196.2940391009
 20
121.4328124701
 30
0.0
 40
3.0
 50
270.0
 51
0.0
  0
ARC
  5
FC
  8
0
  6
CONTINUOUS
 62
     7
 10
196.2940391009
 20
95.6328124701
 30
0.0
 40
3.0
 50
0.0
 51
90.0
  0
LINE
  5
FD
  8
0
  6
CONTINUOUS
 62
     7
 10
192.2940391009
 20
120.5328124701
 30
0.0
 11
181.2940391009
 21
120.5328124701
 31
0.0
  0
LINE
  5
FE
  8
0
  6
CONTINUOUS
 62
     7
 10
181.2940391009
 20
96.5328124701
 30
0.0
 11
192.2940391009
 21
96.5328124701
 31
0.0
  0
LINE
  5
FF
  8
0
  6
CONTINUOUS
 62
     7
 10
192.2940391009
 20
96.5328124701
 30
0.0
 11
194.3940391009
 21
98.6328124701
 31
0.0
  0
LINE
  5
100
  8
0
  6
CONTINUOUS
 62
     7
 10
194.3940391009
 20
118.4328124701
 30
0.0
 11
192.2940391009
 21
120.5328124701
 31
0.0
  0
LINE
  5
101
  8
0
  6
CONTINUOUS
 62
     7
 10
181.2940391009
 20
120.5328124701
 30
0.0
 11
179.2940391009
 21
118.5328124701
 31
0.0
  0
LINE
  5
102
  8
0
  6
CONTINUOUS
 62
     7
 10
179.2940391009
 20
98.5328124701
 30
0.0
 11
181.2940391009
 21
96.5328124701
 31
0.0
  0
LINE
  5
103
  8
0
  6
CONTINUOUS
 62
     7
 10
196.2940391009
 20
118.4328124701
 30
0.0
 11
194.3940391009
 21
118.4328124701
 31
0.0
  0
LINE
  5
104
  8
0
  6
CONTINUOUS
 62
     7
 10
194.3940391009
 20
98.6328124701
 30
0.0
 11
196.2940391009
 21
98.6328124701
 31
0.0
  0
LINE
  5
105
  8
0
  6
CONTINUOUS
 62
     7
 10
244.2940391009
 20
138.5828124701
 30
0.0
 11
243.7940391009
 21
139.0828124701
 31
0.0
  0
LINE
  5
106
  8
0
  6
CONTINUOUS
 62
     7
 10
243.7940391009
 20
139.0528054931
 30
0.0
 11
243.7940391009
 21
139.0828124701
 31
0.0
  0
POLYLINE
  5
107
  8
0
  6
CONTINUOUS
 62
     7
 66
     1
 10
0.0
 20
0.0
 30
0.0
  0
VERTEX
  5
1AF
  8
0
  6
CONTINUOUS
 62
     7
 10
243.7940391009
 20
138.115012923
 30
0.0
  0
VERTEX
  5
1B0
  8
0
  6
CONTINUOUS
 62
     7
 10
243.6219852821
 20
138.149819576
 30
0.0
  0
VERTEX
  5
1B1
  8
0
  6
CONTINUOUS
 62
     7
 10
243.4578261018
 20
138.1862593404
 30
0.0
  0
VERTEX
  5
1B2
  8
0
  6
CONTINUOUS
 62
     7
 10
243.3023068768
 20
138.22403423
 30
0.0
  0
VERTEX
  5
1B3
  8
0
  6
CONTINUOUS
 62
     7
 10
243.1517037897
 20
138.2640709911
 30
0.0
  0
VERTEX
  5
1B4
  8
0
  6
CONTINUOUS
 62
     7
 10
243.0109817669
 20
138.3050528179
 30
0.0
  0
VERTEX
  5
1B5
  8
0
  6
CONTINUOUS
 62
     7
 10
242.8808228945
 20
138.3466430081
 30
0.0
  0
VERTEX
  5
1B6
  8
0
  6
CONTINUOUS
 62
     7
 10
242.7647839015
 20
138.3874227456
 30
0.0
  0
VERTEX
  5
1B7
  8
0
  6
CONTINUOUS
 62
     7
 10
242.6592924791
 20
138.4283463062
 30
0.0
  0
VERTEX
  5
1B8
  8
0
  6
CONTINUOUS
 62
     7
 10
242.5648401388
 20
138.4691160706
 30
0.0
  0
VERTEX
  5
1B9
  8
0
  6
CONTINUOUS
 62
     7
 10
242.4794283197
 20
138.5107076832
 30
0.0
  0
VERTEX
  5
1BA
  8
0
  6
CONTINUOUS
 62
     7
 10
242.4061666418
 20
138.551729372
 30
0.0
  0
VERTEX
  5
1BB
  8
0
  6
CONTINUOUS
 62
     7
 10
242.3454241528
 20
138.5918923178
 30
0.0
  0
VERTEX
  5
1BC
  8
0
  6
CONTINUOUS
 62
     7
 10
242.2987741665
 20
138.6297503752
 30
0.0
  0
VERTEX
  5
1BD
  8
0
  6
CONTINUOUS
 62
     7
 10
242.2640989591
 20
138.666501912
 30
0.0
  0
VERTEX
  5
1BE
  8
0
  6
CONTINUOUS
 62
     7
 10
242.2415645706
 20
138.7019358448
 30
0.0
  0
VERTEX
  5
1BF
  8
0
  6
CONTINUOUS
 62
     7
 10
242.2311542928
 20
138.7369083884
 30
0.0
  0
VERTEX
  5
1C0
  8
0
  6
CONTINUOUS
 62
     7
 10
242.2336960463
 20
138.7702699552
 30
0.0
  0
VERTEX
  5
1C1
  8
0
  6
CONTINUOUS
 62
     7
 10
242.2491768655
 20
138.8018589847
 30
0.0
  0
VERTEX
  5
1C2
  8
0
  6
CONTINUOUS
 62
     7
 10
242.2764052655
 20
138.8306057539
 30
0.0
  0
VERTEX
  5
1C3
  8
0
  6
CONTINUOUS
 62
     7
 10
242.3155896297
 20
138.8576110111
 30
0.0
  0
VERTEX
  5
1C4
  8
0
  6
CONTINUOUS
 62
     7
 10
242.3665449108
 20
138.8827960842
 30
0.0
  0
VERTEX
  5
1C5
  8
0
  6
CONTINUOUS
 62
     7
 10
242.4311728613
 20
138.9067969499
 30
0.0
  0
VERTEX
  5
1C6
  8
0
  6
CONTINUOUS
 62
     7
 10
242.5079681445
 20
138.9288906001
 30
0.0
  0
VERTEX
  5
1C7
  8
0
  6
CONTINUOUS
 62
     7
 10
242.5965531828
 20
138.9490602721
 30
0.0
  0
VERTEX
  5
1C8
  8
0
  6
CONTINUOUS
 62
     7
 10
242.6940511818
 20
138.9669037235
 30
0.0
  0
VERTEX
  5
1C9
  8
0
  6
CONTINUOUS
 62
     7
 10
242.8023096474
 20
138.98303258
 30
0.0
  0
VERTEX
  5
1CA
  8
0
  6
CONTINUOUS
 62
     7
 10
242.9208332045
 20
138.9974847367
 30
0.0
  0
VERTEX
  5
1CB
  8
0
  6
CONTINUOUS
 62
     7
 10
243.0532080346
 20
139.0106821922
 30
0.0
  0
VERTEX
  5
1CC
  8
0
  6
CONTINUOUS
 62
     7
 10
243.1958404664
 20
139.0222979533
 30
0.0
  0
VERTEX
  5
1CD
  8
0
  6
CONTINUOUS
 62
     7
 10
243.3480513725
 20
139.0324145276
 30
0.0
  0
VERTEX
  5
1CE
  8
0
  6
CONTINUOUS
 62
     7
 10
243.4535623375
 20
139.0383223179
 30
0.0
  0
VERTEX
  5
1CF
  8
0
  6
CONTINUOUS
 62
     7
 10
243.5629423182
 20
139.0436604431
 30
0.0
  0
VERTEX
  5
1D0
  8
0
  6
CONTINUOUS
 62
     7
 10
243.6766886056
 20
139.0484871828
 30
0.0
  0
VERTEX
  5
1D1
  8
0
  6
CONTINUOUS
 62
     7
 10
243.7940391009
 20
139.0528054931
 30
0.0
  0
SEQEND
  5
1D2
  8
0
  6
CONTINUOUS
 62
     7
  0
LINE
  5
108
  8
0
  6
CONTINUOUS
 62
     7
 10
243.7940391009
 20
107.1791042737
 30
0.0
 11
243.7940391009
 21
138.115012923
 31
0.0
  0
ARC
  5
109
  8
0
  6
CONTINUOUS
 62
     7
 10
246.162600703
 20
104.041645971
 30
0.0
 40
3.93112307913294
 50
127.0502522983
 51
232.9497477017
  0
LINE
  5
10A
  8
0
  6
CONTINUOUS
 62
     7
 10
243.7940391009
 20
77.9828124701
 30
0.0
 11
243.7940391009
 21
100.9041876684
 31
0.0
  0
LINE
  5
10B
  8
0
  6
CONTINUOUS
 62
     7
 10
214.7940391009
 20
139.0828124701
 30
0.0
 11
214.7940391009
 21
77.9828124701
 31
0.0
  0
LINE
  5
10C
  8
0
  6
CONTINUOUS
 62
     7
 10
222.2940391009
 20
126.0913573985
 30
0.0
 11
222.2940391009
 21
90.9742675418
 31
0.0
  0
LINE
  5
10D
  8
0
  6
CONTINUOUS
 62
     7
 10
222.2940391009
 20
90.9742675418
 30
0.0
 11
240.2940391009
 21
90.9742675418
 31
0.0
  0
LINE
  5
10E
  8
0
  6
CONTINUOUS
 62
     7
 10
240.2940391009
 20
90.9742675418
 30
0.0
 11
240.2940391009
 21
126.0913573985
 31
0.0
  0
LINE
  5
10F
  8
0
  6
CONTINUOUS
 62
     7
 10
240.2940391009
 20
126.0913573985
 30
0.0
 11
222.2940391009
 21
126.0913573985
 31
0.0
  0
LINE
  5
110
  8
0
  6
CONTINUOUS
 62
     7
 10
214.2940391009
 20
78.4828124701
 30
0.0
 11
214.2940391009
 21
138.5828124701
 31
0.0
  0
ARC
  5
111
  8
0
  6
CONTINUOUS
 62
     7
 10
274.2419361788
 20
163.7724918488
 30
0.0
 40
39.8168389163169
 50
220.1197784557
 51
221.2237764199
  0
LINE
  5
112
  8
0
  6
CONTINUOUS
 62
     7
 10
244.2940391009
 20
137.5331297776
 30
0.0
 11
244.2940391009
 21
107.5829256051
 31
0.0
  0
ARC
  5
113
  8
0
  6
CONTINUOUS
 62
     7
 10
247.1634825115
 20
103.5186095046
 30
0.0
 40
4.975175459341216
 50
125.2224326726
 51
132.6292115657
  0
LINE
  5
114
  8
0
  6
CONTINUOUS
 62
     7
 10
244.2940391009
 20
101.69030143
 30
0.0
 11
244.2940391009
 21
100.6598145616
 31
0.0
  0
ARC
  5
115
  8
0
  6
CONTINUOUS
 62
     7
 10
245.4864034385
 20
103.7331530572
 30
0.0
 40
3.29653488102976
 50
239.110984232
 51
248.7952213857
  0
ARC
  5
116
  8
0
  6
CONTINUOUS
 62
     7
 10
245.9897014835
 20
105.0397922494
 30
0.0
 40
3.754245551978958
 50
187.574034198
 51
243.1494228749
  0
LINE
  5
117
  8
0
  6
CONTINUOUS
 62
     7
 10
244.2940391009
 20
100.6598145616
 30
0.0
 11
244.2940391009
 21
78.4828124701
 31
0.0
  0
LINE
  5
118
  8
0
  6
CONTINUOUS
 62
     7
 10
244.2940391009
 20
101.69030143
 30
0.0
 11
244.2940391009
 21
107.5829256051
 31
0.0
  0
LINE
  5
119
  8
0
  6
CONTINUOUS
 62
     7
 10
199.6940391009
 20
92.4328124701
 30
0.0
 11
199.6940391009
 21
124.6328124701
 31
0.0
  0
LINE
  5
11A
  8
0
  6
CONTINUOUS
 62
     7
 10
212.1672441817
 20
124.6328124701
 30
0.0
 11
212.1672441817
 21
92.4328124701
 31
0.0
  0
LINE
  5
11B
  8
0
  6
CONTINUOUS
 62
     7
 10
199.2940391009
 20
92.8328124701
 30
0.0
 11
199.2940391009
 21
124.2328124701
 31
0.0
  0
LINE
  5
11C
  8
0
  6
CONTINUOUS
 62
     7
 10
192.2940391009
 20
120.5328124701
 30
0.0
 11
192.2940391009
 21
96.5328124701
 31
0.0
  0
LINE
  5
11D
  8
0
  6
CONTINUOUS
 62
     7
 10
181.2940391009
 20
120.5328124701
 30
0.0
 11
181.2940391009
 21
96.5328124701
 31
0.0
  0
LINE
  5
11E
  8
0
  6
CONTINUOUS
 62
     7
 10
194.3940391009
 20
118.4328124701
 30
0.0
 11
194.3940391009
 21
98.6328124701
 31
0.0
  0
LINE
  5
11F
  8
0
  6
CONTINUOUS
 62
     7
 10
179.2940391009
 20
118.5328124701
 30
0.0
 11
179.2940391009
 21
98.5328124701
 31
0.0
  0
ARC
  5
120
  8
0
  6
CONTINUOUS
 62
     7
 10
191.4333469582
 20
84.5735737423
 30
0.0
 40
75.5620855576604
 50
45.6077777175
 51
46.1359749105
  0
LINE
  5
121
  8
0
  6
CONTINUOUS
 62
     7
 10
244.2940391009
 20
138.5677956555
 30
0.0
 11
244.2940391009
 21
137.5331297776
 31
0.0
  0
LINE
  5
122
  8
0
  6
CONTINUOUS
 62
     7
 10
244.2940391009
 20
138.5828124701
 30
0.0
 11
244.2940391009
 21
138.5677956555
 31
0.0
  0
LINE
  5
123
  8
0
  6
CONTINUOUS
 62
     7
 10
213.8613546519
 20
124.4328124701
 30
0.0
 11
213.8613546519
 21
92.6328124701
 31
0.0
  0
LINE
  5
124
  8
0
  6
CONTINUOUS
 62
     7
 10
212.8373544147
 20
124.4532569744
 30
0.0
 11
212.8373544147
 21
92.6123679659
 31
0.0
  0
LINE
  5
125
  8
0
  6
CONTINUOUS
 62
     7
 10
212.9926458418
 20
124.4328124701
 30
0.0
 11
212.9926458418
 21
92.6328124701
 31
0.0
  0
LINE
  5
126
  8
0
  6
CONTINUOUS
 62
     7
 10
196.2940391009
 20
118.4328124701
 30
0.0
 11
196.2940391009
 21
98.6328124701
 31
0.0
  0
LINE
  5
127
  8
0
  6
CENTER
 62
     7
 10
248.4969083395
 20
108.5328124701
 30
0.0
 11
174.6890480775
 21
108.5328124701
 31
0.0
  0
DIMENSION
  5
128
  8
0
  6
CONTINUOUS
 62
     7
  2
*D5
 10
266.5202750575
 20
77.9828124701
 30
0.0
 11
266.5202750575
 21
108.5328124701
 31
0.0
 70
   160
  1
%%c<>
  3
SLDDIMSTYLE1
 13
243.7940391009
 23
139.0828124701
 33
0.0
 14
243.7940391009
 24
77.9828124701
 34
0.0
 50
90.0
  0
DIMENSION
  5
134
  8
0
  6
CONTINUOUS
 62
   218
  2
*D6
 10
214.2940391009
 20
150.3489769657
 30
0.0
 11
229.2940391009
 21
150.3489769657
 31
0.0
 70
   160
  3
SLDDIMSTYLE0
 13
244.2940391009
 23
138.5677956555
 33
0.0
 14
214.2940391009
 24
138.5828124701
 34
0.0
  0
LINE
  5
13E
  8
0
  6
CONTINUOUS
 62
     7
 10
179.6690391009
 20
118.9078124701
 30
0.0
 11
193.9190391009
 21
118.9078124701
 31
0.0
  0
LINE
  5
13F
  8
0
  6
CONTINUOUS
 62
     7
 10
179.6690391009
 20
98.1578124701
 30
0.0
 11
193.9190391009
 21
98.1578124701
 31
0.0
  0
ARC
  5
140
  8
0
  6
CONTINUOUS
 62
     7
 10
120.6689172405
 20
225.9161672771
 30
0.0
 40
3.620773398046335
 50
85.3496782469
 51
294.8597482162
  0
ARC
  5
141
  8
0
  6
CONTINUOUS
 62
     7
 10
102.0909574232
 20
200.8708934155
 30
0.0
 40
3.620773398046337
 50
355.3496782469
 51
204.8597482162
  0
ARC
  5
142
  8
0
  6
CONTINUOUS
 62
     7
 10
95.6236433789
 20
244.4941270944
 30
0.0
 40
3.620773398046335
 50
175.3496782469
 51
24.8597482162
  0
ARC
  5
143
  8
0
  6
CONTINUOUS
 62
     7
 10
77.0456835617
 20
219.4488532328
 30
0.0
 40
3.620773398046352
 50
265.3496782469
 51
114.8597482162
  0
LINE
  5
144
  8
0
  6
CONTINUOUS
 62
     7
 10
120.9624690704
 20
229.5250212951
 30
0.0
 11
127.8576177085
 21
230.5555081635
 31
0.0
  0
ARC
  5
145
  8
0
  6
CONTINUOUS
 62
     7
 10
126.3946423885
 20
226.2570245873
 30
0.0
 40
4.540623067621853
 50
63.2340155368
 51
71.2041551889
  0
ARC
  5
146
  8
0
  6
CONTINUOUS
 62
     7
 10
98.8572505352
 20
222.6825028024
 30
0.0
 40
30.55005014714716
 50
2.5396880746
 51
14.4603119254
  0
ARC
  5
147
  8
0
  6
CONTINUOUS
 62
     7
 10
126.2364993283
 20
227.315299634
 30
0.0
 40
4.540590375057182
 50
305.795816072
 51
313.7660132023
  0
LINE
  5
148
  8
0
  6
CONTINUOUS
 62
     7
 10
128.8922835864
 20
223.63239712
 30
0.0
 11
122.1910849002
 21
222.6308962661
 31
0.0
  0
ARC
  5
149
  8
0
  6
CONTINUOUS
 62
     7
 10
98.8573004011
 20
222.6825102549
 30
0.0
 40
30.55000000000001
 50
284.4603217446
 51
2.5396782554
  0
ARC
  5
14A
  8
0
  6
CONTINUOUS
 62
     7
 10
102.4318147334
 20
195.1451682676
 30
0.0
 40
4.54062306761303
 50
333.2340155368
 51
341.2041551889
  0
ARC
  5
14B
  8
0
  6
CONTINUOUS
 62
     7
 10
98.8573004011
 20
222.6825102549
 30
0.0
 40
30.05
 50
285.1885665223
 51
1.8114334777
  0
CIRCLE
  5
14C
  8
0
  6
CONTINUOUS
 62
     7
 10
98.8573004011
 20
222.6825102549
 30
0.0
 40
9.477350269189628
  0
CIRCLE
  5
14D
  8
0
  6
CONTINUOUS
 62
     7
 10
111.9987633131
 20
216.5545454597
 30
0.0
 40
4.600000000000009
  0
CIRCLE
  5
14E
  8
0
  6
CONTINUOUS
 62
     7
 10
85.7158374891
 20
228.8104750502
 30
0.0
 40
4.600000000000009
  0
LINE
  5
14F
  8
0
  6
CONTINUOUS
 62
     7
 10
99.8071872661
 20
192.6475270696
 30
0.0
 11
98.8056864122
 21
199.3487257559
 31
0.0
  0
ARC
  5
150
  8
0
  6
CONTINUOUS
 62
     7
 10
98.8573004011
 20
222.6825102549
 30
0.0
 40
30.05000000000001
 50
195.1885665223
 51
271.8114334777
  0
LINE
  5
151
  8
0
  6
CONTINUOUS
 62
     7
 10
76.7521317318
 20
215.8399992148
 30
0.0
 11
69.8569830937
 21
214.8095123464
 31
0.0
  0
LINE
  5
152
  8
0
  6
CONTINUOUS
 62
     7
 10
68.8223172158
 20
221.7326233899
 30
0.0
 11
75.523515902
 21
222.7341242438
 31
0.0
  0
ARC
  5
153
  8
0
  6
CONTINUOUS
 62
     7
 10
98.8573004011
 20
222.6825102549
 30
0.0
 40
30.05
 50
105.1885665223
 51
181.8114334777
  0
LINE
  5
154
  8
0
  6
CONTINUOUS
 62
     7
 10
92.014789361
 20
244.7876789242
 30
0.0
 11
90.9843024925
 21
251.6828275624
 31
0.0
  0
LINE
  5
155
  8
0
  6
CONTINUOUS
 62
     7
 10
97.9074135361
 20
252.7174934403
 30
0.0
 11
98.90891439
 21
246.016294754
 31
0.0
  0
ARC
  5
156
  8
0
  6
CONTINUOUS
 62
     7
 10
98.8573004011
 20
222.6825102549
 30
0.0
 40
30.05000000000004
 50
15.1885665223
 51
91.8114334777
  0
LINE
  5
157
  8
0
  6
CONTINUOUS
 62
     7
 10
105.6998114412
 20
200.5773415856
 30
0.0
 11
106.7302983097
 21
193.6821929475
 31
0.0
  0
ARC
  5
158
  8
0
  6
CONTINUOUS
 62
     7
 10
94.224511022
 20
250.0617091821
 30
0.0
 40
4.540590375057881
 50
35.795816072
 51
43.7660132023
  0
ARC
  5
159
  8
0
  6
CONTINUOUS
 62
     7
 10
98.8573004011
 20
222.6825102549
 30
0.0
 40
30.55000000000003
 50
14.4603217446
 51
92.5396782554
  0
CIRCLE
  5
15A
  8
0
  6
CONTINUOUS
 62
     7
 10
111.9987633131
 20
216.5545454597
 30
0.0
 40
4.100000000000009
  0
CIRCLE
  5
15B
  8
0
  6
CONTINUOUS
 62
     7
 10
98.8573004011
 20
222.6825102549
 30
0.0
 40
8.900000000000006
  0
ARC
  5
15C
  8
0
  6
CONTINUOUS
 62
     7
 10
98.8572011255
 20
222.6831745233
 30
0.0
 40
30.55066801500837
 50
272.5398090548
 51
284.4601909452
  0
ARC
  5
15D
  8
0
  6
CONTINUOUS
 62
     7
 10
103.4900897802
 20
195.3033113278
 30
0.0
 40
4.540590375048114
 50
215.795816072
 51
223.7660132023
  0
ARC
  5
15E
  8
0
  6
CONTINUOUS
 62
     7
 10
71.3199584137
 20
219.1079959226
 30
0.0
 40
4.540623067625657
 50
243.2340155368
 51
251.2041551889
  0
ARC
  5
15F
  8
0
  6
CONTINUOUS
 62
     7
 10
98.8573004011
 20
222.6825102549
 30
0.0
 40
30.55000000000001
 50
194.4603217446
 51
272.5396782554
  0
ARC
  5
160
  8
0
  6
CONTINUOUS
 62
     7
 10
95.2827860688
 20
250.2198522423
 30
0.0
 40
4.540623067621544
 50
153.2340155368
 51
161.2041551889
  0
ARC
  5
161
  8
0
  6
CONTINUOUS
 62
     7
 10
98.8573996767
 20
222.6818459866
 30
0.0
 40
30.55066801500577
 50
92.5398090548
 51
104.4601909452
  0
ARC
  5
162
  8
0
  6
CONTINUOUS
 62
     7
 10
71.4781014739
 20
218.0497208759
 30
0.0
 40
4.540590375047232
 50
125.795816072
 51
133.7660132023
  0
ARC
  5
163
  8
0
  6
CONTINUOUS
 62
     7
 10
98.8573004011
 20
222.6825102549
 30
0.0
 40
30.55000000000001
 50
104.4603217446
 51
182.5396782554
  0
CIRCLE
  5
164
  8
0
  6
CONTINUOUS
 62
     7
 10
85.7158374891
 20
228.8104750502
 30
0.0
 40
4.099999999999994
  0
ARC
  5
165
  8
0
  6
CONTINUOUS
 62
     7
 10
98.8573267712
 20
222.682514196
 30
0.0
 40
30.55002651879366
 50
182.539683448
 51
194.460316552
  0
CIRCLE
  5
166
  8
0
  6
CONTINUOUS
 62
     7
 10
98.8573004011
 20
222.6825102549
 30
0.0
 40
5.09999999999998
  0
LINE
  5
167
  8
0
  6
HIDDEN
 62
     7
 10
116.4158453294
 20
197.6825102549
 30
0.0
 11
81.2987554728
 21
197.6825102549
 31
0.0
  0
LINE
  5
168
  8
0
  6
HIDDEN
 62
     7
 10
116.4158453294
 20
247.6825102549
 30
0.0
 11
81.2987554728
 21
247.6825102549
 31
0.0
  0
CIRCLE
  5
169
  8
0
  6
HIDDEN
 62
     7
 10
98.8573004011
 20
222.6825102549
 30
0.0
 40
9.099999999999994
  0
CIRCLE
  5
16A
  8
0
  6
HIDDEN
 62
     7
 10
98.8573004011
 20
222.6825102549
 30
0.0
 40
15.89999999999998
  0
CIRCLE
  5
16B
  8
0
  6
HIDDEN
 62
     7
 10
98.8573004011
 20
222.6825102549
 30
0.0
 40
18.0
  0
ARC
  5
16C
  8
0
  6
HIDDEN
 62
     7
 10
98.8573004011
 20
222.6825102549
 30
0.0
 40
30.05000000000005
 50
91.8114334777
 51
180.0
  0
ARC
  5
16D
  8
0
  6
HIDDEN
 62
     7
 10
98.8573004011
 20
222.6825102549
 30
0.0
 40
30.04999999999992
 50
1.8114334777
 51
15.1885665223
  0
ARC
  5
16E
  8
0
  6
HIDDEN
 62
     7
 10
98.8573004011
 20
222.6825102549
 30
0.0
 40
30.04999999999999
 50
271.8114334777
 51
285.1885665223
  0
ARC
  5
16F
  8
0
  6
HIDDEN
 62
     7
 10
98.8573004011
 20
222.6825102549
 30
0.0
 40
30.05000000000011
 50
180.0
 51
195.1885665223
  0
CIRCLE
  5
170
  8
0
  6
HIDDEN
 62
     7
 10
98.8573004011
 20
222.6825102549
 30
0.0
 40
16.10000000000001
  0
CIRCLE
  5
171
  8
0
  6
HIDDEN
 62
     7
 10
98.8573004011
 20
222.6825102549
 30
0.0
 40
15.7
  0
CIRCLE
  5
172
  8
0
  6
HIDDEN
 62
     7
 10
98.8573004011
 20
222.6825102549
 30
0.0
 40
9.899999999999991
  0
CIRCLE
  5
173
  8
0
  6
HIDDEN
 62
     7
 10
98.8573004011
 20
222.6825102549
 30
0.0
 40
11.99999999999999
  0
CIRCLE
  5
174
  8
0
  6
HIDDEN
 62
     7
 10
98.8573004011
 20
222.6825102549
 30
0.0
 40
1.575000000000003
  0
CIRCLE
  5
175
  8
0
  6
HIDDEN
 62
     7
 10
98.8573004011
 20
222.6825102549
 30
0.0
 40
9.999999999999986
  0
CIRCLE
  5
176
  8
0
  6
HIDDEN
 62
     7
 10
98.8573004011
 20
222.6825102549
 30
0.0
 40
3.34999999999998
  0
LINE
  5
177
  8
0
  6
CENTER
 62
     7
 10
131.610724811
 20
222.6825102549
 30
0.0
 11
64.4400697892
 21
222.6825102549
 31
0.0
  0
LINE
  5
178
  8
0
  6
CENTER
 62
     7
 10
98.8573004011
 20
222.6825102549
 30
0.0
 11
131.5063895883
 21
227.5619493271
 31
0.0
  0
LINE
  5
179
  8
0
  6
CENTER
 62
     7
 10
98.8573004011
 20
256.5855377953
 30
0.0
 11
98.8573004011
 21
186.9499046075
 31
0.0
  0
LINE
  5
17A
  8
0
  6
CENTER
 62
     7
 10
98.8573004011
 20
222.6825102549
 30
0.0
 11
119.4100684843
 21
213.0985971014
 31
0.0
  0
LINE
  5
17B
  8
0
  6
CENTER
 62
     7
 10
91.3719130005
 20
244.8898823492
 30
0.0
 11
99.9798414909
 21
246.1763458816
 31
0.0
  0
LINE
  5
17C
  8
0
  6
CENTER
 62
     7
 10
98.8573004011
 20
222.6825102549
 30
0.0
 11
79.5007448734
 21
231.708620333
 31
0.0
  0
LINE
  5
17D
  8
0
  6
CENTER
 62
     7
 10
98.8573004011
 20
222.6825102549
 30
0.0
 11
87.9667740207
 21
217.6041744024
 31
0.0
  0
LINE
  5
17E
  8
0
  6
CENTER
 62
     7
 10
93.9711543534
 20
255.3764768635
 30
0.0
 11
96.4107425595
 21
239.0528110191
 31
0.0
  0
LINE
  5
17F
  8
0
  6
CENTER
 62
     7
 10
103.719145489
 20
190.1511451651
 30
0.0
 11
101.3050982015
 21
206.3039127329
 31
0.0
  0
LINE
  5
180
  8
0
  6
CENTER
 62
     7
 10
67.0847659747
 20
217.9340731695
 30
0.0
 11
82.8864627987
 21
220.2956525829
 31
0.0
  0
LINE
  5
181
  8
0
  6
CENTER
 62
     7
 10
119.8419202423
 20
231.4497334006
 30
0.0
 11
121.5400118075
 21
220.0875374311
 31
0.0
  0
LINE
  5
182
  8
0
  6
CENTER
 62
     7
 10
106.5824301965
 20
201.542148519
 30
0.0
 11
96.7628123055
 21
200.0745967923
 31
0.0
  0
LINE
  5
183
  8
0
  6
CENTER
 62
     7
 10
76.3362566764
 20
224.1957393616
 30
0.0
 11
77.7824943252
 21
214.5187372962
 31
0.0
  0
CIRCLE
  5
184
  8
0
  6
CENTER
 62
     7
 10
98.8573004011
 20
222.6825102549
 30
0.0
 40
14.5
  0
ARC
  5
185
  8
0
  6
HIDDEN
 62
     7
 10
98.8573004011
 20
222.6825102549
 30
0.0
 40
10.37500000000002
 50
75.0
 51
345.0
  0
ARC
  5
186
  8
0
  6
CONTINUOUS
 62
     7
 10
98.8573004011
 20
222.6825102549
 30
0.0
 40
6.000000000000003
 50
75.0
 51
345.0
  0
ENDSEC
  0
EOF
